BluRayCD Forum

 找回密码
 立即注册【分享大片】
查看: 36|回复: 1
收起左侧

[动漫动画] 青春变形记/熊抱青春记/青春养成记 Turning Red 2022 1080p BluRaycd x264 DTS-HD MA 7.1-MT 14.82GB & 12.59GB

[复制链接]

1万

主题

1万

帖子

12万

积分

Post Share

金币
23882 枚
体力
24613 点

卓越贡献勋章

mvods 发表于 2022-4-24 20:59:11 | 显示全部楼层 |阅读模式

# ?$ X! J$ t8 [1 P1 d; `9 g& Z! i4 j' F1 a' E# p. N
◎译  名 青春变形记/熊抱青春记(港)/青春养成记(台)/变红
9 M' G* d" M, c( c. ]* n& ?◎片  名 Turning Red( `4 |$ g, ^! `! \4 n. s0 y
◎年  代 2022
- b4 n! c$ ^. l8 w3 z' [◎产  地 美国/加拿大
4 z2 h; j" q  m. W" }' x; j◎类  别 喜剧/动画/奇幻/冒险
4 {( G5 c' f+ H/ A◎语  言 英语
- d, z# `5 n8 n◎上映日期 2022-03-11(美国网络/加拿大)8 h/ d; C! U6 P+ \
◎IMDb评分  7.0/10 from 81,831 users
# N' F) D" E# i3 E◎IMDb链接  https://www.imdb.com/title/tt8097030/( _; y8 `, C1 Q" P' D- m
◎豆瓣评分 8.2/10 from 203,839 users8 t( L% c. e6 }* v
◎豆瓣链接 https://movie.douban.com/subject/35284253/
2 d; N6 {+ ^4 i◎片  长 1 h 39 min( b8 O: E. y5 J! n, T
◎导  演 石之予 Domee Shi: s* Y8 ~' g& w6 d8 m
◎编  剧 石之予 Domee Shi
# ^) Z5 N& Z! \& J: L8 N$ V& Y       茱莉亚·赵 Julia Cho! ~  l% Y2 d1 Y/ t
       莎拉·施特莱歇尔 Sarah Streicher
8 L2 [& n3 N4 C( h3 i. A◎演  员 姜晋安 Rosalie Chiang
5 O6 m  U4 y5 Q       吴珊卓 Sandra Oh
$ z$ j8 t' y3 e# V6 R       艾娃·摩士 Ava Morse/ s3 h6 p! X$ D" G9 V
       麦特里伊·拉玛克里斯南 Maitreyi Ramakrishnan
' d, Z7 Q1 b5 m8 O6 _       朴惠仁 Hyein Park* f* m! C3 ^  U# E5 L
       奥赖恩·李 Orion Lee- g8 G3 T5 M( c7 t! r, Z7 U5 |
       何炜晴 Wai Ching Ho
. A/ S) K* m: t( f( T       特里斯坦·艾瑞克·陈 Tristan Allerick Chen
- q! P  c5 m$ \8 o3 j; E3 }$ l       吴汉章 James Hong4 n) H: f; t4 s7 d  z: N
       菲尼亚斯·奥康奈尔 Finneas O'Connell
5 t4 c- H. \, K       乔丹·费舍 Jordan Fisher% B+ U; ?4 _: Z- L
       托菲尔-恩戈 Topher Ngo9 o* G/ I$ w  B  a& N
       格雷森·维拉纽瓦 Grayson Villanueva1 d+ `- S1 M! Z/ w0 q( o
       乔什·列维 Josh Levi
# p! J" y% i; ~$ B& }: s2 G& ~2 B7 r       洛瑞·坦·齐恩 Lori Tan Chinn
  u3 b3 ]$ e5 r( e6 x; m       雪莉·可拉 Sherry Cola+ \" W# ?/ p4 D) [
       莉莉安·林 Lillian Lim3 a5 S" r8 L+ R$ |
       艾迪森·钱德勒 Addison Chandler0 V# A6 E) Y( }9 {4 }2 q
       莉莉·桑费利波 Lily Sanfelippo
+ H) A( J' D5 J5 c       萨沙·罗伊茨 Sasha Roiz# Z0 p, j2 w  i! `
       安妮-玛丽 Anne-Marie
, q# d* V. _$ v& Q1 ?       Mia Tagano8 \( V& X! p1 V7 K
       程可为 Ho-Wai Ching+ Y' i4 m7 I5 u: S1 I2 _/ z
       Hyein Park
' \3 k' ^5 f5 ~; M0 D6 P8 |- G       Tristan Allerick Chen  3 R2 v' G9 l0 U0 u! C
       路德维格·戈兰松 Ludwig Göransson2 w* E* `8 I/ t. J) u5 W. W1 @

# T' I9 `' q' ?/ i0 u5 c◎简  介   - B" [& n# Y# Q/ f) F" D- Z4 d* C
; d4 D  Z' u  f5 ]& d
  13岁的女孩小美(姜晋安 配音)成长于一个典型的亚裔家庭之中,家里经营着一间作为旅游景点对外开放的祠堂,祠堂里供奉着家族的祖先。小美的母亲(吴珊卓 Sandra Oh 饰)是一个对孩子关怀备至又略微有些神经质的女人,在母亲面前,小美总是扮演着乖乖女的角色,可实际上,小美和所有的同龄孩子一样,调皮、好动,并且开始对异性产生了兴趣。0 o4 b* @2 l0 a" Y

+ n% x' p: L1 w# K" s* |  在学校里,和小美玩的最好的是普利亚(麦特里伊·拉玛克里斯南 Maitreyi Ramakrishnan 配音)、米莉安姆(艾娃·摩士 Ava Morse 配音)和艾比(朴惠仁 配音)三个女孩,她们四人都是当红的偶像歌手团体4*Town的迷妹。一场意外中,小美在巨大的压力之下变身成为了一只小熊猫,就此揭开了隐藏在她家族里的秘密。
$ B3 q7 v" @0 w1 ]9 D  r
+ q) F% v/ P' _7 f9 K3 T  A 13-year-old girl named Meilin turns into a giant red panda whenever she gets too excited.4 A0 a) A4 ~5 s0 S9 i8 {
Turning.Red.2022.1080p.BluRayCD.x264.DTS-HD.MA.7.1-MT 14.82 GB; J6 L; M& s5 [& y6 A

/ q* J" [+ a! U) v% VVideo" o; k8 C3 I' U4 Q3 E
ID                                       : 1
9 V: C9 F9 }8 Q0 q- ^1 g* ^& A  VFormat                                   : AVC
1 o( W& Z7 p; o# A$ V0 kFormat/Info                              : Advanced Video Codec
9 v) I4 n* Q! N# lFormat profile                           : [email protected]$ {! X) T: ?8 E9 a; K9 Y3 z! b
Format settings                          : CABAC / 4 Ref Frames' e6 }* {$ i  |3 p& m; {5 O
Format settings, CABAC                   : Yes. d7 a1 I; w* _  b9 x( Q8 L
Format settings, Reference frames        : 4 frames0 H8 v. y$ J9 Y9 j4 ~
Codec ID                                 : V_MPEG4/ISO/AVC! U) M+ A# J4 C# B' ?* g9 z' ?: z
Duration                                 : 1 h 39 min# r( S( H2 y3 t! D+ c1 c- w
Bit rate                                 : 16.6 Mb/s( t$ W- F7 {4 q; r5 e
Width                                    : 1 920 pixels  L! \& p+ c/ p, R5 z. E- ~
Height                                   : 1 036 pixels
- C1 a- P) P: B; kDisplay aspect ratio                     : 1.85:12 R6 F. ]" m6 t; V, @
Frame rate mode                          : Constant! k+ M- g) L) Q/ K
Frame rate                               : 23.976 (24000/1001/189150) FPS
% h2 K& W( \% p5 T- z# p# eColor space                              : YUV" `  j: W. ~/ T: K* O5 E1 ~: P
Chroma subsampling                       : 4:2:0" c1 p& }* o/ n6 Y( _" K; R
Bit depth                                : 8 bits7 u4 `9 f" `3 r. K
Scan type                                : Progressive3 W5 b* j6 C0 r+ \8 N( `8 h
Bits/(Pixel*Frame)                       : 0.3484 f2 p9 ?9 j+ ^0 s, |
Stream size                              : 11.5 GiB (78%)9 G8 c) @7 I, T$ C, a6 l3 P, a( {% Q
Writing library                          : x264 core 157 r2938 2b00a84 [email protected] Mod
8 A* M7 T8 U% b, R5 ?% J6 h0 HEncoding settings                        : cabac=1 / ref=4 / deblock=1:-3:-3 / analyse=0x3:0x133 / me=umh / subme=10 / psy=1 / psy_rd=1.05:0.00 / mixed_ref=1 / me_range=32 / chroma_me=1 / trellis=2 / 8x8dct=1 / cqm=0 / deadzone=21,11 / fast_pskip=0 / chroma_qp_offset=-2 / threads=12 / lookahead_threads=2 / sliced_threads=0 / nr=0 / decimate=0 / interlaced=0 / bluray_compat=0 / constrained_intra=0 / bframes=8 / b_pyramid=2 / b_adapt=2 / b_bias=0 / direct=3 / weightb=1 / open_gop=0 / weightp=2 / keyint=250 / keyint_min=24 / scenecut=40 / intra_refresh=0 / rc_lookahead=250 / rc=crf / mbtree=0 / crf=16.8 / qcomp=0.60 / qpmin=0 / qpmax=69 / qpstep=4 / vbv_maxrate=62500 / vbv_bufsize=78125 / crf_max=0.0 / nal_hrd=none / filler=0 / ip_ratio=1.30 / pb_ratio=1.20 / aq=3:0.80
' M6 Y$ [1 s" A6 @Language                                 : English
- |' x: X1 J' f% _Default                                  : Yes- t2 }7 o- e7 o) B# H  P
Forced                                   : No9 G3 h6 a5 \* M
Color range                              : Limited
9 I& \! Q4 H2 f" q' iColor primaries                          : BT.709
0 y( r6 X$ t4 JMatrix coefficients                      : BT.709' k! C) a2 R7 R/ _0 ]
0 D2 z% m( J; S! _& H2 Z
Audio
+ o' _% ^$ e; c4 V8 X; k) _! `. \ID                                       : 2* L3 J: D* }8 e( f& ]
Format                                   : DTS XLL
/ m" G' V+ u9 TFormat/Info                              : Digital Theater Systems# S/ U( N5 E7 N2 g
Commercial name                          : DTS-HD Master Audio5 q% w- F+ t" j
Codec ID                                 : A_DTS
/ \6 b. [1 p3 ]% _9 ]; f: Y: `Duration                                 : 1 h 39 min' Z6 Z9 e6 F' J
Bit rate mode                            : Variable, m1 E# N) i7 x4 n# D1 }& g
Bit rate                                 : 4 686 kb/s$ ^$ M1 ?* j2 o6 z5 t& q  ]
Channel(s)                               : 8 channels
) T' q) S2 c- r- g* `* v8 t8 s7 iChannel layout                           : C L R LFE Lb Rb Lss Rss
) M  @: k6 l/ \. OSampling rate                            : 48.0 kHz" [5 t5 ?. M! ?, J6 n9 H. _
Frame rate                               : 93.750 FPS (512 SPF)/ h0 Q* Z' v) z, z, M9 T
Bit depth                                : 24 bits
' L- y) ]( ]9 s; rCompression mode                         : Lossless" }! [) [, \& `7 {  w
Stream size                              : 3.26 GiB (22%)& L/ h( {) ~: e8 s+ d+ y* K7 ]* \
Language                                 : English0 i# T6 ^$ ]9 Y3 Y& r& f: P
Default                                  : Yes
" a& v8 J/ u, r. ?: XForced                                   : No
) }2 |4 _7 H0 ^8 z! P! {3 \! h8 V: Z4 R+ ~/ `/ B5 J' E$ x
Text #12 o# C5 v9 ]' b% G9 p+ y
ID                                       : 3
: q2 L: m2 {4 T1 |6 qFormat                                   : UTF-8
; k- }$ g) l4 zCodec ID                                 : S_TEXT/UTF8
2 q- Q. E, W; p6 l& HCodec ID/Info                            : UTF-8 Plain Text( F# X' h) K3 J. S! L
Duration                                 : 1 h 38 min
3 D' c, o# B. x) gBit rate                                 : 60 b/s2 O" N! S; K: {/ v# |
Count of elements                        : 1674
4 ?: r' z5 c  vStream size                              : 43.2 KiB (0%)9 |5 M4 w1 F  ]) n+ [) h
Language                                 : English  }" h, [- b5 i
Default                                  : Yes
4 h# u: a2 v" {Forced                                   : No+ ~( v4 O& e" \: H1 f8 O4 B" W

0 m2 z3 h4 F: Z; I" KText #26 }+ R  G  Z7 t& v% J) u. R
ID                                       : 4
0 k/ I" x. L% [3 S. w- a1 fFormat                                   : UTF-81 F: O+ w5 c. v  y1 U2 d+ N9 l
Codec ID                                 : S_TEXT/UTF89 l; j  `' {( ^6 r, p" ]1 H
Codec ID/Info                            : UTF-8 Plain Text
4 ?( ~. r( l) a' _# fDuration                                 : 1 h 38 min
5 e+ o; R8 e/ ~4 y% gBit rate                                 : 76 b/s
2 |6 U* e2 o# n& ]3 m+ NCount of elements                        : 21180 P+ a$ T% s2 l5 K
Stream size                              : 55.1 KiB (0%)$ H  i$ x* T7 o9 d. h, y
Title                                    : SDH5 o: Z- ]9 ]) u0 i* R$ z
Language                                 : English
# w" K3 @& m8 r) \Default                                  : No% L, \# z- g9 X( n# O
Forced                                   : No6 E. s6 J) b+ M. k
$ N7 Q  l+ E  W$ [8 y
Text #3
8 X! z1 G3 F8 W6 t, @0 g% i0 OID                                       : 5
3 ^% H  \1 j7 cFormat                                   : PGS
' {2 z" W. I) w' F, h" s7 V8 CMuxing mode                              : zlib7 |3 m, A% }7 _$ T
Codec ID                                 : S_HDMV/PGS/ T9 l4 g; B# R) V
Codec ID/Info                            : Picture based subtitle format used on BDs/HD-DVDs  A! y) J9 B+ W0 i) W
Duration                                 : 1 h 38 min
' G1 T) y' i0 s8 n7 x3 Q  N6 gBit rate                                 : 52.9 kb/s& z9 V* u  n! K; w* E
Count of elements                        : 4280+ Q" e& r$ E, m, X+ W
Stream size                              : 37.4 MiB (0%)3 x( R; n$ h+ k
Language                                 : English
, @7 p6 ]( V  S4 p+ m% ]Default                                  : No( \! G. r, f) W! U, I, r( x0 f4 q
Forced                                   : No, Y, P- r: A8 y
/ }8 f7 @0 k% R0 S# J1 F7 C
Menu* ?$ `* p% M& o6 T% x' W! H; [
00:00:00.000                             : en:Chapter 01
; C) v( J6 a3 ]& f# z2 ?- {9 f1 [00:03:18.323                             : en:Chapter 02
# ~0 S  J+ q* Z- C00:06:09.494                             : en:Chapter 031 `6 D5 T/ j; J, ~5 O
00:09:26.816                             : en:Chapter 04
, F* i2 I; P/ @3 t9 q0 @$ a! a00:10:48.481                             : en:Chapter 05
5 F1 q  r  h8 S) r. a; ?00:15:19.210                             : en:Chapter 06
# m7 |9 u8 n0 v  V00:16:06.549                             : en:Chapter 07
- s- u  b. d& d4 Z00:19:56.111                             : en:Chapter 08
1 C" l$ ^% T$ B: n) h: _8 F" Z00:23:50.721                             : en:Chapter 09
, H) [" G5 L/ o. r  [/ Y# e00:26:51.902                             : en:Chapter 10
! ^/ Y, U# f5 [! X00:31:08.783                             : en:Chapter 11
$ Y/ J' S# a4 w' F+ S4 G00:36:04.704                             : en:Chapter 12
1 @9 E( l/ p# S- q00:37:58.401                             : en:Chapter 13
# h# Z" h& g3 ^# R00:39:56.018                             : en:Chapter 149 A. t! E: x, K+ v
00:42:44.812                             : en:Chapter 15  h$ K% k( n2 i5 m% k
00:45:28.434                             : en:Chapter 16
3 d. D/ a$ W7 B1 N1 B$ v3 ~00:48:08.427                             : en:Chapter 17
" _6 |& @# o# Y! S+ I. V& r00:50:08.130                             : en:Chapter 18
, a4 _6 `  j0 t! U% T3 c9 T3 i0 |1 f6 T00:52:51.876                             : en:Chapter 19
4 D' O1 a) O" k( J$ Q) K00:55:07.887                             : en:Chapter 201 ]/ H) i. ]$ M* ~
00:56:27.592                             : en:Chapter 21
1 {1 C' P) x( ~% S8 D* j  u; Y7 C0 n00:59:53.506                             : en:Chapter 22, \, i7 Q# z6 F- f
01:01:54.001                             : en:Chapter 23
% Z* L! Z: `0 @" Q# G1 \% J1 L: W01:03:31.432                             : en:Chapter 24
2 c; Z. c6 W. {; b+ X01:05:53.240                             : en:Chapter 25, u* R2 ?, f- ?; v. s
01:11:10.224                             : en:Chapter 26- c2 _1 q# T( a9 q3 i# G
01:14:42.144                             : en:Chapter 27
/ T: ~* }0 g6 _$ B5 z% M& h01:18:46.179                             : en:Chapter 28* j9 y$ Y! d3 H7 t7 \, x
01:21:37.350                             : en:Chapter 291 n6 S' Q: z! z, d+ _
01:26:53.791                             : en:Chapter 30
5 Y. `9 I5 b" d% I& B3 ?9 @01:28:56.956                             : en:Chapter 31+ c8 z) S) d+ x; _$ |5 g/ P6 X; }3 v, u
01:38:38.328                             : en:Chapter 32
Turning.Red.2022.1080p.BluRaycd.x264.DTS-MT 12.59 GB- o" I! [" D5 b( O0 k
- E$ P3 C' S9 y- o# X6 q; R' `
Video  C6 G0 s$ ^/ C- N2 j0 {
ID                                       : 1* P6 _# p1 B8 s# w
Format                                   : AVC6 N5 |, N) @( w' X1 F
Format/Info                              : Advanced Video Codec+ K! R7 m; X9 r# M
Format profile                           : [email protected]9 A+ M+ B0 `$ L$ H9 [0 y( k
Format settings                          : CABAC / 4 Ref Frames& D0 ]" Q% G* A1 p
Format settings, CABAC                   : Yes9 N' z, W, D6 z8 E: x
Format settings, Reference frames        : 4 frames+ p! x2 Z+ R' i7 |
Codec ID                                 : V_MPEG4/ISO/AVC
2 u: p+ b: X# n+ d! N& m1 x/ y/ V! eDuration                                 : 1 h 39 min9 s# `5 a) G  @/ {: N2 \. f/ c; h
Bit rate                                 : 16.6 Mb/s
8 g& }& Y) D6 Y- Z0 q3 A% HWidth                                    : 1 920 pixels
& k: ?3 ]9 O2 e/ U" FHeight                                   : 1 036 pixels- u) ]0 V2 A9 W; B* d& Y
Display aspect ratio                     : 1.85:1  R8 @  ]/ ?0 Z" |! F. p
Frame rate mode                          : Constant$ H( U# L" q0 O! y; k9 p
Frame rate                               : 23.976 (24000/1001/189150) FPS2 ^, w! U8 H* ?! K, E/ J5 ?
Color space                              : YUV7 R( W2 x- N2 J. m! L( u' p
Chroma subsampling                       : 4:2:0
4 ]  \5 o: ]5 S% jBit depth                                : 8 bits3 ?2 [% ^/ k- j" q& J, O  j
Scan type                                : Progressive: \( G4 K: f; r; F: o
Bits/(Pixel*Frame)                       : 0.348( W0 }* n6 f$ E
Stream size                              : 11.5 GiB (92%)
3 [) H8 G: C/ M/ wWriting library                          : x264 core 157 r2938 2b00a84 [email protected] Mod
4 q4 N. q( b% Y3 {Encoding settings                        : cabac=1 / ref=4 / deblock=1:-3:-3 / analyse=0x3:0x133 / me=umh / subme=10 / psy=1 / psy_rd=1.05:0.00 / mixed_ref=1 / me_range=32 / chroma_me=1 / trellis=2 / 8x8dct=1 / cqm=0 / deadzone=21,11 / fast_pskip=0 / chroma_qp_offset=-2 / threads=12 / lookahead_threads=2 / sliced_threads=0 / nr=0 / decimate=0 / interlaced=0 / bluray_compat=0 / constrained_intra=0 / bframes=8 / b_pyramid=2 / b_adapt=2 / b_bias=0 / direct=3 / weightb=1 / open_gop=0 / weightp=2 / keyint=250 / keyint_min=24 / scenecut=40 / intra_refresh=0 / rc_lookahead=250 / rc=crf / mbtree=0 / crf=16.8 / qcomp=0.60 / qpmin=0 / qpmax=69 / qpstep=4 / vbv_maxrate=62500 / vbv_bufsize=78125 / crf_max=0.0 / nal_hrd=none / filler=0 / ip_ratio=1.30 / pb_ratio=1.20 / aq=3:0.80$ |# z- y5 n$ _& B8 L+ M
Language                                 : English$ R* k- L6 ^0 G$ v
Default                                  : Yes( G$ _* g' D, r
Forced                                   : No
+ T0 Y0 {9 Q% `5 w# v4 CColor range                              : Limited: N3 V7 `+ s. u% |) `
Color primaries                          : BT.709
5 r; F: ]* j0 Z+ R; D3 oMatrix coefficients                      : BT.7091 i; L! S" i2 S" @: K. T* H. s6 {
4 M& _+ n' a' c! X6 [* y5 ?0 y
Audio; b( P6 L: ~2 G" ^# }% Y- ?: X
ID                                       : 2
5 t9 n* V6 H, l2 c* j9 T) IFormat                                   : DTS* m/ E- ^& B4 {. S$ v
Format/Info                              : Digital Theater Systems: |1 v5 L$ r$ p
Codec ID                                 : A_DTS
) {( E; p: J2 e5 u5 NDuration                                 : 1 h 39 min
& x- e5 a/ g( ^4 |& Z1 B! B9 rBit rate mode                            : Constant( J' B( _& s# R* _7 L+ H
Bit rate                                 : 1 509 kb/s
3 b! N4 ~- Q+ K8 T# RChannel(s)                               : 6 channels
: ]2 F" f/ J! C# F% QChannel layout                           : C L R Ls Rs LFE- P/ v8 ^5 A0 ?, K0 A
Sampling rate                            : 48.0 kHz/ [$ X  l5 |! z, p7 W8 w( P
Frame rate                               : 93.750 FPS (512 SPF)
/ O  b% M2 u9 ?9 dBit depth                                : 24 bits
2 m9 o, C! }( C) k% p8 ^4 \Compression mode                         : Lossy
# ^" q/ B4 j5 \2 sStream size                              : 1.05 GiB (8%)
3 [$ q. ?# B4 q$ bLanguage                                 : English
) [8 a8 M, q4 W9 m' @4 v  QDefault                                  : Yes
5 O+ T9 [. p4 C. G$ \: @) T# tForced                                   : No/ N& C2 X* o: B) q
1 D+ f* i$ u+ ^- O9 g+ f
Text #1
0 `( S: a4 O4 n3 d" c) {* YID                                       : 3
: z2 g  Q( t$ t7 bFormat                                   : UTF-8& ^: n8 {  q+ k! z7 Y; d; A
Codec ID                                 : S_TEXT/UTF8+ a+ p" d: @  ?5 U2 L
Codec ID/Info                            : UTF-8 Plain Text$ m# g1 u! h% I, U6 M  l' ~
Duration                                 : 1 h 38 min9 n0 {: e2 v7 Q3 z& H4 c; f. b
Bit rate                                 : 60 b/s
# n7 X3 }% `4 `/ xCount of elements                        : 1674
6 E) t" e) b2 Z, y1 r$ {5 \( tStream size                              : 43.2 KiB (0%)
1 h. K$ S$ d$ K7 m( F. b; e5 FLanguage                                 : English  P" v1 V7 k& R" G  V. ?# i) R& P
Default                                  : Yes
1 C/ r3 E+ L1 x" S& o# {Forced                                   : No
9 H8 l; Z. p! |9 n, Z+ [4 X2 c+ x: ^0 x/ ~* z% ]
Text #2
/ F) M/ b, K8 @9 O# {' s, cID                                       : 49 r- D- ^9 v& S$ P
Format                                   : UTF-85 C  j" S+ Q) K
Codec ID                                 : S_TEXT/UTF8
5 i0 A9 @3 L' @8 ?' ACodec ID/Info                            : UTF-8 Plain Text
2 e8 r. b" D) x! I: F. S. N8 @Duration                                 : 1 h 38 min
1 O6 w& y; z& s8 JBit rate                                 : 76 b/s
0 e$ X6 @$ F  R7 ]( H  wCount of elements                        : 2118
" B0 c+ x, T: y' C+ ?Stream size                              : 55.1 KiB (0%)* |: M7 }: c, c7 m% d- R4 M5 y
Title                                    : SDH
/ j" V9 \8 r) f# D8 xLanguage                                 : English
$ m+ T8 b( \! o  e1 W9 i. C& _6 DDefault                                  : No
2 s3 b' x# ]# ]5 SForced                                   : No' o4 d; E7 \2 \& ]6 w$ o3 i
& C  Q6 D4 ^7 L7 H0 s
Menu. e) x, J3 e6 O
00:00:00.000                             : en:Chapter 01
1 A4 X" a  P3 g/ Q- R& p. ]( k00:03:18.323                             : en:Chapter 02
+ P# q$ C: i0 l6 I8 ^+ k4 P00:06:09.494                             : en:Chapter 03
& {1 Q' k" |4 g: P; S- d; h! I00:09:26.816                             : en:Chapter 04
" [+ h, l( b& \6 ]+ ]2 X00:10:48.481                             : en:Chapter 05
7 B+ K$ h1 b2 n00:15:19.210                             : en:Chapter 06. m" D  o( z: a; F9 ~( C! Y
00:16:06.549                             : en:Chapter 07
/ ~; q1 p4 x; p) P; g00:19:56.111                             : en:Chapter 08
+ W% x! I9 H9 ~, q) b; b00:23:50.721                             : en:Chapter 09
% p5 D, N$ p- g8 m00:26:51.902                             : en:Chapter 10% ~" ]4 `) Q. h; b' ?& {
00:31:08.783                             : en:Chapter 114 J; d+ K- u/ t  H2 N1 s% e! ~
00:36:04.704                             : en:Chapter 120 h- y# v6 ]! s' b- r4 x6 V1 y
00:37:58.401                             : en:Chapter 13
6 s. N; p; D% k2 y; y00:39:56.018                             : en:Chapter 14
; a% x; [: P" K: I00:42:44.812                             : en:Chapter 15, C1 y; \  k6 s9 Q/ K7 p
00:45:28.434                             : en:Chapter 16
! a9 [' E. z: l. A00:48:08.427                             : en:Chapter 17
# x( s* e/ P4 a8 ?$ ?- \00:50:08.130                             : en:Chapter 18
4 Q+ i) e) l; }9 @6 _2 J8 P: m00:52:51.876                             : en:Chapter 19/ R0 O% l2 J: |! k. o1 Z
00:55:07.887                             : en:Chapter 20+ f( w2 j. V0 e" d4 s: u) [
00:56:27.592                             : en:Chapter 210 [6 D2 F7 s; @- [7 x
00:59:53.506                             : en:Chapter 22" U+ Z0 E3 _: x1 l4 p
01:01:54.001                             : en:Chapter 23
  M8 e1 m( c- d7 R8 L2 ~4 \6 Z' @& o; X) G01:03:31.432                             : en:Chapter 24- ]# y) T  h0 e
01:05:53.240                             : en:Chapter 25: Q% }2 y9 Q7 @, |+ A" L$ ~
01:11:10.224                             : en:Chapter 26' |& M) i! ]3 E
01:14:42.144                             : en:Chapter 27/ ]3 t6 b% D; `' p
01:18:46.179                             : en:Chapter 28
, @+ `. F2 P5 I. E1 `7 _01:21:37.350                             : en:Chapter 29
* H' y. [! P. n01:26:53.791                             : en:Chapter 30. M- {" {# M0 j# v; m# K5 P
01:28:56.956                             : en:Chapter 31
* L1 O1 l- ]0 Q, z: ~1 \/ |' p01:38:38.328                             : en:Chapter 32
, u+ {. J6 L0 g' g$ U3 g7 s
游客,查看本帖隐藏内容请回复 | 加入VIP可免积分免回复 了解详情 | 还不是会员:点击获取邀请码 Invitation Code

78

主题

4334

帖子

1万

积分

Sponsor

金币
2456 枚
体力
6228 点
lanpanshuma 发表于 2022-4-25 08:34:11 | 显示全部楼层
啥也不说了,楼主就是给力!) I0 O1 K, b3 V5 D6 Q+ N0 t. f
Not see, I am a novice, the inadequacies of the first Please bear with me!& W- h, n9 k0 i6 e! w4 |4 B

本版积分规则

小黑屋|Archiver|蓝光电影资源网

GMT+8, 2022-8-10 01:49

Copyright © Tencent Cloud.

快速回复 返回顶部 返回列表