BluRayCD Forum

 找回密码
 立即注册【分享大片】
查看: 74|回复: 9
收起左侧

[蓝光原盘] 地狱血脉/地狱御巫 [REMUX无损版] Hellbender Growing Up Is Hell 2021 1080p BluRaycd REMUX AVC DTS-HD MA 5.1-FGT 13.79GB

[复制链接]

8876

主题

9070

帖子

7万

积分

Forum Moderator

金币
13235 枚
体力
12282 点

卓越贡献勋章

24小时 发表于 2022-4-29 09:43:39 | 显示全部楼层 |阅读模式
A lonely teen discovers her family's ties to witchcraft.# U0 E4 P+ Z* i" C& E6 r, @. C

) x/ Y; B0 P" a$ q( l 01.jpg + [" w' g- `0 I$ c$ t
8 R1 y0 B- J- I8 c% T
◎译  名 地狱血脉/地狱御巫2 K. m% y" k0 g' s: i0 t" S
◎片  名 Hellbender / Hellbender Growing Up Is Hell
. q, r4 b3 j8 T( U1 O( W3 z◎年  代 2021# a, B( h3 N$ G
◎产  地 美国
  Z8 y. [6 F. s% v/ W. i9 A◎类  别 恐怖" \' B' X4 [8 a& R: {% p" L
◎语  言 英语
6 {$ G1 U/ R! `4 _2 b◎上映日期 2021-08-14(加拿大奇幻电影节)/2022-02-24(美国)
- v" e/ L& T- I5 i. o( M◎IMDb评分  5.9/10 from 2,463 users3 w5 T1 }5 O8 {/ |8 q5 n4 B
◎IMDb链接  https://www.imdb.com/title/tt14905650/
( L. N" w. S8 N4 t/ K( s- Q◎豆瓣评分 5.5/10 from 235 users
) q7 I5 e# I9 [* F- T3 z◎豆瓣链接 https://movie.douban.com/subject/35503505/6 m: @, o( d. |. \: T
◎文件格式 x264 + DTS  " l# O" r5 {. W1 t8 V# @: a
◎视频尺寸 1920 x 1080
6 z8 a+ Q! _; b4 K6 |( N5 u, x" z◎文件大小 1DVD 13.79 GiB- B4 K6 X9 ?+ L) s: T
◎片  长 1 h 22 min
1 V! i  ]5 p9 c6 `* v◎导  演 John Adams* H! U' F) Y0 m1 v! H1 X$ H
       Zelda Adams
1 x( g. C1 Q/ h. e; `$ w+ p3 [       托碧波塞尔 Toby Poser/ {" M9 j' z% @
◎编  剧 John Adams
9 C6 ~+ c* H. [       Zelda Adams
& Y7 y6 o0 }% ]/ C/ Z. L6 }       托碧波塞尔 Toby Poser# {0 h' f; a* K  [4 i: m
◎主  演 Zelda Adams; ~. a! Y8 R  E+ q3 _9 o7 m
       托碧波塞尔 Toby Poser
) T: g) g$ a# K& S( |4 k! X2 t& r       Lulu Adams  G/ z4 p; B' v6 k
       John Adams6 F( o2 O$ B1 l
       Rinzin Thonden0 K' M5 H) F+ h6 \  v$ {4 M
       Khenzom5 _- J) ]' Z3 q6 w( m
       Shawn Wilson6 I( G( W: @1 u* ^! @5 N
       Judy Rosen0 ]* }; p2 M) N5 p/ @
       罗布·菲格罗亚 Rob Figueroa7 b3 l* a% f/ u% r0 @
0 R$ }- e9 f% w7 @4 q
◎简  介     w& {0 q8 }' Z& a- M

& m$ t7 }& g3 Z/ K$ t$ q5 g  一个孤独的少女发现她的家人与巫术有关。
# T* q. C* \8 i9 R- j& r  A confused teenage girl is yearning to discover her family’s dark secret.5 i; U% ?. V, R* {4 v: G
Hellbender.Growing.Up.Is.Hell.2021.1080p.BluRayCD.REMUX.AVC.DTS-HD.MA.5.1-FGT" [1 [) I9 n8 E1 A% I: f  ?( Q
- `; V8 d( z1 H# j$ S
Video& Z# X2 a2 i8 }7 Z  g8 {0 o. D1 x* H
ID                                       : 19 M7 e  g7 \" X& h+ }2 f
ID in the original source medium         : 4113 (0x1011)
$ T  x* P% ]$ J. w1 T4 iFormat                                   : AVC0 v5 a% E9 N6 K+ D, n& D# u
Format/Info                              : Advanced Video Codec
# k% K+ g. r8 ^( ^Format profile                           : [email protected]
. l- B: ]) i7 n( E0 ]Format settings                          : CABAC / 4 Ref Frames
: L# p' b0 _1 V* {Format settings, CABAC                   : Yes$ x# F5 g! m* X. b6 N: K8 g
Format settings, Reference frames        : 4 frames
0 f; t1 W; C5 F6 _% G5 nCodec ID                                 : V_MPEG4/ISO/AVC
. b5 j1 f- s+ f0 {" IDuration                                 : 1 h 22 min9 D+ F0 `0 q2 X9 X
Bit rate mode                            : Variable; m0 L, S! _$ i# C
Bit rate                                 : 22.0 Mb/s
- X2 n1 K1 ?9 p1 W( p) vMaximum bit rate                         : 35.0 Mb/s
4 H7 N( S2 r" N4 iWidth                                    : 1 920 pixels" V1 ~, a4 t, L5 G
Height                                   : 1 080 pixels
7 g* J$ P/ h5 j4 kDisplay aspect ratio                     : 16:9
3 a; y4 D' f6 Z) WFrame rate mode                          : Constant* `: L, D  z  s6 {
Frame rate                               : 23.976 (24000/1001/189150) FPS
3 R# y3 p( n# VStandard                                 : Component8 q7 A5 ~4 x' J7 h; w) W& \* M. ?2 n
Color space                              : YUV
9 T* ?1 y* V  H. b* RChroma subsampling                       : 4:2:03 L9 _: C/ b8 F( q, `% ]
Bit depth                                : 8 bits( ^* t7 n1 N5 T: G; m, Q) C5 Z& g! P
Scan type                                : Progressive! R. |" {' y7 R( t8 T' G: e1 B  A3 w
Bits/(Pixel*Frame)                       : 0.443
1 e  k2 Z  U5 X$ Z  s$ jStream size                              : 12.7 GiB (92%)9 z5 \5 E5 P. t. q7 @9 c
Writing library                          : x264 core 136
* |, c, S9 |6 [- j$ v8 X' nEncoding settings                        : cabac=1 / ref=4 / deblock=1:0:0 / analyse=0x3:0x113 / me=umh / subme=8 / psy=1 / psy_rd=1.00:0.00 / mixed_ref=1 / me_range=16 / chroma_me=1 / trellis=1 / 8x8dct=1 / cqm=2 / deadzone=21,11 / fast_pskip=1 / chroma_qp_offset=-4 / threads=36 / lookahead_threads=6 / sliced_threads=0 / slices=4 / nr=0 / decimate=1 / interlaced=0 / bluray_compat=1 / stitchable=1 / constrained_intra=0 / bframes=2 / b_pyramid=0 / b_adapt=2 / b_bias=0 / direct=3 / weightb=1 / open_gop=1 / weightp=1 / keyint=24 / keyint_min=1 / scenecut=40 / intra_refresh=0 / rc_lookahead=24 / rc=2pass / mbtree=1 / bitrate=22000 / ratetol=1.0 / qcomp=0.60 / qpmin=5 / qpmax=69 / qpstep=4 / cplxblur=20.0 / qblur=0.5 / vbv_maxrate=35000 / vbv_bufsize=30000 / nal_hrd=vbr / ip_ratio=1.40 / aq=1:1.00
* j2 @9 n2 z6 BLanguage                                 : English# a1 m! c) \* Y; [) y; O
Default                                  : No: S+ S+ c4 B, S/ o& n
Forced                                   : No
! }, s$ ]" |) D5 J4 zColor range                              : Limited, x# Q) U4 N9 U7 g
Color primaries                          : BT.709- t6 g, E1 r: U% h
Transfer characteristics                 : BT.709
" t. y9 X$ D3 R* VMatrix coefficients                      : BT.709
; c- ^* s+ J7 t1 Q; a" OOriginal source medium                   : Blu-ray9 E1 P) P- V, X/ H

3 T7 V) N& F! U% M3 k+ g( m6 XAudio( x+ x7 Y: k! W$ }
ID                                       : 21 F. E" L1 R2 V9 U  [
ID in the original source medium         : 4353 (0x1101)+ ]- V# Y1 `& U8 B5 ]
Format                                   : DTS XLL
  s0 V; Y* R! V; F  @Format/Info                              : Digital Theater Systems
1 K- Z! D! M' e9 I  Z: ~& d% uCommercial name                          : DTS-HD Master Audio$ k) e8 |3 f$ y6 V+ Q% c* h5 v; W
Codec ID                                 : A_DTS6 ?; G) F  n) F2 m7 w
Duration                                 : 1 h 22 min9 Z0 B* b6 K* `- E! I" C3 p
Bit rate mode                            : Variable
* U' `" o+ X7 xBit rate                                 : 1 959 kb/s
/ h# J8 F* Y4 O1 `, F8 o2 d8 H* qChannel(s)                               : 6 channels$ q, c8 W$ H' J: W1 ~; u9 {4 j
Channel layout                           : C L R Ls Rs LFE/ F; T/ k' _) T1 u& y/ k* U& k
Sampling rate                            : 48.0 kHz
7 o9 h. p% j$ S5 v3 a5 LFrame rate                               : 93.750 FPS (512 SPF)
1 L* ~$ `' E# w$ b2 R8 R/ wBit depth                                : 16 bits
# h9 K4 }* x) ?. C( S8 f; rCompression mode                         : Lossless
" n; s/ v. f7 c! E3 j# X4 k. cStream size                              : 1.13 GiB (8%)2 E! ?6 [8 v/ y8 R, Z
Title                                    : DTS-HD MA 5.1
- ~5 x, N6 q# zLanguage                                 : English
4 x7 @( H4 |4 }& C; _6 VDefault                                  : Yes
& J+ [4 n3 d& ~' s( xForced                                   : No0 `5 l# B0 h/ ~9 \/ R& P( h" M& V
Original source medium                   : Blu-ray" \9 b" [% q" X* T

! |% I: i5 L; p0 g( w* c) T9 t$ lText
! p* E  G+ x/ i( l. |3 x, yID                                       : 3
, q) `; p( L+ k5 Y% l7 ~Format                                   : UTF-8
0 Z) b4 ?9 m- B* j% Y9 S& @: g) [, XCodec ID                                 : S_TEXT/UTF8
5 }; S3 x# r  g8 B, l) kCodec ID/Info                            : UTF-8 Plain Text
& y  G5 U% N' D6 T8 \. h7 O) UDuration                                 : 1 h 21 min
3 b4 h2 _2 W) l! ?Bit rate                                 : 43 b/s1 J7 u7 q( V4 u' G2 x# `. y" e
Count of elements                        : 1144
  n+ ]& O  g) A8 I( Z3 ~Stream size                              : 26.0 KiB (0%). Q# @2 m2 z; O  p
Language                                 : English
- l/ _+ d+ y! {6 ~, ]Default                                  : Yes) g. m: r9 _) x& c4 b; S7 o; @
Forced                                   : No3 k. S2 i; }) b- ]$ f, J
* s9 o  c0 ~8 o- f8 Y' S
Menu" D2 r0 \4 q2 {5 X0 M
00:00:00.000                             : en:Chapter 01
1 D' ?: X1 \; k' e3 D$ T% q00:06:21.964                             : en:Chapter 02
0 L# {# ]% C4 E2 n& m00:23:14.142                             : en:Chapter 03$ ]! z+ s3 a9 I- s1 B# E
00:41:44.418                             : en:Chapter 04" l5 P& X, X) h& V/ H( h
00:56:01.358                             : en:Chapter 05
1 r" A+ ^- Q* ?0 ~$ i" n! n01:10:24.970                             : en:Chapter 06

' G( {8 N4 l6 b2 k4 N2 e
游客,查看本帖隐藏内容请回复 | 加入VIP可免积分免回复 了解详情 | 还不是会员:点击获取邀请码 Invitation Code

78

主题

4334

帖子

1万

积分

Sponsor

金币
2456 枚
体力
6228 点
lanpanshuma 发表于 2022-4-29 10:43:28 | 显示全部楼层
啥也不说了,楼主就是给力!* ]- c$ t! ^: s0 C. O1 y
Blu-ray movies Community: my favorite!6 [2 Q# T  r8 u5 o- P

0

主题

696

帖子

2798

积分

Sponsor

金币
122 枚
体力
1252 点
zzk980220 发表于 2022-4-29 15:30:56 | 显示全部楼层
每天都来蓝光论坛看看,我爱蓝光电影。/ I' L3 a* Z1 L: C
After reading the posts have nothing to do I Amoy posts!. i  L) f3 F1 w: X+ `  D9 i% v% D

0

主题

567

帖子

2571

积分

Sponsor

金币
6 枚
体力
1456 点
QQ
neilwang1982 发表于 2022-4-29 16:22:36 | 显示全部楼层
感谢分享精彩资源~

0

主题

1205

帖子

4592

积分

Sponsor

金币
363 枚
体力
1840 点
QQ
fangfang789 发表于 2022-4-29 17:35:43 | 显示全部楼层
每天都来蓝光论坛看看,我爱蓝光电影。% K6 R; P6 Q" B1 N( O3 k
Blu-ray movies Community: my favorite!: ?! N; L: i; ^& n( H6 g6 H% j

0

主题

1205

帖子

4592

积分

Sponsor

金币
363 枚
体力
1840 点
QQ
fangfang789 发表于 2022-4-29 17:36:45 | 显示全部楼层
啥也不说了,楼主就是给力!
( Q. q# d, I2 S. ^0 Z7 XBlu-ray Film Forum is now my home!
4 n( W) a; F* v% O7 b% k, E

1

主题

135

帖子

725

积分

Sponsor

金币
74 枚
体力
365 点
bravehunter 发表于 2022-5-1 22:35:11 | 显示全部楼层
楼主就是给力!

2

主题

310

帖子

1368

积分

Sponsor

金币
364 枚
体力
432 点
211 发表于 2022-5-3 10:17:38 | 显示全部楼层
楼主发贴辛苦了,I*老*虎*U!9 L! \- z) i( G4 q4 t
The decisive Replies sink is I get the sinking feeling great sense of accomplishment!+ ~. Q) i' X) z4 h, ^

0

主题

662

帖子

2647

积分

Sponsor

金币
255 枚
体力
1046 点
lfvvzc 发表于 2022-5-5 16:25:04 | 显示全部楼层
每天都来蓝光论坛看看,我爱蓝光电影。
% ~7 ~  A3 k+ a# ~# V+ ~! A2 RIn fact, I have always felt that the landlord of good taste! Ha ha!. Q4 ~! `6 T8 k$ c1 H

750

主题

2490

帖子

1万

积分

VIP advanced

金币
2564 枚
体力
5657 点

公主勋章卓越贡献勋章

21cn 发表于 2022-5-5 22:18:31 | 显示全部楼层
看了LZ的帖子,我只想说一句很好很强大!""3 h; ?# j, F6 u3 @) U  m, d$ N
Blu-ray Film Forum: I will always support you!
6 |% V5 A, E/ j0 w; A: U

本版积分规则

小黑屋|Archiver|蓝光电影资源网

GMT+8, 2022-7-7 05:54

Copyright © Tencent Cloud.

快速回复 返回顶部 返回列表