BluRayCD Forum

 找回密码
 立即注册【分享大片】
查看: 8|回复: 0
收起左侧

[动漫动画] 邪恶新世界2:白雪公主 Happily N Ever After 2 2009 1080p BluRaycd x264 DD5.1-PiF4 4.94GB

[复制链接]

1万

主题

1万

帖子

12万

积分

Post Share

金币
24004 枚
体力
24794 点

卓越贡献勋章

mvods 发表于 2022-5-3 18:39:27 | 显示全部楼层 |阅读模式

: W$ @6 N5 A- S/ v0 V1 h# o8 Z2 w+ N. z
◎译  名 邪恶新世界2/邪恶新世界2:白雪公主
+ j; L; t: ]- C3 `◎片  名 Happily N'Ever After 2 / Happily N'ever After 2: Snow White: Another Bite at the Apple
8 g, _( H9 g; z! L1 S◎年  代 2009# J' ]) F# v2 H8 X3 ~3 H
◎产  地 美国/德国
% W5 M( T: U/ T* F) z◎类  别 动画/家庭/冒险/奇幻
5 A9 j6 d2 k. c7 T) X- J◎语  言 英语. V5 w  l  c8 H& x; s
◎上映日期 2009-10-02(意大利)
  w  }: e4 t2 q/ x◎IMDB评分  3.6/10 from 1,869 users   + U( d2 W* q0 S- z2 g
◎IMDB链接  https://www.imdb.com/title/tt1235837/2 c; a9 ?: m: P9 y! ]/ c
◎豆瓣评分 5.3/10 from 203 users/ g5 y* K" x. X& i# |
◎豆瓣链接 https://movie.douban.com/subject/3094918/4 {' W% E( }1 V% @; c7 n( _. [
◎片  长 1 h 11 min( I" K8 R" `" U4 u# S9 ~& i9 D* U
◎导  演 Steven E. Gordon / Boyd Kirkland8 r+ @% s% v, M2 l& I
◎编  剧 克里斯·登克 Chris Denk9 y# M4 O) ^' w1 H! k$ I+ p
◎演  员 柯克·桑顿 Kirk Thornton: N3 d: G4 |! g+ e
       G.K. Bowes& g. c# w' q" X1 t# R
       Kelly Brewster' ~0 l: O1 [" n' I+ k# `
       Doug Erholtz
* n. f5 Q# I) T9 l9 R       Jennie Fahn' i4 }0 T% e2 u- Q
       Jim Sullivan7 Y% q. `0 s, W1 ^/ Z
       Kate Higgins1 e8 n9 f8 T. \% e9 C& o

! A0 z1 l! v+ e5 [- T◎标  签 动画 | 美国 | 2009 | 电影 | 恶搞 | 美国电影 | 童话 | 美国动画" K3 n" B" z+ }1 B( N# {/ X# q( T8 |( v
% N' f& N& V) s4 u
◎简  介  
+ i; t1 }  ]+ G& M( C
, S/ J2 s6 Y, \7 \2 k  又是曼伯和蒙克这两个倒霉虫倾斜了善恶的天枰,童话世界再起波澜。这一次白雪公主是一名贪玩的小丫头,只知道和小红帽、金发女和小波波玩耍,不去帮助百姓。当她的父亲和Vain夫人结婚后,这个诡计多端的女巫早就预谋控制整个王国,白雪公主自然成为她的眼中钉。女巫伙同侏儒怪欺骗白雪公主传播关于市民的狠毒流言,公主不得不逃走。在七个小矮人的指引下,白雪公主帮三个小猪重盖了房子,她认识到帮助别人的价值。只有白雪公主才可以阻止她父亲的这桩婚事,制止vain女巫的阴谋。在曼伯和蒙克的协助下,白雪公主平衡了善与恶的天枰,证明了自己可以治理好国家……9 ]& _4 r: K0 |2 `
& v/ S* k$ a7 G, ?% ^+ i1 C$ _8 T
  Fairy tales collide when Mambo and Munk tip the scales of good and evil once again. This time Princess Snow White is a misguided teenager who'd rather have fun with friends Red Riding Hood, Goldilocks and Little Bo Peep than help peasants. When Snow White's father is matched up with Lady Vain - a scheming witch brewing to rule the kingdom - Snow White becomes a thorn in Lady Vain's side. Snow White is soon tricked by Lady Vain (with Rumpelstiltskin's help) into spreading vicious gossip about the townspeople, forcing her to flee. Through rebuilding the three little pigs' houses with the seven dwarves leading the way, Snow White learns the value of helping others. Only Snow White can foil her dad's wedding to stop Lady Vain. With Mambo and Munk in tow, Snow White proves she can rule the kingdom, while bringing balance back to the scales of good and evil.
Video5 ?2 p$ W. e: H+ c) h: z3 u# X
ID                                       : 1
+ z5 @# ]. b; v" c3 @& @2 s2 f: KFormat                                   : AVC  p& T( |- J, s# X
Format/Info                              : Advanced Video Codec) L% n5 y* @% H  f& ?
Format profile                           : [email protected]$ u1 Q' |9 |& `% \# l
Format settings                          : CABAC / 4 Ref Frames# |* p6 W; E" {0 P9 i$ Z
Format settings, CABAC                   : Yes, D3 [& g0 @# d
Format settings, ReFrames                : 4 frames
1 O% i$ N( [) V0 f/ R% r& \Codec ID                                 : V_MPEG4/ISO/AVC- f# o  y7 ^: @1 D! p/ w9 Q5 s
Duration                                 : 1 h 11 min8 G% a4 ^% \/ s: i" I
Bit rate                                 : 9 186 kb/s( i1 z! X$ G) f- {
Width                                    : 1 920 pixels# t$ ?* l7 V7 Q4 e4 I4 u
Height                                   : 1 080 pixels9 F( _2 F5 b, Y  v
Display aspect ratio                     : 16:9! J/ B/ n6 J) A6 z3 n. e2 y3 s  {
Frame rate mode                          : Constant* c7 l" ?$ b! \. d
Frame rate                               : 23.976 (24000/1001) FPS+ N3 O: ]- Q' m1 \- X: s6 n
Color space                              : YUV4 F; p8 w  a/ V: T* W: J" l& k
Chroma subsampling                       : 4:2:01 Y; p; ?* F- t/ c4 L4 u* y
Bit depth                                : 8 bits
; w2 G( f& O& n/ O3 e2 pScan type                                : Progressive9 \$ L% Q: E0 S8 h4 C$ Y! @
Bits/(Pixel*Frame)                       : 0.185+ c* a2 |0 a% y/ @. Q3 h
Stream size                              : 4.62 GiB (93%)' r/ z* _$ r  [% E& h  |/ I" r( P# N2 o
Writing library                          : x264 core 155 r2901 7d0ff22
% s% k8 H7 h, d5 n5 L) K& N# D. HEncoding settings                        : cabac=1 / ref=4 / deblock=1:-3:-3 / analyse=0x3:0x133 / me=umh / subme=10 / psy=1 / psy_rd=1.00:0.00 / mixed_ref=1 / me_range=32 / chroma_me=1 / trellis=2 / 8x8dct=1 / cqm=0 / deadzone=21,11 / fast_pskip=0 / chroma_qp_offset=-2 / threads=30 / lookahead_threads=7 / sliced_threads=0 / nr=0 / decimate=0 / interlaced=0 / bluray_compat=0 / constrained_intra=0 / bframes=16 / b_pyramid=2 / b_adapt=2 / b_bias=0 / direct=3 / weightb=1 / open_gop=0 / weightp=2 / keyint=240 / keyint_min=24 / scenecut=40 / intra_refresh=0 / rc_lookahead=60 / rc=crf / mbtree=0 / crf=16.5 / qcomp=0.60 / qpmin=0 / qpmax=69 / qpstep=4 / vbv_maxrate=62500 / vbv_bufsize=78125 / crf_max=0.0 / nal_hrd=none / filler=0 / ip_ratio=1.40 / pb_ratio=1.30 / aq=2:1.00
5 K6 I, G2 [  J! z- ^Default                                  : Yes
3 `( p0 T6 N& O3 u1 B* DForced                                   : No0 j9 O$ o- k- O, |2 E# d7 b+ r) v  \
Color range                              : Limited1 \' `! Q8 {9 w" l
Color primaries                          : BT.7099 r7 r4 f/ \6 v3 {
Transfer characteristics                 : BT.7095 G  e* h& W. S8 X
Matrix coefficients                      : BT.7090 v  U, k+ L* H; X5 [+ [2 P  X
( r8 T8 b$ H$ B& T- I& O$ }1 h9 Z
Audio7 U* _" X" v& ~  N
ID                                       : 2
8 m- C; T3 u& b9 kFormat                                   : AC-3
1 i6 }6 m+ @9 |' ~0 P8 DFormat/Info                              : Audio Coding 3; C" @% Q5 t2 S$ k8 o
Commercial name                          : Dolby Digital
& F' P1 W$ P* T! x8 B9 T. D' ]+ |Codec ID                                 : A_AC3
3 F. @1 y' S8 q+ FDuration                                 : 1 h 11 min3 V5 M3 ^" r. f( V  t  K  F7 @
Bit rate mode                            : Constant
, j5 x! ?( f% F9 Z4 x- SBit rate                                 : 640 kb/s
* m) `, Z) s2 j5 j$ UChannel(s)                               : 6 channels
8 s' b* _/ r: S+ t4 v/ _( a  GChannel layout                           : L R C LFE Ls Rs1 [" o; c8 t  @: B" i, l( U6 }
Sampling rate                            : 48.0 kHz: `4 D0 J, V% C9 Z. P+ m* B! ~
Frame rate                               : 31.250 FPS (1536 SPF)
; r7 M. R0 T& D3 \/ U/ ~Bit depth                                : 16 bits
/ T4 O* N9 h; Z1 ?( B. G" \1 r1 y6 |Compression mode                         : Lossy: W! I& z7 t; O* E
Stream size                              : 329 MiB (7%)$ j9 f- j" G- x& m& U! ?
Language                                 : English9 s+ N9 n8 ?+ I8 }& E+ V
Service kind                             : Complete Main
2 `7 d5 u! K; `) j# qDefault                                  : Yes
, P3 I4 x, z9 zForced                                   : No1 Q2 q& e+ a! ?. g5 W

8 O6 Q8 W) @( cText
, U1 T  N) R  H; k9 YID                                       : 3" w8 D- f1 M% L4 Z) [5 f" H
Format                                   : UTF-85 q) }6 C2 B% i. M
Codec ID                                 : S_TEXT/UTF8& o/ ?: J  u8 L$ h! [
Codec ID/Info                            : UTF-8 Plain Text
5 g, D8 C2 a; A- J% @* fDuration                                 : 1 h 10 min/ I% g( ]- p3 P5 |
Bit rate                                 : 62 b/s. e2 Q% `  N( F$ C- k+ A! h3 |& Z
Count of elements                        : 1263
! D0 ~  F6 S; g. J5 u5 @7 |Stream size                              : 32.5 KiB (0%)3 e$ f6 k1 E& \" ]2 b
Language                                 : English9 Z+ T% c( Q& ^( _% N. n
Default                                  : Yes
/ t! s$ ~7 O4 f: G  K' WForced                                   : No
7 o0 {3 Q- i0 m* l
( m7 [0 I# v8 o0 N- e! H+ s2 BMenu
5 c/ [5 ?7 }, X& w; j: ?) m2 Z00:00:00.000                             : :Chapter 1
! u! ^  I' {) l00:05:53.103                             : :Chapter 2
. z) `, c8 \* X/ `00:10:12.904                             : :Chapter 3
; G' d3 J& P" Z# T9 v" }% E* }00:15:29.679                             : :Chapter 4
" L' S- B. F$ j% d- V- H00:19:37.051                             : :Chapter 5
4 Q' F1 K  v! u9 d$ n. ~00:23:03.382                             : :Chapter 61 v1 Y# O4 A8 R
00:27:32.109                             : :Chapter 7
6 V5 j; @9 q" V$ D; I: \$ l00:33:07.611                             : :Chapter 8" M+ D. c" x' D! J0 s
00:39:16.563                             : :Chapter 9
4 K. y0 c+ m6 e/ A00:44:17.113                             : :Chapter 10
! u5 p$ W& }: k00:46:42.967                             : :Chapter 11% W: @7 g$ e6 f' X+ ^6 y0 f
00:50:19.767                             : :Chapter 12, t- l/ o& d  o+ d  |4 B) i
00:56:00.983                             : :Chapter 13
$ o+ _' D! s; Y( v6 w7 k00:59:10.881                             : :Chapter 14
' A7 q6 d! H5 j* }. ?4 Q* t/ S01:05:58.413                             : :Chapter 15
. s' T7 J" o6 b0 S: d4 n+ ~  W7 X01:08:41.743                             : :Chapter 16

& V+ @/ L: [2 N& F# f
游客,查看本帖隐藏内容请回复 | 加入VIP可免积分免回复 了解详情 | 还不是会员:点击获取邀请码 Invitation Code

本版积分规则

小黑屋|Archiver|蓝光电影资源网

GMT+8, 2022-8-15 06:19

Copyright © Tencent Cloud.

快速回复 返回顶部 返回列表