BluRayCD Forum

 找回密码
 立即注册【分享大片】
查看: 146|回复: 10
收起左侧

[蓝光原盘] 套装/誓不低头 [REMUX无损版] The Outfit 2022 1080p BluRaycd REMUX AVC DTS-HD MA 5.1-FGT 30.70GB

[复制链接]

8876

主题

9070

帖子

7万

积分

Forum Moderator

金币
13235 枚
体力
12282 点

卓越贡献勋章

24小时 发表于 2022-5-11 06:37:34 | 显示全部楼层 |阅读模式
An expert cutter must outwit a dangerous group of mobsters in order to survive a fateful night.0 D9 O) w9 E+ T2 ]
9 I* T( I: c  ^& M; K
01.jpg
$ {; r3 g# X9 e# G3 Z; }( p! M
( b/ _! [2 u- u2 K" Y$ J! F◎译  名 套装/誓不低头) {4 l+ i2 B. m2 K; ?
◎片  名 The Outfit / El sastre de la mafia
5 @# e. q* o7 S9 W# |9 t/ i◎年  代 20224 ?: n$ r' b, _3 t
◎产  地 美国+ G# t( ~1 a& h& b# V
◎类  别 剧情/惊悚/犯罪2 A+ s+ e& N/ L" h! B# i
◎语  言 英语
5 g' N4 k! L  V8 d◎上映日期 2022-02-14(柏林电影节)/2022-03-18(美国)
- a4 Y1 H# w. B1 G9 t◎IMDb评分  7.1/10 from 17,266 users
3 |2 q  w6 d  \$ L5 o7 Z3 z◎IMDb链接  https://www.imdb.com/title/tt14114802/
4 U  v0 L; Z+ y0 K- ^◎豆瓣评分 7.9/10 from 36,835 users1 {1 o0 d7 T. T
◎豆瓣链接 https://movie.douban.com/subject/35372415/
- ~8 E& t8 f' m; i◎文件格式 x264 + DTS  
% H4 T5 u0 E; y/ `# M+ n◎视频尺寸 1920 x 10805 K; g0 M' u& j2 P7 a
◎文件大小 1DVD 30.70 GiB$ o4 D% k4 J4 N- y3 h4 ]! F
◎片  长 1 h 44 min
+ D7 _1 R  ]4 A◎导  演 格拉汉姆·摩尔 Graham Moore
9 X/ z2 |) ^2 h* P: h3 n( K  }. W◎编  剧 乔纳森·麦克莱恩 Johnathan McClain, ^8 I' w& I( l: a/ h! B
       格拉汉姆·摩尔 Graham Moore, K- }$ q, y( S/ M  i- x/ y
◎演  员 马克·里朗斯 Mark Rylance
5 s# o9 A9 e9 p9 s/ }  [3 ~* `       佐伊·达奇 Zoey Deutch
, P( w( i/ g3 U  i5 e       迪伦·奥布莱恩 Dylan O'Brien
7 F2 L7 H: ?3 H# o* G# M       强尼·弗林 Johnny Flynn) t6 D+ _' S5 b$ {% I5 y
       妮基·阿姆卡-伯德 Nikki Amuka-Bird
/ I8 g+ c1 G# F9 E4 C( M/ Z       西蒙·拉塞尔·比尔 Simon Russell Beale& B. n  E0 @7 `% c7 q0 m
       乔纳森·麦克莱恩 Johnathan McClain: w. x+ ~* ?8 Q$ o& d  H* S
       阿伦·梅迪扎德 Alan Mehdizadeh$ [! F, R1 w5 w% ~5 A2 d* I
       布赖恩·罗杰 Brian Rodger
3 q3 |  C" F/ D- f       本·布朗宁 Ben Browning
2 R3 P! G( N5 h/ G  |4 V2 I1 ~* w1 r5 i
◎简  介   
2 h* q, p  Q7 G: X  v: d) i% `6 E6 Z" `/ ?
  故事讲述英国裁缝 伦纳德(马克·里朗斯 饰)曾在世界闻名的伦敦萨维尔街做西服,但在经历了一场个人悲剧后,他来到了芝加哥,在镇上一个简陋的地方经营着一家小裁缝店,为周围唯一能负担得起的人制作漂亮衣服:一个邪恶的黑帮家庭。& B; |" Q4 d/ a1 f: h( A

* Q9 h4 [4 `/ K8 l) W. F  The film follows Leonard, an English tailor who used to craft suits on London's world-famous Savile Row. But after a personal tragedy, he's ended up in Chicago, operating a small tailor shop in a rough part of town where he makes beautiful clothes for the only people around who can afford them: a family of vicious gangsters.5 V* S& E% m' p9 s. Q
The.Outfit.2022.1080p.BluRayCD.REMUX.AVC.DTS-HD.MA.5.1-FGT7 p- Z$ s2 {, H% C) ]$ J% c
. @+ y$ _& F/ E: C5 g( g5 b
Video
" A+ g6 |4 c" z% Z7 pID                                       : 1( c  N; A* ?: U$ D. s0 n
ID in the original source medium         : 4113 (0x1011)
9 \: P1 v5 p2 |: HFormat                                   : AVC0 K4 I# N* J4 U3 x3 Y
Format/Info                              : Advanced Video Codec( S, S, J. N- K
Format profile                           : [email protected]+ h, N8 m" d3 i3 k
Format settings                          : CABAC / 2 Ref Frames
3 F) z1 Z! w$ |5 }. i0 V7 g) UFormat settings, CABAC                   : Yes
2 |6 A  e: D6 [& NFormat settings, Reference frames        : 2 frames6 U/ h* X# w: e/ j: g. X. q
Format settings, GOP                     : M=1, N=10) W( W4 L- R2 P6 P1 ^
Codec ID                                 : V_MPEG4/ISO/AVC
* j) g+ O. S3 S" I) z3 x$ DDuration                                 : 1 h 44 min
5 p9 D) P# i9 P6 q) Z+ GBit rate mode                            : Variable0 Q& K4 ]! h7 O+ y7 N
Bit rate                                 : 36.7 Mb/s
  T* F) t( K3 _4 d+ X' _/ v7 JWidth                                    : 1 920 pixels
3 I8 O$ `) m( X; j" v' a. N( cHeight                                   : 1 080 pixels
0 l4 b' j7 B, N9 rDisplay aspect ratio                     : 16:90 w; |) ?, t8 _
Frame rate mode                          : Constant) R9 K. h5 S* E- d2 u& ?
Frame rate                               : 23.976 (24000/1001/189150) FPS
1 E7 D2 H+ p+ ~$ H) l# rColor space                              : YUV
( R$ ^5 G0 E) E5 J3 r% SChroma subsampling                       : 4:2:0
( P/ |8 J& k1 S+ Y5 jBit depth                                : 8 bits
- l) }* o5 H$ ]1 TScan type                                : Progressive7 ]* B& O) r4 Z1 |
Bits/(Pixel*Frame)                       : 0.739/ r* o/ y5 ?& @( x9 L2 |
Stream size                              : 26.9 GiB (88%)+ B; F1 F8 ]) P% d1 A* ^0 G
Language                                 : English/ M4 y, F. V1 z% J' y
Default                                  : No
  r2 W; n: T- G% H: EForced                                   : No4 w& B. i/ p& f# s/ ]- r$ Q
Original source medium                   : Blu-ray; p+ x. n( l  w( H3 P
1 }' h& E% }" G4 `' `
Audio #1
5 ?+ f7 K# ?1 J0 tID                                       : 2; K6 [1 N1 C# @$ h5 A. q
ID in the original source medium         : 4352 (0x1100)2 j0 |7 x$ Q+ l
Format                                   : DTS XLL
  H" D  F  H- N2 m) k. p( K, hFormat/Info                              : Digital Theater Systems: g9 G) c& q7 p% Y( }, W
Commercial name                          : DTS-HD Master Audio  c( i+ a3 i2 T4 x
Codec ID                                 : A_DTS
8 c/ ?# b' W9 S3 H& Z, s, I4 E& WDuration                                 : 1 h 44 min* n  U$ E2 M# Y( ]* v
Bit rate mode                            : Variable' H; f+ I6 ~) U- E; b
Bit rate                                 : 3 357 kb/s7 C" F( \! o$ q) c# [2 W( R" D
Channel(s)                               : 6 channels
/ S8 R& s! _$ U/ b+ hChannel layout                           : C L R Ls Rs LFE" q! S! q. n+ e+ P* a
Sampling rate                            : 48.0 kHz
+ P  {9 F7 F$ G$ ^  y5 g9 g, b/ P3 _Frame rate                               : 93.750 FPS (512 SPF)
2 F3 Q+ e' l: h* k* m9 MBit depth                                : 24 bits0 H6 y  l6 t0 v4 B
Compression mode                         : Lossless
" E. e' u! E% B6 d9 @Stream size                              : 2.46 GiB (8%)5 Q* h8 M) v& Y/ L4 @3 o8 [
Title                                    : DTS-HD MA 5.1
+ H' m! ~7 y" I7 K! T+ d! _Language                                 : English
9 b. ]( p) J3 V$ a  hDefault                                  : Yes1 E! E' _. B. l3 j( D+ F4 M
Forced                                   : No1 u  j, |+ C4 m, @4 p9 F; y+ n6 h
Original source medium                   : Blu-ray
6 Y, r! d/ |+ e4 i, O
7 Y  j- K( j8 O7 p$ wAudio #22 x6 n) L; E; s. N
ID                                       : 3: C1 |- O2 _9 y0 N5 n, G" K/ f
ID in the original source medium         : 4353 (0x1101)
: T7 e: {2 {7 i/ a  H4 gFormat                                   : DTS
+ A' C2 t5 A5 |5 h/ T2 s, V) wFormat/Info                              : Digital Theater Systems
' G& Z2 n  W# P- e; XCodec ID                                 : A_DTS
4 q5 @! `, u& F) x4 q  qDuration                                 : 1 h 44 min* T' I8 L- D( |; F0 E& F1 C
Bit rate mode                            : Constant( I8 Z8 O  b# e8 b+ C
Bit rate                                 : 768 kb/s. F2 [4 v1 O$ g4 f2 ?: k7 ~! p* o
Channel(s)                               : 6 channels
0 t$ F+ {; B- }2 {* n% ]Channel layout                           : C L R Ls Rs LFE. w# x6 R4 b, c& d- {- v: i
Sampling rate                            : 48.0 kHz
  o) O3 k: ]; Q: E0 DFrame rate                               : 93.750 FPS (512 SPF)# P9 U4 A; ^9 \( ]
Bit depth                                : 24 bits2 x, h4 L% v* j$ W# \
Compression mode                         : Lossy
! u" u1 k( g4 xStream size                              : 577 MiB (2%)$ c9 n$ e( e) U$ V* `4 n
Title                                    : DTS 5.1
0 V, Z) }$ d2 `- _0 _( ?- f) R" d0 SLanguage                                 : Spanish- E2 `- l. |# g. s
Default                                  : No. [8 [# Z, w# i, {! r7 \" _- I& h
Forced                                   : No
# x" p: d/ ?8 q" w) e% YOriginal source medium                   : Blu-ray6 h; g0 z) c" u$ O

7 N( f: E3 t- R/ n- h- q" lAudio #39 w( G) Y7 a; V+ e7 ~
ID                                       : 4
) H! y( ^, _# ^5 |ID in the original source medium         : 4354 (0x1102)
  X6 z3 w. K2 @( ]' ~' XFormat                                   : DTS7 f6 N+ Q. W' N9 D( }6 }# ~* S
Format/Info                              : Digital Theater Systems/ L- Q4 R% T/ j; R/ w, w# S
Codec ID                                 : A_DTS
9 }- O3 V- i3 f; N5 xDuration                                 : 1 h 44 min
& E- k3 K, @/ a4 o+ d! CBit rate mode                            : Constant
2 z* y3 J+ m- f* GBit rate                                 : 768 kb/s
% S  b# n9 c' E* K  A" _# gChannel(s)                               : 6 channels
. g9 b  N7 ~+ C" iChannel layout                           : C L R Ls Rs LFE/ B, i- W5 ~* O, u  e, U' U9 B5 P6 K
Sampling rate                            : 48.0 kHz
4 b6 x4 H2 b( H2 HFrame rate                               : 93.750 FPS (512 SPF)
  c" }; @' I8 @" j$ iBit depth                                : 24 bits* L' x2 J. ]$ k; O% Y$ s6 V( x
Compression mode                         : Lossy3 k8 L! `% S! l1 j% F' L
Stream size                              : 577 MiB (2%)6 N5 g1 I9 P  S5 R$ b
Title                                    : DTS 5.1
3 a$ G- O6 U0 @$ D' oLanguage                                 : French* f0 b7 W; G# T7 e
Default                                  : No1 [. T3 H5 A9 L, ^9 Z) [
Forced                                   : No
3 `# `7 q1 Z0 Y! ?( R! kOriginal source medium                   : Blu-ray
7 O2 v1 k- K# h7 C! o  ]
8 s4 s0 B8 R4 D: G6 M" Q- r& s% OAudio #4& i, {$ |! D* A0 V) O
ID                                       : 5
7 s  z' O- V+ ?$ i5 B- gID in the original source medium         : 4355 (0x1103)4 Y6 z, C( t" G; g8 y* l
Format                                   : AC-3- s8 }+ a& Q9 n* S) K1 V
Format/Info                              : Audio Coding 3; k' r& A: {  T' g) S9 g# o7 ?9 I
Commercial name                          : Dolby Digital2 E  N* \6 s  s% a1 J
Codec ID                                 : A_AC3  E2 x6 o6 U* H5 Q
Duration                                 : 1 h 44 min! S& H! E# `8 Q0 Z$ `. I! _
Bit rate mode                            : Constant
2 J6 X" ?4 A  j+ j9 `1 q3 {Bit rate                                 : 192 kb/s7 G* Q1 ?; z+ R2 s
Channel(s)                               : 2 channels! }( c/ W! |1 r$ I/ L4 N
Channel layout                           : L R/ u; ]4 g& f5 {8 \
Sampling rate                            : 48.0 kHz
7 O* }( ^* S6 m9 P! T) h& ^. hFrame rate                               : 31.250 FPS (1536 SPF)
" }% F5 D5 Z8 p, wCompression mode                         : Lossy4 F9 k- r/ A3 j9 b- x8 ^
Stream size                              : 144 MiB (0%)% p, m3 _. e5 m8 l) _8 P& R
Title                                    : DD 2.0
  e6 z! ^6 J! b  s7 W' @. {' lLanguage                                 : English$ @% @! o2 E' z7 |  ?
Service kind                             : Complete Main3 A, I9 @9 b: F" E" @7 c
Default                                  : No: t! V. M/ m5 S$ A
Forced                                   : No
7 h& i9 b& r1 ~* i4 v- d' S6 `Original source medium                   : Blu-ray+ e! U4 X6 e+ u5 N! W

, T) y9 P, J( D/ A5 r; M4 O7 IText #12 J$ o6 L- ~& B9 W. P1 \/ w
ID                                       : 6
- ]9 k1 G: U% R# qFormat                                   : UTF-8
1 k- C8 d. g+ NCodec ID                                 : S_TEXT/UTF8' [+ q5 G  r$ W9 ^! I- v
Codec ID/Info                            : UTF-8 Plain Text
! ?0 A/ n! S8 G0 Y; [* q8 l3 PDuration                                 : 1 h 38 min
- _- g% s. N+ H6 ?, R+ KBit rate                                 : 57 b/s- B: _4 c% n2 g- b$ J4 Z3 J
Count of elements                        : 1249
" B) E" a  `. m) ?! GStream size                              : 41.2 KiB (0%)% b) e; ~3 j, j2 K' d
Language                                 : English) D# P/ @9 V* A# z
Default                                  : Yes
1 C4 y& f8 t' L! c: v+ S& x6 J) n" r3 PForced                                   : No7 [' }8 |0 j  \' k: u
" O3 `$ C& x. B- g6 E2 o7 a9 p
Text #2
1 g3 F& Q. |0 B5 x! W; a8 D$ e: JID                                       : 7' s9 z% }/ k3 K8 V" _) p0 B( l& b
Format                                   : UTF-89 p, a+ j: [. u1 n
Codec ID                                 : S_TEXT/UTF8
5 Q# f( i2 I2 b. g  l# Z$ T9 fCodec ID/Info                            : UTF-8 Plain Text( b7 e7 C4 x4 t4 A
Duration                                 : 1 h 39 min% r7 C! h/ ^- ]: b$ _
Bit rate                                 : 63 b/s
( z" `# r" F7 r- R/ S7 V) iCount of elements                        : 14122 `6 F; D0 F1 J# t
Stream size                              : 45.9 KiB (0%)0 [7 B, `2 a) v" r& ]0 X/ O
Title                                    : SDH
. n, _) [7 z# @9 f* T% iLanguage                                 : English5 ~, x! w( }9 {* U
Default                                  : No, J  ]5 H$ ~& ~+ ]3 g* @( A
Forced                                   : No4 p' E" d8 [6 I) A" y4 \; L& {

! j4 q. p0 m# H' pText #3, n8 Y" p  \+ ~+ }2 ^6 W, D6 D
ID                                       : 82 e+ F" S# K" E4 D3 H7 b
ID in the original source medium         : 4608 (0x1200)
# N1 Z# x' o- n6 HFormat                                   : PGS% q/ S( T2 \! d6 E+ E8 n
Muxing mode                              : zlib' H$ ?: T3 m8 {2 ?# q6 M, L" N
Codec ID                                 : S_HDMV/PGS
! \4 G1 |8 F+ nCodec ID/Info                            : Picture based subtitle format used on BDs/HD-DVDs1 T& |/ o; z: v: _6 c! ~# l  M: n+ v/ f
Duration                                 : 1 h 39 min
* }2 G2 i/ w/ }- x8 @% o* k& jBit rate                                 : 43.7 kb/s4 l$ Q, G: U9 o2 a) p
Count of elements                        : 2840. Q- u! @% k  X; N4 _, S
Stream size                              : 31.0 MiB (0%)
. }4 c1 X# v1 ~# d  \# uLanguage                                 : English
9 A& J# B! ?' A( |3 \Default                                  : No0 i3 O$ Z* p- p& ^5 F; n
Forced                                   : No
6 ~  A+ I9 [% z4 WOriginal source medium                   : Blu-ray0 o8 k  D- K: |

+ d" m) R8 j- i) d; LText #4
1 ^, j# c" G- BID                                       : 9$ c! @4 [  r, t* H! X; l
ID in the original source medium         : 4609 (0x1201)
$ q+ c0 z3 S3 `+ }( M" BFormat                                   : PGS
; A: c3 _/ d4 r8 `  E* E; @Muxing mode                              : zlib! q: t- f7 b$ j
Codec ID                                 : S_HDMV/PGS
0 b' n- ^( X; o" J( y+ {+ ACodec ID/Info                            : Picture based subtitle format used on BDs/HD-DVDs
0 K7 W( g9 \; B" Z6 b; g$ ]  {; }Duration                                 : 1 h 44 min
5 u9 f' S4 a1 @Bit rate                                 : 33.0 kb/s- [# j; U9 J1 @" b
Count of elements                        : 2408. t) Q5 D' t6 Q4 l
Stream size                              : 24.6 MiB (0%)
& l+ j9 |2 g' [; O  c( cLanguage                                 : Spanish: `+ ^" ~) |/ h) S( _( F
Default                                  : No
. s7 ^( f2 e9 ]5 S& w& `0 a, IForced                                   : No
7 J& z& @8 V5 e# BOriginal source medium                   : Blu-ray" i# G5 e0 s- A2 c8 |6 R; v% u
6 \( a5 t# c7 y6 F* l: u3 |
Text #5* `" |. b& A2 Q
ID                                       : 10$ D6 f/ a3 C$ X! H8 Y0 n& X
ID in the original source medium         : 4610 (0x1202)
) r1 h' z1 p/ \/ KFormat                                   : PGS
$ @9 \5 ^$ x) U2 `/ UMuxing mode                              : zlib
; w" @1 P% F  \0 z$ cCodec ID                                 : S_HDMV/PGS* T, e3 m% l% ?$ k* p
Codec ID/Info                            : Picture based subtitle format used on BDs/HD-DVDs
" B6 L) m0 J! v/ V) sDuration                                 : 1 h 44 min
0 w1 n! r7 u$ H, d$ W  l8 B2 oBit rate                                 : 35.9 kb/s/ X1 E2 H" K$ ~. `
Count of elements                        : 24321 ?* w/ O  u5 B
Stream size                              : 26.8 MiB (0%). f: i4 A9 g/ ^& ^5 l
Language                                 : French& c' Q1 V- ^4 A) H% ^* A4 e8 N; {
Default                                  : No
, u/ |$ d, o. r$ zForced                                   : No
6 U% z' e0 W, r; u' pOriginal source medium                   : Blu-ray
% Q+ @( }; k2 `* H2 }# n/ x5 J( H2 H: [2 U6 |; |, q, O% e. o
Text #63 w+ X$ O2 }; H  I% J" y2 J* X
ID                                       : 11% ]- Q" C! D- W# D( t3 Q; H( P
ID in the original source medium         : 4611 (0x1203)
+ z- R) Z' K. a- dFormat                                   : PGS
% R& }: Z! t  E- k) R- L5 h% Z* TMuxing mode                              : zlib9 M' P/ E" N& |- W
Codec ID                                 : S_HDMV/PGS
% a$ F" a6 N8 S0 CCodec ID/Info                            : Picture based subtitle format used on BDs/HD-DVDs
/ L9 c- n& t) W; Z/ n: |: d+ ADuration                                 : 1 h 31 min
$ m# z3 k( T0 j( _+ V) R8 u4 aBit rate                                 : 60 b/s( {6 j; ?2 P. `0 c( z. T2 {5 o
Count of elements                        : 4
. s" [2 j# N: L' W/ yStream size                              : 40.3 KiB (0%)
( I  E- f3 h6 i# z0 CLanguage                                 : Spanish2 q! U4 {: t& Q2 }! l
Default                                  : No
9 _! b, G, K( p. {4 P$ G& ZForced                                   : No
- e/ U, H5 ]$ [9 |, vOriginal source medium                   : Blu-ray6 X/ Q) ~9 \2 ~" d
9 S  Q% r* k% R& I, u
Text #7" |( n* d3 ?9 K  u
ID                                       : 12& z( [# @8 V. @& {& K7 g6 t
ID in the original source medium         : 4612 (0x1204)- L- i! c7 b  D
Format                                   : PGS
. j; i# c1 c1 \( o6 q' |  ^Muxing mode                              : zlib; O9 [, E, y) a8 G0 x6 {4 S5 p
Codec ID                                 : S_HDMV/PGS
  F/ X; w: C) t7 }& Y  z* j" vCodec ID/Info                            : Picture based subtitle format used on BDs/HD-DVDs
9 L7 w( _, r" p8 I  XDuration                                 : 1 h 44 min
* \  }8 t7 [" FBit rate                                 : 85 b/s6 R/ S6 S7 Q2 B# F7 [" ^+ k6 w
Count of elements                        : 102 r2 [, R0 w7 v5 ?& z: c: D
Stream size                              : 65.1 KiB (0%)8 M4 K) O4 j- e$ R+ O
Language                                 : French1 u8 N4 z9 {- L. a3 U! b( O
Default                                  : No# V# ~- p/ b/ u( }
Forced                                   : No
3 \$ Z9 V8 c5 M8 |Original source medium                   : Blu-ray: @, Z) I, z! m* j& ~' e7 e

8 ], r: W( X3 JMenu/ q0 N# w0 e; B8 p# h2 d
00:00:00.000                             : en:Chapter 01; M. p; }( p! E/ f) [& ^! J( _- L
00:05:45.928                             : en:Chapter 023 ?) E" P% s' ]. w5 Y1 o
00:10:15.990                             : en:Chapter 03
; w& ~. D8 V! f$ G0 `) _) t; m00:15:10.659                             : en:Chapter 04
4 I2 L3 M4 r$ c00:18:41.745                             : en:Chapter 050 Y+ z  T  ^7 F8 ^' p7 h# S6 C
00:20:57.130                             : en:Chapter 06
. _" S5 f6 T4 ?( ?00:28:42.429                             : en:Chapter 075 E' _8 F% y# O. ?* L7 w
00:32:40.583                             : en:Chapter 082 @! I9 z4 @$ F9 m
00:36:29.145                             : en:Chapter 09
8 t( L! ?' I/ n6 ^6 e: A  R- N+ a00:40:48.988                             : en:Chapter 10
  c# _2 X; Y4 ^+ f0 y00:43:23.601                             : en:Chapter 11
. E/ G: ]- T) T1 [5 S: w) p00:50:55.886                             : en:Chapter 12
, a" A$ u, |8 v) u1 w, H* J00:57:51.384                             : en:Chapter 13( H; c4 e# }# z( Y8 g% `
01:04:17.270                             : en:Chapter 14
5 U$ p1 X( r3 b! r3 s8 I% _01:09:23.075                             : en:Chapter 15% y! `* \, o( S: `; {5 n, {
01:14:58.202                             : en:Chapter 16
& q+ C9 U) z+ f% i- t+ {01:21:42.564                             : en:Chapter 17
; K6 p: ~' K9 b3 l  ?& L: _01:27:56.604                             : en:Chapter 18
$ q  S. `; X8 T- w6 q01:32:29.460                             : en:Chapter 19
$ r) l$ u: X4 I$ H1 Z0 }01:39:29.672                             : en:Chapter 20

8 W! y1 t7 H) U9 w0 ~
游客,查看本帖隐藏内容请回复 | 加入VIP可免积分免回复 了解详情 | 还不是会员:点击获取邀请码 Invitation Code

2

主题

310

帖子

1368

积分

Sponsor

金币
364 枚
体力
432 点
211 发表于 2022-5-11 10:47:47 | 显示全部楼层
看了LZ的帖子,我只想说一句很好很强大!""- t' J  n+ m9 u# ~' ~& U/ M
Bluraycd.com movie updates really fast, also did not release issued, whether you believe it or not, anyway, I believed!

0

主题

662

帖子

2647

积分

Sponsor

金币
255 枚
体力
1046 点
lfvvzc 发表于 2022-5-12 11:15:25 | 显示全部楼层
Bluraycd又有新电影发布了,激动中……!' C! U+ v$ R* [* ~: L) u$ b
Not see, I am a novice, the inadequacies of the first Please bear with me!
) m1 g# g+ l' @; g9 \. |

78

主题

4334

帖子

1万

积分

Sponsor

金币
2456 枚
体力
6228 点
lanpanshuma 发表于 2022-5-12 13:35:57 | 显示全部楼层
每天都来蓝光论坛看看,我爱蓝光电影。
6 T$ X+ T- K) Y( r  T" K至少是现在,我一天没有访问蓝光电影论坛就不爽!At least now, my day did not visit the Blu-ray Film Forum on unhappy!! @' j' C4 }% q' Y0 x+ @3 s

0

主题

108

帖子

964

积分

Sponsor

金币
25 枚
体力
710 点
renz 发表于 2022-5-13 00:44:37 | 显示全部楼层
啥也不说了,楼主就是给力!$ n/ b, h2 g; f8 q  u) h
Not see, I am a novice, the inadequacies of the first Please bear with me!
+ A$ u5 W4 X9 q" P

0

主题

256

帖子

1932

积分

Sponsor

金币
964 枚
体力
445 点
sawas 发表于 2022-5-17 01:50:49 | 显示全部楼层
That's awesome!

0

主题

123

帖子

1677

积分

Sponsor

金币
273 枚
体力
1131 点
ljy-123 发表于 2022-5-17 08:14:31 | 显示全部楼层
每天都来蓝光论坛看看,我爱蓝光电影。$ o4 P# J; _4 Y, f: c
The decisive Replies sink is I get the sinking feeling great sense of accomplishment!8 h4 S. R2 L1 n2 }8 B

0

主题

589

帖子

2390

积分

Sponsor

金币
92 枚
体力
1117 点
sebarstean 发表于 2022-5-17 19:29:33 | 显示全部楼层
每天都来蓝光论坛看看,我爱蓝光电影。
: G& y& Q5 ^4 V. mIn fact, I have always felt that the landlord of good taste! Ha ha!( I# S: f" w* v% `

0

主题

253

帖子

1064

积分

Sponsor

金币
14 枚
体力
474 点
QQ
jiyugen8180 发表于 2022-5-17 21:23:23 | 显示全部楼层
楼主发贴辛苦了,I*老*虎*U!
) u! r, W' H# k- T: i0 n要想蓝光电影论坛发展好,资源多,就靠你我他!To the development of Blu-ray movies forum, resources and more depend on you and me!
$ {( x7 M" r# s5 c/ U

0

主题

97

帖子

514

积分

Sponsor

金币
79 枚
体力
226 点
hblwm 发表于 2022-5-21 10:46:36 | 显示全部楼层
感谢楼主的分享

本版积分规则

小黑屋|Archiver|蓝光电影资源网

GMT+8, 2022-7-7 06:34

Copyright © Tencent Cloud.

快速回复 返回顶部 返回列表