BluRayCD Forum

 找回密码
 立即注册【分享大片】
查看: 7|回复: 0
收起左侧

[动漫动画] 堂吉诃德外传/唐吉诃德/骑士歪传 Donkey Xote 2007 1080p BluRaycd x264 DTS-FGT 6.48GB & 4.37GB

[复制链接]

1万

主题

1万

帖子

12万

积分

Post Share

金币
24004 枚
体力
24794 点

卓越贡献勋章

mvods 发表于 2022-5-18 05:40:00 | 显示全部楼层 |阅读模式

" ?7 X8 d6 b" t7 q8 i' D
4 B/ ^: U5 Z( ^, K, i( P9 W◎译  名 堂吉诃德外传/唐吉诃德/骑士歪传
5 ~" X: g) V" S$ f) S3 Z6 k$ H0 C◎片  名 Donkey Xote / Donkey X- i' H: d4 S$ i
◎年  代 2007
1 z5 e: d6 ]6 w) s+ C◎产  地 西班牙/意大利
. Z0 a+ N3 y9 e8 A* q◎类  别 动画/家庭# i& w% ?. X4 c
◎语  言 英语" [7 \# p9 E" y* k0 C
◎上映日期 2007-11-20(奥伦塞电影节)/2007-12-05(西班牙)/2009-01-16(中国大陆)! S6 S( B/ }& {3 o; B6 \
◎IMDb评分  4.6/10 from 2,163 users
9 l2 @3 ]4 L9 R1 ^) N& r* {* s5 R◎IMDb链接  https://www.imdb.com/title/tt0419704/
4 ~$ ]: a/ g6 z% L9 d/ {: N◎豆瓣评分 5.9/10 from 2,068 users
! j& r, `0 H8 ^* v5 p◎豆瓣链接 https://movie.douban.com/subject/2024969/0 }7 d! H: r: B2 n9 ]1 |) ~( _- |
◎片  长 1 h 27 min' l! m4 S8 u. [7 [, ~, `
◎导  演 荷西·普素 Jose Pozo! O$ l; M* l6 z* f+ l
◎编  剧 塞万提斯 Miguel de Cervantes y Saavedra ! _$ X3 S" t) \1 n" N
       安吉拉 E.帕伦特 Angel E. Pariente
% C8 \" o1 E! f  `& A◎主  演 桑乔·格拉西亚 Sancho Gracia0 |, h2 h$ @/ Q+ x  ~
       何塞·路易斯·希尔 José Luis Gil4 B# C9 d" O, I& F5 a1 G# I
       安德烈·布纳福内特 Andreu Buenafuente9 t1 y$ S' }+ K6 _# G/ D/ k4 }
       Sonia Ferrer
' m) E6 Q; a# s  K' ^       Jordi González
: R0 V; Y; K4 u$ N$ z* f       路易斯·波萨达 Luis Posada
" t( T3 I2 f. s  X* |       罗伯特·帕特森 Robert Paterson
2 c( \: K& P5 }& S, N. }- C0 u       大卫·费纳德兹 David Fernández
* {, v2 U4 r1 t  C8 t+ y" N4 ~: O       德尼兹·恰克尔 Deniz Çakir: i0 a4 Y% z8 ]6 X- g2 D
$ P6 p0 s6 G5 @9 d  X
◎标  签 动画 | 西班牙 | 喜剧 | 动画片 | 骑士歪传 | 2007 | 西班牙电影 | 我看过的电影
: v. R2 |3 m7 w8 N8 |
: K7 D, x& ]9 A- z7 B6 h) d◎简  介   0 z) b- S1 C( X* \7 V

- \# K5 v# S! R: z  一个风格酷似《怪物史瑞克》的幽默三维动画,改编自著名的《唐吉珂德》,不过走得是疯狂的搞笑路线。该片入选了今年Siggraph电脑动画节。
9 [, D4 z  n9 L# l; F8 ~& t  4 g0 P1 p, o- A# j) o
  唐吉坷德和他的“随从”桑乔(唐吉坷德最好的朋友和城里最富有的人)、桑乔的想成为马的驴子Rucio、不愿意离开马棚的战马Rocinante,将踏上一段漫长旅程去寻找“月骑士”进行决战,如果他们赢了这场战斗,就将揭开Dulcinea的真实身份。当然,坏蛋是不会轻易让唐吉坷德们得逞的……
6 o1 O8 E' Z9 Z' T
$ t4 m" l/ t. T( C: L0 d, Y) f  The Sancho Panza's donkey Rucio decides to tell the story of Don Quixote. Infact Rucio insists that the knight is not as crazy and out of the ordinary as many think.# F/ C. T, A. \

* G0 B: V  e* P: C5 K- a" h( P( V◎获奖情况
' Z& k3 ^8 H5 b$ }3 [" }' h& _
) x* ^" s3 t& J, e5 O5 N  第23届西班牙戈雅奖 (2009)
) ?5 Y2 S9 l, t1 O( f4 W6 a5 s3 ~1 Z  最佳动画片(提名)
; q+ Z' T! |: V! b* d
Donkey.Xote.2007.LiMiTED.1080p.BluRayCD.x264-iKA 4.37 GB
; s; |; S0 G! x6 S, s
5 R6 U! R* G4 M( n2 @. D; a" wVideo
+ v) H5 x" Z( o: ZID : 1
2 n- B( C9 q# T! \3 t2 B; ?Format : AVC
- L  a5 K# q/ f* v; jFormat/Info : Advanced Video Codec6 M  n/ f4 ~8 J6 b6 _- u" S
Format profile : [email protected]3 j# N  L; y8 @( K+ F6 Z
Format settings : CABAC / 5 Ref Frames: T9 x3 F1 [1 B, y( X3 ~9 m& |" A
Format settings, CABAC : Yes1 L0 n, G  u3 h
Format settings, ReFrames : 5 frames% w. S  V4 a  G; c6 A
Codec ID : V_MPEG4/ISO/AVC
7 G/ P, ?, U6 p2 z* o9 d; oDuration : 1 h 23 min* l% j3 t8 D3 v5 z5 h0 L) ~
Bit rate : 7 022 kb/s4 L+ L2 p% C# r! T. U
Width : 1 920 pixels
( g) _" E7 Z+ j) zHeight : 816 pixels
/ Y7 `1 J! p1 S( y: y  DDisplay aspect ratio : 2.35:15 U( a( x* u& w( ?+ a" \, L) ~
Frame rate mode : Constant. Q# u$ C. e0 U& T; l+ p
Frame rate : 25.000 FPS
4 ?! T1 `" S$ h% m9 Q$ I; i4 JColor space : YUV
& [: [* t3 o6 e/ G, J7 [3 kChroma subsampling : 4:2:0
/ U% L$ E4 d" ^Bit depth : 8 bits7 v& F& {( p" u8 X5 x& j1 T
Scan type : Progressive
3 X9 B. b2 L( gBits/(Pixel*Frame) : 0.1791 `+ Y4 {2 {, F: V0 _1 ]
Stream size : 4.02 GiB (92%), ?& m5 K6 {& p% u3 L1 D
Writing library : x264 core 61
: p& i; G3 a% V  @* c  T9 DEncoding settings : cabac=1 / ref=5 / deblock=1:0:0 / analyse=0x3:0x113 / me=umh / subme=7 / psy_rd=1.000000 / brdo=1 / mixed_ref=1 / me_range=16 / chroma_me=1 / trellis=0 / 8x8dct=1 / cqm=2 / deadzone=21,11 / chroma_qp_offset=0 / threads=3 / nr=0 / decimate=1 / mbaff=0 / bframes=3 / b_pyramid=1 / b_adapt=1 / b_bias=0 / direct=1 / wpredb=1 / bime=1 / keyint=250 / keyint_min=25 / scenecut=40(pre) / rc=2pass / bitrate=7022 / ratetol=1.0 / rceq=\'blurCplx^(1-qComp)\' / qcomp=1.00 / qpmin=10 / qpmax=51 / qpstep=4 / cplxblur=20.0 / qblur=0.5 / ip_ratio=1.40 / pb_ratio=1.30 / aq=2:1.00
7 z/ t3 |4 a$ k% X% lLanguage : English
* f8 u' y1 H; J& RDefault : Yes
0 o8 ?, k" r; v" ~2 GForced : No) S+ p0 @" ^# u& W' [7 \

8 N9 ?+ [2 H! F7 W* z# `/ tAudio
- C  Z3 p) U# d  {6 d3 fID : 2( h# J/ ~1 |! m' v: e' N
Format : AC-3
9 l# m7 A2 [$ mFormat/Info : Audio Coding 3; y# p  n* \8 b
Commercial name : Dolby Digital
+ _9 w4 y. a8 R( E: a+ a9 v; y* mCodec ID : A_AC3
& S+ L9 J: ^- C+ e! CDuration : 1 h 23 min
( K9 v3 m8 b( K) e9 ^  `  k1 ]Bit rate mode : Constant" ^% x6 t$ \* U; Z
Bit rate : 448 kb/s
8 q6 R4 Y- d! i  JChannel(s) : 6 channels( L& Z- N0 Z& q+ `4 L* F
Channel layout : L R C LFE Ls Rs
* y% o" G8 e- R7 y. l: zSampling rate : 48.0 kHz
1 s, X8 T3 U. o- G% h. X! KFrame rate : 31.250 FPS (1536 SPF)
. e& `( m0 s9 X) [3 ABit depth : 16 bits
& }! A. e9 K0 R3 F$ r, pCompression mode : Lossy5 o0 ~" \/ K* c8 Z1 G2 {6 ]
Stream size : 268 MiB (6%)
& `, Z4 d& k: l  ]+ OLanguage : English7 U3 q: r& f/ M
Service kind : Complete Main4 d+ a" K6 H7 h2 q0 u# J
Default : Yes2 T; ?* q. L1 K3 j' r5 T
Forced : No
Donkey.Xote.2007.1080p.BluRaycd.x264.DTS-FGT 6.48 GB
: i! ]! j4 [( ~6 ^# R: Y
, k1 e) A9 {+ n, W/ t. ^: g' hVideo
! [: [+ z8 k+ }ID                                       : 1, M3 w# N7 v: c
Format                                   : AVC, ^1 N) N& K$ y' I4 V% k
Format/Info                              : Advanced Video Codec0 `8 I2 E* v! H' q
Format profile                           : [email protected]0 G  ^  }/ B2 O5 \5 f0 j, m
Format settings                          : CABAC / 4 Ref Frames6 z7 v8 i* v7 s9 {4 Q
Format settings, CABAC                   : Yes) N1 N$ g; r# p
Format settings, Reference frames        : 4 frames, Y( b1 u) a# m# [* z4 Z% Q
Codec ID                                 : V_MPEG4/ISO/AVC
8 W$ r6 ~) F7 ]Duration                                 : 1 h 27 min
# G6 K! n0 h  z* ZBit rate mode                            : Variable
! ]! Q4 @5 Q4 [" {4 R( Y! ABit rate                                 : 9 104 kb/s
& G. [( R% Y, s3 KMaximum bit rate                         : 40.0 Mb/s7 l( j. {- l# B& k% F+ B- c  o
Width                                    : 1 920 pixels
: N9 \3 M( @' h" BHeight                                   : 816 pixels
& m- z0 {( o2 y' T% oDisplay aspect ratio                     : 2.35:1
: W% ?1 j2 U, Z. z5 k8 |Frame rate mode                          : Constant0 @8 m' Z0 f: \
Frame rate                               : 23.976 (24000/1001/189150) FPS
  s6 r2 _6 ^' f$ J5 CColor space                              : YUV* j8 t. J* {4 e6 l% N# m
Chroma subsampling                       : 4:2:0
5 [6 n6 k) ?- t* v- N- E) H5 WBit depth                                : 8 bits
* X$ d3 L& o2 UScan type                                : Progressive1 O9 S0 M7 v4 s& j
Bits/(Pixel*Frame)                       : 0.242
4 j5 f3 j4 a$ uStream size                              : 5.43 GiB (84%)2 J* g8 L' D0 }! n5 ]1 v0 I- x
Writing library                          : x264 core 67 r1127M 8d82fec
* C9 N% y* a. U0 }6 nEncoding settings                        : cabac=1 / ref=4 / deblock=1:-1:-1 / analyse=0x3:0x113 / me=umh / subme=6 / psy_rd=1.0:0.2 / mixed_ref=1 / me_range=16 / chroma_me=1 / trellis=2 / 8x8dct=1 / cqm=0 / deadzone=21,11 / chroma_qp_offset=-3 / threads=12 / nr=0 / decimate=0 / mbaff=0 / bframes=3 / b_pyramid=0 / b_adapt=2 / b_bias=0 / direct=3 / wpredb=1 / keyint=600 / keyint_min=2 / scenecut=40 / rc=2pass / bitrate=9104 / ratetol=1.0 / qcomp=0.50 / qpmin=10 / qpmax=51 / qpstep=4 / cplxblur=20.0 / qblur=0.5 / vbv_maxrate=40000 / vbv_bufsize=40000 / ip_ratio=1.40 / pb_ratio=1.30 / aq=1:1.00
" a, G" d/ p* a( {- r9 H# ]; ~+ gLanguage                                 : English+ p' h# J8 Q$ q( v# ]8 j; T, h
Default                                  : Yes
% B3 F3 A; v( TForced                                   : No
6 r0 j2 P, P$ P" d( E
6 ?; W  i! I, j7 b0 p5 g9 ?. YAudio# i/ v4 o' s) x
ID                                       : 2
3 l& [# t6 S0 n" y/ }  NFormat                                   : DTS% R6 c( ^, T% v/ z7 f, P
Format/Info                              : Digital Theater Systems$ F2 w  {3 }0 e" U! C' C  j
Codec ID                                 : A_DTS  J/ a+ F) g% h" W  r0 [7 W; l
Duration                                 : 1 h 27 min/ w8 i/ O& C8 a" F
Bit rate mode                            : Constant
3 c1 o6 ?* e/ z. vBit rate                                 : 1 509 kb/s
1 s! @+ S9 J5 s' f# G$ d9 s  ^Channel(s)                               : 2 channels
1 ^! {9 W: z$ U, uChannel layout                           : L R
; }  d% r+ c% {2 lSampling rate                            : 48.0 kHz! f  Z! Q! \6 K
Frame rate                               : 93.750 FPS (512 SPF)
5 R$ T% M& \( O( OBit depth                                : 16 bits
' }! P- m0 f+ YCompression mode                         : Lossy/ v# h- i) f% f& S& A5 U3 h" Y1 G
Stream size                              : 944 MiB (14%)4 I  n$ T6 S& |
Language                                 : English
0 @! F1 l( r/ X4 m! P- XDefault                                  : Yes
' h( M2 X3 L  ~& P: P: F5 b. }Forced                                   : No

9 h' C6 E+ C' [& i. c; H. S
游客,查看本帖隐藏内容请回复 | 加入VIP可免积分免回复 了解详情 | 还不是会员:点击获取邀请码 Invitation Code

本版积分规则

小黑屋|Archiver|蓝光电影资源网

GMT+8, 2022-8-15 06:47

Copyright © Tencent Cloud.

快速回复 返回顶部 返回列表