BluRayCD Forum

 找回密码
 立即注册【分享大片】
查看: 26|回复: 1
收起左侧

[动漫动画] 少女革命:思春期默示录/少女革命:乌泰娜电影版 Revolutionary Girl Utena Adolescence Of Utena 1999 JAPANESE 1080p BluRaycd x264-HANDJOB 6.61GB & 7.63GB

[复制链接]

1万

主题

1万

帖子

10万

积分

Post Share

金币
171 枚
体力
26705 点

卓越贡献勋章VIP黄金勋章诚信会员勋章

mvods 发表于 2022-5-24 01:30:40 | 显示全部楼层 |阅读模式

  J& J' L8 P3 b! j& N
7 ^1 E' p7 h/ T! A◎译  名 少女革命:思春期默示录/少女革命:乌泰娜电影版
8 ~, [) t+ x7 w* y- `- {8 r◎片  名 少女革命ウテナ アドゥレセンス黙示録 / Utena: Adolescence / Revolutionary Girl Utena Adolescence Of Utena : j1 t  B  w4 b( g1 ^  y. Y
◎年  代 1999
# r; O! k% s0 a$ M/ y- s- p" G◎产  地 日本
+ Z+ O6 j: H/ O$ n1 Y! o$ Q◎类  别 剧情/喜剧/动作/动画/奇幻/冒险4 o8 a7 ?# R( z, x( P/ b
◎语  言 英语/日语
2 {; v" o, @, r& J◎上映日期 1999-08-14(日本)) j# `9 Y; S; ]0 [/ \+ z; g
◎IMDb评分  7.1/10 from 1,531 users
& C0 Q3 b, L$ F/ A◎IMDb链接  https://www.imdb.com/title/tt0243558/
, S# |* C9 ?$ u3 J: r2 `- q◎豆瓣评分 8.9/10 from 4,096 users
( S& H! Z3 m5 \; t◎豆瓣链接 https://movie.douban.com/subject/1417956/
4 m9 T! e, N+ ]) H◎片  长 1 h 25 min9 B, Q* u" u+ P! L8 E* {, U; F# B6 b
◎导  演 几原邦彦 Kunihiko Ikuhara
" p8 A9 s% |5 w3 d6 `7 y# j) v2 \◎编  剧 榎户洋司 Yoji Enokido( B0 p2 d: l3 {0 j% Q: N
◎主  演 川上伦子 Tomoko Kawakami
; W5 J9 c* u9 e9 X, f6 `+ F# c$ T       渊崎由里子 Yuriko Fuchizaki5 B% U4 G& ]3 R9 R3 K  x
       子安武人 Takehito Koyasu$ @% \( u: v: C' t  S
       三石琴乃 Kotono Mitsuishi
  T4 ~7 p( d5 a1 Z& k+ N' x# r6 I; V       久川绫 Aya Hisakawa
$ b9 Y; `; r4 L& z: V3 j4 y       草尾毅 Takeshi Kusao
% {. k8 b- I& i3 `2 v       西原久美子 Kumiko Nishihara
- M: h8 A+ M1 v; R& a0 Y6 \* w& X       本多知惠子 Chieko Honda
) a0 |3 ~% ^! _( h       今井由香 Yuka Imai' M3 Q' J4 C& {  H1 s# O$ @; H
       白鸟由里 Yuri Shiratori: K8 \5 F1 T7 O, g, F+ k8 |# {
       川村万梨阿 Maria Kawamura
+ ^* R, y+ P" w; D       兴梠里美 Satomi Koorogi( w# U6 i' A3 t& v# N2 t
       渡边久美子 Kumiko Watanabe
) x% S3 L1 O1 _. b$ j, L% U       中井将贵 Nakai Masataka
- y2 F+ d- U: r       及川光博 Mitsuhiro Oikawa# w; {5 Y6 C" s
       丽莎·奥尔蒂斯 Lisa Ortiz& I8 L" a  C# y
       瑞秋·利利斯 Rachael Lillis0 Z% I: D8 h; E5 F  ^
       克里斯平·弗里曼 Crispin Freeman% n1 t/ T8 R! K8 |8 M1 o
       几原邦彦 Kunihiko Ikuhara+ X5 P/ J: o1 z8 ]. R3 s- }
       吉米·佐佩 Jimmy Zoppi( w# R" Y4 j- |
       光宗信吉 Shinkichi Mitsumune
  L3 m! y- S' m8 l5 B) F       寺原孝明 J.A. Seazer
7 T0 w0 @. f4 e% X2 U  H# F       奥井雅美 Masami Okui# D$ [( P& K; v9 U
       长谷川真也 Shinya Hasegawa
2 _/ ?: h; W2 d6 D* q! q* ?, G# U       小林七郎 Shichirô Kobayashi5 t; S7 b2 T# E7 Y8 o
       金子伸吾 Kaneko Shingo
+ c4 y) X: T( T% Y% Y1 y       武内宣之 Takeuchi Nobuyuki
8 f* a! R! J1 g# H2 i       马越嘉彦 Umakoshi Yoshihiko( t6 X4 K7 ~5 Y3 k: ?
       金子伸吾 Kaneko Shingo
# g; C% I. B4 ?8 M       菊池聪延 Kikuchi Satonobu; \7 |3 R' i( N  J( j0 s: `
       桥本敬史 Hashimoto Takashi5 u: \0 t! V, J# i3 Y  V
7 z* B5 C* h$ z; m
◎标  签 动画 | 日本 | 日本动画 | 少女革命 | 百合 | 剧场版 | 幾原邦彦 | 1999  P8 C8 q7 e6 X( E7 \2 M9 U9 e
9 o6 Q8 h; n% U+ j7 [
◎简  介   
; n7 ]& h/ Z) J0 O
: _5 E. c9 x" R+ r  更加提高深度的实验性动画演出、由J.A.Seazer之手所完成的合唱曲、艺人‧及川光博的献身配音、以及完全没人能预料得到的高潮剧情!
+ b' \8 Q: f, W' @; d. n5 K1 r0 V% x" g" x; q
  「思春期默示录」是将受欢迎程度,已经近似宗教狂热的「少女革命」以更激烈、更华丽的方式重新制作后,所完成的全新完全原创剧场版作品。
# O1 x( @. H# t4 D5 k; I
$ n4 J3 x- F. L& o" M; `% m  Utena Tenjou disguises herself as a boy for the Ohtori Academy, however she encounters trouble due to a ring which shows she's skilled duelist. As well as this, the vice president of the school challenges her to a duel
- `) O3 K; N  ]3 r% H
Revolutionary.Girl.Utena.Adolescence.Of.Utena.1999.JAPANESE.1080p.BluRayCD.x264-HANDJOB 6.61 GB8 u' N. Y- g2 L  Z

1 f$ p* p* P' h3 ]) q- @8 t2 z1 WVideo* C4 W" N  Q& _
ID : 1
" L& m$ a: D. q" iFormat : AVC
3 }7 X/ T9 X, _/ Z3 @1 ]1 mFormat/Info : Advanced Video Codec: R' f1 S; A& k9 N* h) ~7 v# \4 r
Format profile : High@L4.1
7 P/ K* n; x! C3 F# L- K# _Format settings : CABAC / 4 Ref Frames# j6 j9 C. s  B/ j0 r
Format settings, CABAC : Yes
" C/ |5 Y8 ~+ C1 \* [' J9 @Format settings, Reference frames : 4 frames
1 A, Z, K) o: P# S  ^% e: CCodec ID : V_MPEG4/ISO/AVC* K% E/ D  P6 P' q. Q- H
Duration : 1 h 25 min, r2 Z4 c2 g) {& X6 ^2 q
Bit rate : 10.2 Mb/s
: Q! n& s9 t, {! eWidth : 1 916 pixels
, \/ ~" H* Z: b$ S" aHeight : 1 036 pixels4 G, s! b2 j& y% O& F3 X5 u& v% r
Display aspect ratio : 1.85:1- b& [6 A5 J  x' T/ ~8 R% E4 A
Frame rate mode : Constant% f1 `8 S2 M4 }; Y8 T/ w4 k4 z
Frame rate : 23.976 (24000/1001) FPS+ t6 F9 d. d* j( k. E' f. E
Color space : YUV1 X' p# `/ _( E1 J' k* F% L
Chroma subsampling : 4:2:0* D3 I: _# {- W& G8 S& \% u* N, Z
Bit depth : 8 bits  f0 r/ L1 J1 C! o0 k+ \
Scan type : Progressive; u) a! o' G' a& ]- G
Bits/(Pixel*Frame) : 0.213: |) o# T7 ^; }1 J) {7 Q
Stream size : 6.04 GiB (91%)
+ H8 Y# a8 b+ ~1 h1 L  w6 AWriting library : x264 core 157 r2935 545de2f+ `5 F7 H* j# L9 |+ q1 Y' N9 l$ l
Encoding settings : cabac=1 / ref=4 / deblock=1:-3:-3 / analyse=0x3:0x133 / me=umh / subme=9 / psy=1 / psy_rd=1.00:0.00 / mixed_ref=1 / me_range=24 / chroma_me=1 / trellis=2 / 8x8dct=1 / cqm=0 / deadzone=21,11 / fast_pskip=0 / chroma_qp_offset=-2 / threads=18 / lookahead_threads=2 / sliced_threads=0 / nr=0 / decimate=1 / interlaced=0 / bluray_compat=0 / constrained_intra=0 / bframes=5 / b_pyramid=2 / b_adapt=2 / b_bias=0 / direct=3 / weightb=1 / open_gop=0 / weightp=2 / keyint=240 / keyint_min=24 / scenecut=40 / intra_refresh=0 / rc_lookahead=50 / rc=crf / mbtree=0 / crf=19.5 / qcomp=0.60 / qpmin=0 / qpmax=69 / qpstep=4 / vbv_maxrate=62500 / vbv_bufsize=78125 / crf_max=0.0 / nal_hrd=none / filler=0 / ip_ratio=1.40 / pb_ratio=1.30 / aq=2:1.00# c0 s" T4 D6 ~' l
Default : Yes5 _; r' ?* Z9 [" T* O9 j
Forced : No
* A7 U) b( E  OColor range : Limited
4 Z0 S+ l$ H: W% AColor primaries : BT.7094 c: J! i7 W( H5 j4 V( `! ]
Transfer characteristics : BT.709
( ~. W: N# \1 N- R+ d! r4 zMatrix coefficients : BT.7098 X9 s/ I5 @! w: L

9 I! }- ^7 X+ V  F- rAudio #1
3 i# C5 S' b7 K& [: B1 v& vID : 2
1 J* V7 C5 [! P1 JFormat : AC-3
0 {+ Z! B1 d# l1 o: Z9 F$ L- DFormat/Info : Audio Coding 3" ^3 J3 ]% X3 e1 n; F0 `: d9 h9 V: H
Commercial name : Dolby Digital. S8 p: s1 \3 w% z! I4 L; o9 N, K
Codec ID : A_AC3
8 M6 r: P: Y: Z/ u6 IDuration : 1 h 25 min$ l$ T  J$ x2 r; r# M! {
Bit rate mode : Constant8 I  B% u3 b# o- O
Bit rate : 640 kb/s
  M6 y9 G3 Z# e4 x; Z7 P8 @. PChannel(s) : 6 channels
/ r5 H1 a  L. ^, ]Channel layout : L R C LFE Ls Rs7 C- i+ g" }" t% ]5 Z/ g( J8 Y. X
Sampling rate : 48.0 kHz
! c( ~3 S1 Y- R& X. tFrame rate : 31.250 FPS (1536 SPF)+ R2 W/ {0 S* o; i! {
Bit depth : 16 bits
6 T$ L3 `* G' k  A5 TCompression mode : Lossy
4 }& `+ q0 M8 |; A. v& I3 `Delay relative to video : -5 ms" [' ~$ q" V2 Z/ m- ?2 K8 w
Stream size : 390 MiB (6%)
3 w1 d3 o- E2 U, PLanguage : Japanese' ^# J: w, U  x- V
Service kind : Complete Main5 `0 N- H& V, w2 X! V7 j) ~* |1 I
Default : Yes
3 ?$ g: Q1 W4 L. z/ CForced : No
" R, v, V7 x6 q7 Q, P
) o; s- a1 L3 Q: W/ mAudio #2
, v& m. L& K. D, \ID : 3
3 C- J; P! W& @7 EFormat : AAC LC. W- [/ s# K' ^( I( R- Y
Format/Info : Advanced Audio Codec Low Complexity
: k& Z) @, m6 ~2 RCodec ID : A_AAC-2
3 s  m$ N) f5 H. T" {' }Duration : 1 h 25 min
5 `! N5 a' t: B# S* d% jBit rate : 320 kb/s
3 e! g0 w! J" M# Q' kChannel(s) : 2 channels
( p- u" F4 l/ `) K7 l4 R. VChannel layout : L R
/ Z+ G: S" g1 c# }8 t4 j" BSampling rate : 48.0 kHz0 b+ |! Y$ ~+ E4 S
Frame rate : 46.875 FPS (1024 SPF)3 K  {8 e2 c# n: b5 e  h7 |* f( E
Compression mode : Lossy9 d, P1 w8 s# E9 F+ m
Delay relative to video : -21 ms/ c! @6 R) t6 b0 E( n! G# l/ N4 s4 Q
Stream size : 195 MiB (3%)
, J+ C7 k* R; \. E% yTitle : English Dub
2 Y% C# O: b: P$ p* H  |' t. PLanguage : English
+ p8 |- p5 H- |( KDefault : No, j' q% N6 S$ |
Forced : No, y' F1 a0 F/ L+ R/ v

: {7 X5 O5 M/ Z  B" x' R6 ZText/ K6 }8 o) K+ x( E7 J7 P+ W7 E
ID : 4
! S& Q( h3 K5 Z( H: bFormat : UTF-84 B1 r9 g* T0 n% c$ i, }
Codec ID : S_TEXT/UTF8' y4 J! H* c% p5 n# M8 f
Codec ID/Info : UTF-8 Plain Text! ~( f7 F( p& p0 ~1 i$ ]+ _& `3 ]( B
Duration : 1 h 16 min
1 ]* }7 i0 d5 Y8 `7 U/ J+ t+ yBit rate : 101 b/s" G1 v* `( m8 ?8 C, b
Count of elements : 1518
/ u; Q2 I# h# {+ ZStream size : 56.6 KiB (0%)9 x" F0 O( D' E5 ]+ ]+ Y
Language : English2 y8 T- F  S8 }6 Q3 e
Default : Yes( E5 n  |6 y6 f# W2 V& [$ d* ]9 g' q
Forced : No4 t6 n2 @* \0 `; `1 s: `+ s+ m

7 e. @5 g( ^$ ~0 w" t% O8 U0 jMenu
5 F& z; F1 Y: U0 S9 h( B; T/ M00:00:00.000 : :Chapter 1
  A0 ]7 f+ _  I" F00:01:38.932 : :Chapter 2
) P+ x" g" E1 v6 }8 S8 b00:03:27.958 : :Chapter 3" v- \. @2 r  e3 A
00:04:10.125 : :Chapter 4
7 P( v  o) I  X00:05:43.552 : :Chapter 5
3 R7 d% x& N9 A& M5 H8 V+ m$ ]* v- Q00:06:55.540 : :Chapter 6' C! u% u3 |7 b/ g
00:09:45.210 : :Chapter 7$ @$ c) R% \5 n" b! d
00:12:00.553 : :Chapter 8
2 e7 _5 T5 z, ^, B  a00:13:13.418 : :Chapter 9
. h4 q; x. R* ~& v# a00:15:23.131 : :Chapter 10
7 ^" S9 q) M" P; Z; y00:17:56.909 : :Chapter 116 U$ z# |$ @  H# E7 B
00:19:24.997 : :Chapter 12
: f$ U1 T! K) f+ Y00:20:30.980 : :Chapter 13
' D' P# s2 n- ?/ v! F00:22:16.877 : :Chapter 147 E7 b1 U: X1 q/ D7 Q0 u  w
00:23:19.982 : :Chapter 15
7 k/ F( |1 U, z9 h00:25:01.875 : :Chapter 16% n. Q( B) }8 |3 K- H$ A. y
00:25:46.962 : :Chapter 178 F( Q, U4 i5 p
00:27:08.627 : :Chapter 18
" I: o5 d* M) q& o' T, |00:28:00.637 : :Chapter 19
2 W, B- p$ b! P6 a3 s00:30:46.219 : :Chapter 20
0 [' |. `: d% I  X8 n" B; I) ]00:32:27.362 : :Chapter 21
* N0 E" t2 }! B& Z# S  U+ p00:34:01.164 : :Chapter 22
- L# N  h( [/ h0 [- q4 s2 c% o0 X00:36:26.476 : :Chapter 235 j" ?& x+ v& _
00:37:22.198 : :Chapter 24
  Z3 |0 A! L, H5 C$ B6 l# q4 {, H) G00:39:15.895 : :Chapter 251 B0 [: E4 k6 ^+ K3 z
00:41:00.375 : :Chapter 26( y6 n: @. q) N( z. [( i9 s5 D
00:44:49.103 : :Chapter 27
* c3 a1 O+ ^: s* L00:46:46.762 : :Chapter 28! ]6 D2 n3 }3 c# Q
00:48:36.789 : :Chapter 29
8 y9 }" C& B" P) h$ ~: N- [+ w00:52:24.266 : :Chapter 30
7 R. Y7 R, J% [5 K8 D# h5 G00:53:49.184 : :Chapter 310 n; J( Q2 o. L  `# L
00:56:37.227 : :Chapter 32
9 D  g$ @- l3 x7 n00:59:28.648 : :Chapter 337 K% D/ ^. E# t9 M' B
01:01:32.480 : :Chapter 34
: k0 I. y  B1 w; L2 A) l01:02:13.939 : :Chapter 352 t# c& W; ^6 `) d" E& P
01:03:53.121 : :Chapter 36, e# W  A" R+ v+ ]+ m4 {: v
01:04:59.729 : :Chapter 37! U+ v+ l2 q" Z1 M( [( g
01:05:51.698 : :Chapter 38
; J. f7 y# K# U01:07:10.860 : :Chapter 39
1 |& b7 f& n2 O01:08:20.680 : :Chapter 409 \2 T8 q- r# O4 f% y4 `
01:09:38.299 : :Chapter 41
+ o- k3 `' X9 [: f01:10:36.858 : :Chapter 420 G, g! G7 d. v, l8 z8 G; z" k
01:11:37.794 : :Chapter 432 v! y$ u* P1 u4 q, Q$ ?( k
01:12:46.195 : :Chapter 445 a$ L! |9 g& X$ o5 V( G( c+ s. ~6 W
01:14:54.490 : :Chapter 45+ h. ~8 y  G* C% F$ s) i$ g
01:17:08.124 : :Chapter 46
+ L. x# Y8 [6 L; a! q" C5 K5 N01:17:53.169 : :Chapter 475 O" E8 ~: c2 K. m
01:20:48.469 : :Chapter 48
Video& e& _& v5 B$ R9 h# t8 H4 j
ID                                       : 18 Z1 s' v+ j0 p8 ?$ a
Format                                   : AVC* [' q0 R7 h$ j4 Y
Format/Info                              : Advanced Video Codec
: Q, V$ I% R' }% d6 GFormat profile                           : [email protected]
& E- g: ~- l! h# ]Format settings                          : CABAC / 4 Ref Frames
6 u7 n5 T. M" J0 iFormat settings, CABAC                   : Yes
9 _* X& E- h) k6 {Format settings, Reference frames        : 4 frames
/ v4 ~" i4 G$ c' ~8 x+ A( b* OCodec ID                                 : V_MPEG4/ISO/AVC9 I. n  M9 A. L, [
Duration                                 : 1 h 25 min: b! T$ P( a0 d
Bit rate                                 : 10.5 Mb/s& s! i% h! X# q
Width                                    : 1 918 pixels$ z4 [/ O- c& `! j  A; `& P  v
Height                                   : 1 036 pixels
8 I. Y# E& a- f" C. {8 v; \Display aspect ratio                     : 1.85:1
" `7 _3 E3 C6 L7 ]# UFrame rate mode                          : Constant
3 }7 U' O& ^: cFrame rate                               : 23.976 (24000/1001/189150) FPS
. Y% P! [, j7 t2 ~  H: AColor space                              : YUV
: H  {% C! `' V. U; Z* B0 f  GChroma subsampling                       : 4:2:0. ^2 ]. o9 s# G4 E: L& M4 b1 s
Bit depth                                : 8 bits
9 ^5 }& r7 v; u1 D* [. `# s& k, LScan type                                : Progressive7 w/ W; r& q. u. q& m3 o$ P, l/ s$ h
Bits/(Pixel*Frame)                       : 0.219
2 b1 @8 c, x& j/ A  K9 F3 PStream size                              : 6.22 GiB (82%)
4 @, [' g# J; j6 q2 \( N4 zWriting library                          : x264 core 164 r3094 bfc87b79 x8 X% t. D* Q' n
Encoding settings                        : cabac=1 / ref=4 / deblock=1:1:1 / analyse=0x3:0x133 / me=umh / subme=10 / psy=1 / psy_rd=0.60:0.00 / mixed_ref=1 / me_range=24 / chroma_me=1 / trellis=2 / 8x8dct=1 / cqm=0 / deadzone=21,11 / fast_pskip=0 / chroma_qp_offset=-2 / threads=24 / lookahead_threads=6 / sliced_threads=0 / nr=0 / decimate=0 / interlaced=0 / bluray_compat=0 / constrained_intra=0 / bframes=10 / b_pyramid=2 / b_adapt=2 / b_bias=0 / direct=3 / weightb=1 / open_gop=0 / weightp=2 / keyint=250 / keyint_min=23 / scenecut=40 / intra_refresh=0 / rc_lookahead=60 / rc=crf / mbtree=1 / crf=20.0 / qcomp=0.60 / qpmin=0 / qpmax=69 / qpstep=4 / ip_ratio=1.40 / aq=3:1.10
, x5 d: i( e6 \8 Z# L- b" m6 tDefault                                  : Yes
; P" X2 [' j# U+ kForced                                   : No* u5 l6 b' J8 `( ?; v8 j* o+ E
Color range                              : Limited
3 F0 P- D8 Q0 J) VMatrix coefficients                      : BT.709+ Z' R3 O; U% E( }- @

" k' s; E: U4 m/ E. `' T. gAudio #19 l2 V1 ?6 ^# C$ s& I6 `7 ]
ID                                       : 2
* Y3 K2 ~; A5 D! gFormat                                   : FLAC
: c8 a2 ]. q. i" |: KFormat/Info                              : Free Lossless Audio Codec
7 X; z2 A' m9 R( X( n: qCodec ID                                 : A_FLAC3 R% @( c9 u5 ]9 a; a0 w
Duration                                 : 1 h 25 min
" C* F( H# m+ _- g1 d3 ?4 y. dBit rate mode                            : Variable
0 ^( W! g- k% f+ s/ [Bit rate                                 : 1 430 kb/s
- R; S" `4 i& j+ [; |! O) J% l) kChannel(s)                               : 6 channels) e% Z# C1 e" A: b8 X
Channel layout                           : L R C LFE Ls Rs9 q  i% {& H8 C7 u0 s
Sampling rate                            : 48.0 kHz
: j; u- Y1 J( F. O, pFrame rate                               : 11.719 FPS (4096 SPF)
- t+ d  B, \! Q% d; fBit depth                                : 16 bits) G: _: u9 ~/ X
Compression mode                         : Lossless
9 j$ g3 I' j+ S+ d' D+ t% vStream size                              : 871 MiB (11%)
/ c+ x* j$ F# q0 S. x8 _/ ~% VWriting library                          : libFLAC 1.3.3 (UTC 2019-08-04)
. X: F. h2 Z8 E% A" S  JLanguage                                 : Japanese: W  E3 J/ i/ }4 [$ O
Default                                  : Yes$ b& ?7 N% ]7 |
Forced                                   : No$ M  E$ R- K+ ~9 T; [' g

4 e7 ~, L/ [( g; dAudio #2
/ n/ |! s# a+ v% P3 BID                                       : 3. T. h- x( d* F7 m1 v- Q! v2 t
Format                                   : FLAC
) ]0 a8 c* z6 v' z  r! E% qFormat/Info                              : Free Lossless Audio Codec
" {6 v8 r, p  j( XCodec ID                                 : A_FLAC' g; q& Z2 q3 b3 w' s
Duration                                 : 1 h 25 min
& }# R3 @, G5 F5 y3 d9 q3 ]Bit rate mode                            : Variable
8 g! Z; ]) p% t& J9 XBit rate                                 : 780 kb/s
$ H1 h, S; o' WChannel(s)                               : 2 channels
- i7 j$ ]9 e/ w+ T/ ?' K% DChannel layout                           : L R
6 `& P' k1 f; z; H& i" l" l' ISampling rate                            : 48.0 kHz! i4 q$ s8 E" m! V; U$ r2 k
Frame rate                               : 11.719 FPS (4096 SPF)
8 c+ c. s! T4 w9 PBit depth                                : 16 bits2 M$ N4 ~, n7 U) C+ ^8 B
Compression mode                         : Lossless, C( ~3 Y8 L1 X8 r* R
Stream size                              : 476 MiB (6%)
/ G7 N/ {8 G- c2 t: lWriting library                          : libFLAC 1.3.3 (UTC 2019-08-04)
( N$ w6 I( V# j$ e- d; N& o: wLanguage                                 : English
! }& n% v  u- T% QDefault                                  : No
1 l/ a: Q& _" Y4 aForced                                   : No
0 {) F. r( c( P" `* C5 R; g- _5 g, |, v$ B+ w
Audio #3! |* g: F" Q/ k
ID                                       : 4! M5 ?" p) n1 O6 i
Format                                   : AAC LC& H, w- W$ Y# o5 g/ b8 e# x" l
Format/Info                              : Advanced Audio Codec Low Complexity# W; u& U; _' T' ]# S" F
Codec ID                                 : A_AAC-2
; L1 G0 V$ J5 `; T0 [7 O2 Q$ O; ~Duration                                 : 1 h 25 min/ x- n6 l0 Q- t( n' @
Bit rate                                 : 132 kb/s1 ?5 P( H  I) U  l, v$ B8 p- e
Channel(s)                               : 2 channels
) b, l6 F, e) g/ G! t' oChannel layout                           : L R7 h* \) \$ B2 M  L% C; G; a
Sampling rate                            : 48.0 kHz) r4 ^) x) |- p* P1 {% z. q2 q3 o
Frame rate                               : 46.875 FPS (1024 SPF)
1 ]8 e: K" _5 k# dCompression mode                         : Lossy
& z' v  f2 [# N+ NDelay relative to video                  : 20 ms
: w+ X! M$ i& FStream size                              : 81.9 MiB (1%)
' ]' I5 G: ~$ Y) s& m- E2 FTitle                                    : Commentary
, a. C! @  [  T* u1 B( SLanguage                                 : English" R8 W6 f$ l4 s' Y. j  e" j
Default                                  : No6 ?& L4 o5 [4 g1 f
Forced                                   : No
! I; V' m; e8 Z. o$ ~. Q* c! G
5 W  Z" n" R; ]- OText #19 {) p3 l' l' \# b3 o" b# C( K
ID                                       : 5
& q+ |4 O3 J7 K0 o7 M  A0 D0 \9 NFormat                                   : PGS' N# d/ @' H3 t1 J- }6 W" _7 F
Muxing mode                              : zlib- i' v& c8 |, W$ s0 h" W
Codec ID                                 : S_HDMV/PGS! @$ d3 \: L8 J3 T  w
Codec ID/Info                            : Picture based subtitle format used on BDs/HD-DVDs; R# P. z8 M: ^
Duration                                 : 1 h 20 min
  H0 z: B8 f/ B+ P# nBit rate                                 : 31.5 kb/s6 E7 r2 w7 ]  ]4 z  v8 w
Count of elements                        : 17690 u1 R/ k! v6 m% j! \
Stream size                              : 18.2 MiB (0%)9 s3 a. x! l7 r9 @8 i' Y% z' z. o, i* i
Title                                    : Forced
8 T' h, f) w: r$ P" y) G' q& oLanguage                                 : English
7 @) l% I0 K! d# oDefault                                  : Yes
9 _# }& [4 i# x; d( }, HForced                                   : Yes& k7 M1 J) g) i3 {# d' `

5 \# m( A; @6 D) x: J8 c8 OText #2& O- t4 Z4 J( G* I6 H4 i  }" t
ID                                       : 60 ~7 j( y- }' c% X2 L6 {
Format                                   : PGS
2 `5 i& [: @$ C- P% y2 BMuxing mode                              : zlib
" ^9 @7 P' _4 U$ L7 `/ WCodec ID                                 : S_HDMV/PGS
7 Y" o# {/ }  x. y; _" O; yCodec ID/Info                            : Picture based subtitle format used on BDs/HD-DVDs
! {; }8 [$ i/ @' Q& R& n: K3 f3 GDuration                                 : 1 h 7 min
, ^( T8 f* T1 ]$ kBit rate                                 : 11.5 kb/s
4 Z) u- ^5 @0 Y: D' d$ ]Count of elements                        : 330; E0 u) u' s$ d5 \
Stream size                              : 5.56 MiB (0%)
' q! V( k2 I+ T1 D7 |Language                                 : English% I4 U, p& g! s1 |+ @. Z: C, \
Default                                  : No
( k0 l. H) q; X! x7 I1 aForced                                   : No0 F/ U: q4 J" m( S8 g2 O5 X: U
/ a. ?# \# R1 `  j% @
Text #3
" K9 j& k, n& Z4 S) ?ID                                       : 7
& ]5 a3 q! R0 ~- K5 V( M# T2 }Format                                   : PGS
! w4 [, x  U8 U8 s7 \' V+ bMuxing mode                              : zlib
" R1 E2 [% h( eCodec ID                                 : S_HDMV/PGS  k3 L) Y4 \, [  w/ ]2 p
Codec ID/Info                            : Picture based subtitle format used on BDs/HD-DVDs
. {/ k6 I4 D5 x4 pDuration                                 : 1 h 23 min( y( \$ ~  S1 R" m# F3 I) g# W( Y
Bit rate                                 : 31.8 kb/s
8 y6 ?6 @6 c" b/ `6 R: N4 qCount of elements                        : 1214
; z& q$ ^( J/ K; {$ L% {Stream size                              : 19.0 MiB (0%)
3 e$ ]; N6 Z3 `3 q( n& mTitle                                    : Commentary1 l( a5 K, ^. n6 y" U1 n
Language                                 : English) M" ~; T( z- R9 M5 i+ M3 r
Default                                  : No
8 n) O9 N7 I  ^# _* @& Y5 IForced                                   : No  {0 T% }1 d0 a- C- T
1 e, U9 V+ P7 c+ s
Menu7 o* \" ?5 Y" Y# _# E3 B
00:00:00.000                             : Chapter 01  p# c/ t" I4 c6 f) w2 r! d: i
00:03:26.957                             : Chapter 02& u( K1 I- g5 T
00:09:44.501                             : Chapter 03
( C0 z- z; B" a% V00:19:24.163                             : Chapter 04
! @4 K3 e, O& I  R$ @, I; F00:27:07.876                             : Chapter 05% b( E2 g0 e, r  t4 x% z& b
00:33:59.996                             : Chapter 06
. ~& d2 Q. Q4 ]+ k1 ^: Q% D00:44:48.102                             : Chapter 07
# z4 Q7 R% Q' E2 y00:53:48.183                             : Chapter 089 ^# Q1 E; |) j  E6 D
01:01:37.277                             : Chapter 09- `5 v; F& y! |6 _& B
01:09:50.436                             : Chapter 10, H+ ?" L% ~- Q2 Q' T
01:20:47.593                             : Chapter 11
& p4 |( D7 ]0 w' Q! d- C) N5 u( m9 U01:25:10.564                             : Chapter 12- W/ I& m. G3 U8 j9 H; [8 ~
5 \( k; ^) Z4 p: t8 ?; r$ _
Revolutionary.Girl.Utena.The.Movie.1999.1080p.BluRaycd.x264-ORBS 7.63 GB
, G  @2 \1 }" [8 D6 L) t! y" k1 G- v1 S- z
Title......: Revolutionary Girl Utena: The Movie
7 y. ?$ j- A4 J; s& S% L/ ~Rating.....: 7.2/10 from 1,525 users. W7 V, J5 Q1 _. ?# }2 }' X
Genre......: Animation, Action, Adventure, Comedy, Drama, Fantasy, Romance; V  K. `1 z0 w9 z4 Q
URL........: https://www.imdb.com/title/tt0243558
; y; M+ a- S* `$ d, q# _) A1 Q6 g5 w) u: F
Video......: CRF 20 (10455 Kbps)5 P8 j% v1 w9 d
Source.....: 25923 Kbps' D& i% U! ?, ?# R
Resolution.: 1918x1036
( V7 D3 M* _3 T3 |Frame Rate.: 23.976 fps( L' C  d3 a& V( B: U( Y
Duration...: 1 h 25 min8 W2 s0 {& m( p
Language...: Japanese, English
2 W: w+ \4 @/ ]8 [( NAudio......: FLAC 5.1ch (1430 Kbps), FLAC 2ch (780 Kbps)! T" ~0 ]) }3 W/ {
Subs.......: English
4 Q% _+ ]7 t$ YSize.......: 7.6 GB

; Z$ e& b5 {) S2 `4 M4 J
游客,查看本帖隐藏内容请回复 | 加入VIP可免积分免回复 了解详情 | 还不是会员:点击获取邀请码 Invitation Code

3

主题

601

帖子

2565

积分

Sponsor

金币
588 枚
体力
874 点
211 发表于 2022-5-24 13:16:23 | 显示全部楼层
其实我一直觉得楼主的品味不错!呵呵!
" B/ w" x! E" C7 ~/ t( u祝愿蓝光社区越办越好!I wish Blu-ray communities better and better!
$ Z- F) D( ^5 e

本版积分规则

小黑屋|Archiver|4K蓝光论坛

GMT+8, 2022-12-4 09:38

Copyright © Tencent Cloud.

快速回复 返回顶部 返回列表