BluRayCD Forum

 找回密码
 立即注册【分享大片】
查看: 30|回复: 2
收起左侧

[动漫动画] 机动战士高达:生命光辉 编年史UC [内封中字] Mobile Suit Gundam The Light of Life Chronicle UC 2019 JAPANESE 1080p BluRaycd x264 FLAC 2.0-HANDJOB 3.78GB

[复制链接]

1万

主题

1万

帖子

10万

积分

Post Share

金币
171 枚
体力
26705 点

卓越贡献勋章VIP黄金勋章诚信会员勋章

mvods 发表于 2022-6-11 17:03:56 | 显示全部楼层 |阅读模式
01.jpg
, Z1 v7 b  ^% e& {5 a) v- z- Q1 o# z" P
◎译  名 机动战士高达:生命光辉 编年史 U.C
/ m: U, n( o( k/ r* r2 o1 f◎片  名 機動戦士ガンダム 光る命 Chronicle U.C. / Mobile Suit Gundam The Light of Life Chronicle UC
: T: D9 ~% x6 V/ R' ?. `: I+ m◎年  代 2019
; O' _: Y$ u8 V5 m7 l" H+ [◎产  地 日本  O$ \3 u6 `2 {! n$ H  Y6 L
◎类  别 科幻/动画
% `; w+ \, y& b' u" i◎语  言 日语5 W' j2 K4 b- n: i
◎上映日期 2019-09-26(日本)
7 F5 `7 w3 x0 N8 G◎IMDb评分  6.4/10 from 817 users$ w5 i3 I! b& ^" x2 f
◎IMDb链接  https://www.imdb.com/title/tt15607440/2 p( R8 r9 j& g$ n! \* i
◎豆瓣评分 0/10 from 0 users% g3 ~6 M( I9 {: E/ ^
◎豆瓣链接 https://movie.douban.com/subject/35417877/
% U: s7 o- q' ?( h7 r+ @) R0 i: S◎片  长 44 min 3 s
- q+ `$ ?% C8 J$ P◎导  演 Harutoshi Fukui
/ ]& ]& {7 j% k( g" C5 l" U◎编  剧 矢立肇 Hajime Yatate
$ A5 I) T9 F. }0 f6 G% w       富野由悠季 Yoshiyuki Tomino # T: a* e/ ~8 |/ f: `3 a+ i( j" T
       福井晴敏 Harutoshi Fukui
% k1 i0 l! M: p7 ^2 ?◎演  员 古谷彻 T?ru Furuya + n, k% G; c' Q: g
       潘惠子 Keiko Han
3 n1 @( D3 n' @! ~% v  k& I. [- g% ]+ v% V' l) ?$ H
◎简  介   + G: v, Y6 z- v. g

% M$ {: c4 m6 D/ q# N  福井晴敏所创作(剪辑)的「U.C.ガンダムBluRayCD.com" target="_blank" class="relatedlink">Blu-rayライブラリーズ」(宇宙世纪高达蓝光图书馆)特典视频,以∀高达的月光蝶开局,从拉拉辛、阿姆罗雷和的视角回顾UC历史,二人(魂)得出了月光蝶并非毁灭之光,而是重启新文明的生命光辉这一结论,是个寓教又娱乐的小故事特典视频。
4 G$ V+ }+ z: l9 [( x( a" u( @7 E2 f9 u8 Z3 y
  As the Turn A Gundam's Moonlight Butterfly begins to reduce civilization to dust, the ghosts of Amuro Ray and Lalah Sun look back on the history of the Universal Century.
/ ^+ M/ D; n8 U# G
Video
2 c% I: V' c' I7 O6 r8 NID                                       : 11 p% G( h1 Z+ ?5 z
Format                                   : AVC. t: c- H5 Y- y* D
Format/Info                              : Advanced Video Codec
- K4 c0 |+ i* {2 H" {0 ]Format profile                           : [email protected], @4 Z* \" m% P$ b( V
Format settings                          : CABAC / 4 Ref Frames- z2 R4 p1 B) S
Format settings, CABAC                   : Yes. W( o4 U5 d+ X' Y7 F7 {  }+ F
Format settings, Reference frames        : 4 frames$ w( L2 A$ u* s8 L" r1 @
Codec ID                                 : V_MPEG4/ISO/AVC. z7 W( Q; c' j/ C' m8 P
Duration                                 : 44 min 3 s/ x5 o7 N6 D( ?& Q; o& x( s
Bit rate                                 : 11.5 Mb/s
. K, y# E9 a7 W) t! RWidth                                    : 1 918 pixels
, b; T2 |+ f" B# _Height                                   : 1 080 pixels3 D9 S+ ~$ q( F) Q. L7 v: A
Display aspect ratio                     : 16:9- d, T3 b+ o* s' Z
Frame rate mode                          : Constant
& z# W6 v* [; D, j, i& JFrame rate                               : 23.976 (24000/1001/189150) FPS
: h1 J; D" j+ U8 vColor space                              : YUV
' H; U8 Z- g. S! I& H* B- QChroma subsampling                       : 4:2:0
; V, b- \: p4 L( ]- k/ hBit depth                                : 8 bits/ B! f: E, F3 D% `
Scan type                                : Progressive: f  a+ ?/ G' A1 V( r" M& B
Bits/(Pixel*Frame)                       : 0.232  P3 D- C2 H) {
Stream size                              : 3.54 GiB (94%)9 `9 Z) M1 y, T7 U# p# f, D" |. @
Writing library                          : x264 core 164 r3065 ae03d92' z8 T2 E2 P6 ]6 H+ c2 S) r7 f& x" ]9 [
Encoding settings                        : cabac=1 / ref=4 / deblock=1:-3:-3 / analyse=0x3:0x133 / me=umh / subme=10 / psy=1 / psy_rd=1.00:0.00 / mixed_ref=1 / me_range=32 / chroma_me=1 / trellis=2 / 8x8dct=1 / cqm=0 / deadzone=21,11 / fast_pskip=0 / chroma_qp_offset=-2 / threads=34 / lookahead_threads=8 / sliced_threads=0 / nr=0 / decimate=0 / interlaced=0 / bluray_compat=0 / constrained_intra=0 / bframes=16 / b_pyramid=2 / b_adapt=2 / b_bias=0 / direct=3 / weightb=1 / open_gop=0 / weightp=2 / keyint=240 / keyint_min=24 / scenecut=40 / intra_refresh=0 / rc_lookahead=60 / rc=crf / mbtree=0 / crf=19.5 / qcomp=0.60 / qpmin=0 / qpmax=69 / qpstep=4 / vbv_maxrate=62500 / vbv_bufsize=78125 / crf_max=0.0 / nal_hrd=none / filler=0 / ip_ratio=1.40 / pb_ratio=1.30 / aq=2:1.00' g+ R, S4 c; K  L( z% B3 f
Default                                  : Yes
! F) |4 K  S: ^6 F6 B# g& NForced                                   : No% n6 h0 ?1 f) C' r
Color range                              : Limited
& r. t# M/ R" _Color primaries                          : BT.709) p5 d. i% c, G/ e; P# Y, ^! M! O
Transfer characteristics                 : BT.709, {! w( Z. U0 P& C3 K/ `9 w3 u3 |+ a
Matrix coefficients                      : BT.709
8 u' r' ~) ~" h! e. w7 v
5 B) i+ y& h/ eAudio' F+ {/ r0 N( K2 i6 q& e
ID                                       : 2
% d' q3 h4 a5 q" r/ ~, s' BFormat                                   : FLAC! T" q% G* h# W, ]& U
Format/Info                              : Free Lossless Audio Codec; D; b- E( _+ |5 Z4 B  K
Codec ID                                 : A_FLAC
% s" A1 A) n! y$ j1 M( ~Duration                                 : 44 min 3 s
. L( T9 k$ j/ m1 s, I# l7 s# cBit rate mode                            : Variable
) s( ]$ [7 o2 H- E8 x% q" dBit rate                                 : 713 kb/s
) W' h) S- S+ f7 [) o& ^( rChannel(s)                               : 2 channels
6 z7 Y! i7 t, t: AChannel layout                           : L R0 e( Y+ \4 f! n3 r3 L; X0 ?
Sampling rate                            : 48.0 kHz! x4 ~+ \1 g+ P* g0 p$ S6 M
Frame rate                               : 11.719 FPS (4096 SPF)
7 y& m; Z! m; u$ w; c# q" aBit depth                                : 16 bits  r8 b! O% r- P8 n) N0 P
Compression mode                         : Lossless
% @0 `: I, x2 @7 L7 ^) v% OStream size                              : 225 MiB (6%)2 S# }" m! p9 k! j
Writing library                          : libFLAC 1.2.1 (UTC 2007-09-17)
6 j, `0 g( ?+ Z# F0 Y3 F) X8 ULanguage                                 : Japanese
5 x. `4 o! u% Q1 I2 @Default                                  : Yes2 P; Q9 d! _6 S1 T& ]$ J4 O4 Q
Forced                                   : No2 d; m% M! w' x4 V
! x( V1 v5 \7 k2 M  V7 O
Text #1
8 U* l! ^( N( W8 H0 K" RID                                       : 3
; Y5 d0 s* X9 ~. T+ UFormat                                   : UTF-87 t! R1 F' g( k# c: ]" N
Codec ID                                 : S_TEXT/UTF8
" n- g+ {2 D4 q. A1 JCodec ID/Info                            : UTF-8 Plain Text
6 ^8 R2 X/ P: G$ Q2 O/ E) a. ZDuration                                 : 43 min 35 s. m6 w6 H% t# C# b5 Z  R
Bit rate                                 : 66 b/s
6 ]1 G+ r; s$ r; s- _4 LCount of elements                        : 639
! t, m/ k4 F! D. r  _/ tStream size                              : 21.2 KiB (0%)- f# U9 f$ a9 }8 S/ B$ B0 {$ [
Language                                 : English3 v4 V% E+ q! P
Default                                  : Yes
* Y, e% `5 a$ JForced                                   : No" u' n* o+ |# f0 e* g: O1 V

. o7 H# g9 U; m) F0 [" BText #2. T( v# N1 K$ ~' f
ID                                       : 4% ], t7 K5 R- _/ j) P  W7 [
Format                                   : PGS6 U# W2 c' X" ]2 L9 h, Y* ]* M
Muxing mode                              : zlib
8 P5 F# N4 o  X0 ]) ^Codec ID                                 : S_HDMV/PGS
% B1 _* Q% S- W& V: Z& BCodec ID/Info                            : Picture based subtitle format used on BDs/HD-DVDs
. |1 B3 J2 V( N# ~0 y# zDuration                                 : 42 min 14 s
! G, X0 a% k( o: E: {+ H* S) yBit rate                                 : 38.0 kb/s
) x. |& x% t0 a" uCount of elements                        : 1055
+ h  B! f. K1 b0 j# J3 M0 E8 VStream size                              : 11.5 MiB (0%)
+ V6 @% F- B  F% W: |; u( @6 t6 NLanguage                                 : Japanese
' e. m: ~# C. X7 kDefault                                  : No* Z, s3 S% \* e5 e' m
Forced                                   : No
2 \9 h. B6 m4 P' V6 \+ B% a2 u4 o5 c& q
Text #3
. }. y% D/ F2 C4 e4 BID                                       : 5# k/ h$ X1 \& @" M1 B5 J& R
Format                                   : PGS1 y, c* T- A* M' R( r% w8 q
Muxing mode                              : zlib
& p, `; Z/ {- y: K% F1 lCodec ID                                 : S_HDMV/PGS$ C& Z. @2 l) Q7 P% h4 n
Codec ID/Info                            : Picture based subtitle format used on BDs/HD-DVDs
) A! }+ H4 X% F/ cDuration                                 : 43 min 35 s' {$ D  ?* G0 D% S9 z/ u, }2 F- v5 O
Bit rate                                 : 42.2 kb/s
# A8 v( H: Q) dCount of elements                        : 13165 k1 X1 q# J) f6 o
Stream size                              : 13.2 MiB (0%)" ?7 d1 p0 B- N5 N/ H, M
Title                                    : Chinese Simplified4 Y1 A5 C1 @7 h( V
Language                                 : Chinese( G) p  |2 Y  Z( V" L$ M6 ]
Default                                  : No+ {5 c  K% n: c  b; w
Forced                                   : No& l! J/ N' i. b& r; M
4 w6 a. r0 {5 j4 F- z' \3 u1 p
Text #4: f0 I6 K- F6 V: n5 e% @
ID                                       : 6
4 _. Y5 R4 z2 U5 Z* ZFormat                                   : PGS
. @3 O8 @9 }. ?$ H' ]Muxing mode                              : zlib  m+ F" `1 R9 ^8 G' k$ _( J
Codec ID                                 : S_HDMV/PGS
' S  U. y  R8 m0 [4 aCodec ID/Info                            : Picture based subtitle format used on BDs/HD-DVDs
, {, z1 b* B  h: G! B/ wDuration                                 : 43 min 35 s' r5 `* D1 O" w) u: a; O  j4 Z5 t2 o
Bit rate                                 : 43.8 kb/s
, b* P2 w3 m* n* E( nCount of elements                        : 1316  G* L. J. u" C4 A! `
Stream size                              : 13.7 MiB (0%)2 V8 ?* \. Z' y: J# b7 C
Title                                    : Chinese Traditional3 U& d& U# P# i4 X1 F
Language                                 : Chinese
1 t# }& T+ d- y  f: jDefault                                  : No
5 X( n8 @# k, W$ J+ _' ^Forced                                   : No
1 }; }) @/ V& ^9 q, M! a6 A8 r' m, \, z& }- c' M0 {6 Z! l
Menu
: U' k# |8 {4 ~9 y& N00:00:00.000                             : en:Chapter 1
, Z0 H0 L! Q# z- E, S. q00:02:21.141                             : en:Chapter 27 j" I* j9 [) Y  G
00:13:04.075                             : en:Chapter 32 M1 o6 y$ u% s3 M
00:18:22.310                             : en:Chapter 44 L# }9 j; v2 q) t+ M( g8 {) j/ W
00:24:24.546                             : en:Chapter 52 ?" n% G. U' `' |
00:29:02.866                             : en:Chapter 69 \- s% |. C: ?4 \! I
00:39:13.476                             : en:Chapter 7
, c: [( k- w$ ~; i2 C
游客,查看本帖隐藏内容请回复 | 加入VIP可免积分免回复 了解详情 | 还不是会员:点击获取邀请码 Invitation Code

3

主题

601

帖子

2565

积分

Sponsor

金币
588 枚
体力
874 点
211 发表于 2022-6-12 04:25:51 | 显示全部楼层
啥也不说了,楼主就是给力!) u5 H; @, T/ D/ ]3 M4 C% E+ S: @
要想蓝光电影论坛发展好,资源多,就靠你我他!To the development of Blu-ray movies forum, resources and more depend on you and me!3 j: h: c9 U9 N+ q: p

4

主题

1462

帖子

4602

积分

Sponsor

金币
1 枚
体力
1704 点
QQ
davidqin 发表于 2022-6-12 10:06:45 | 显示全部楼层
楼主发贴辛苦了,I*老*虎*U!
8 Q! h/ q6 }5 h! i" O2 Y! KAfter reading the posts have nothing to do I Amoy posts!
8 x0 h1 s: C& k0 C$ U

本版积分规则

小黑屋|Archiver|4K蓝光论坛

GMT+8, 2022-12-4 10:50

Copyright © Tencent Cloud.

快速回复 返回顶部 返回列表