BluRayCD Forum

 找回密码
 立即注册【分享大片】
查看: 14|回复: 0
收起左侧

[动漫动画] 渔港的肉子酱/渔港的肉子 [内封中字] Fortune Favors Lady Nikuko 2021 JAPANESE 1080p BluRaycd x264 DD5.1-HANDJOB 6.53GB & 3.51GB

[复制链接]

1万

主题

1万

帖子

12万

积分

Post Share

金币
23882 枚
体力
24613 点

卓越贡献勋章

mvods 发表于 2022-6-12 22:09:40 | 显示全部楼层 |阅读模式

: ]  y9 I6 |% Y/ @2 y4 w8 ^  j+ Q: i( @
◎译  名 渔港的肉子酱/渔港的肉子$ T- T! @+ ]5 S. ?; h! \
◎片  名 漁港の肉子ちゃん / Fortune Favors Lady Nikuko6 E) r1 B7 q9 M5 O6 K$ g
◎年  代 2021
8 _: D8 J6 d$ K◎产  地 日本' d' N, b3 y$ O6 T
◎类  别 动画/喜剧
4 J1 u( ^" `: g: e, D◎语  言 日语' X% U% i" t8 C& m
◎上映日期 2021-06-11(日本)' A: w+ `# G! `+ F3 U
◎IMDb评分  6.8/10 from 231 users3 ]4 m: E0 x' T* C' f- e
◎IMDb链接  https://www.imdb.com/title/tt13758684/6 ~3 G6 `" z6 N. I5 t9 w; k
◎豆瓣评分 8.1/10 from 11,583 users
! m* q$ G' d( K& N5 g◎豆瓣链接 https://movie.douban.com/subject/35307624/+ i8 i+ h- H, t* I5 f9 ?* P
◎片  长 1 h 36 min
" y. S( \3 E/ H9 U% F  M◎导  演 渡边步 Ayumu Watanabe 0 ^; I& `" c6 s$ i% [! x
◎编  剧 西加奈子 Kanako Nishi
0 y3 b1 U% b, a( A( a7 V& U: m$ \3 F       大岛里美 Satomi Oshima
* v; }+ p3 T' e% f1 x( H% I◎演  员 大竹忍 Shinobu Ôtake8 b* u& J0 v6 d$ Q9 ]
       木村心美 Cocomi Kimura
$ u7 @9 ~+ D! F( O+ g       花江夏树 Natsuki Hanae : ?4 }0 f; J5 a* ^4 f  r) {) f% _# ]
       吉冈里帆 Riho Yoshioka 8 p$ A" O& U5 s) @# T) `- {, E( G
       松子DELUXE Matsuko Deluxe
2 A/ J; P$ M7 s( M8 i$ s       石井泉 Izumi Ishii / [# X( K! }* V+ C# W; l
       中村育二 Ikuji Nakamura & u7 P% c& T4 [- R2 m
       山西惇 Atsushi Yamanishi ( b) x2 ~, ~) }$ @' Y' L3 p  c
       八十田勇一 Yûichi Yasoda$ _, b) ?: \  k9 N9 m5 w$ J' K
       明石家秋刀鱼 Sanma Akashiya
: t9 T: ^1 c* ?       村松崇継 Takatsugu Muramatsu
/ g0 x9 Z: ~) W) _5 i$ s8 s, Y. G1 {  S7 A) K5 o: s' w
◎简  介   2 Y3 ?; x! o8 T& j- N% |

, P* n, Q+ C& A' |! |) q  明石家秋刀鱼首度企画动画电影作品!改编西加柰子原作小说,STUDIO4℃制作的动画电影《渔港的肉子酱》将于今年初夏公映!
6 p: v' q) L7 g, n  故事围绕着生活在渔港的“肉子酱”母女的成长展开。《海兽之子》导演渡边步执导,小西贤一担任作画导演,剧本则由《凪的新生活》的大岛里美担当。" B% y& M: E- V5 K! f

* X( L2 }2 z( d4 {& x  The story of a mother and daughter and their lives aboard a boat in a fishing town., E6 w4 l7 e4 u8 \

% I; E# j2 b# O6 d◎获奖情况   " G" w  u8 k) R- y
$ }! D5 |) b; x- a$ S  ?4 s
  第45届日本电影学院奖 (2022)
' P0 k/ F. E8 b4 Z$ _9 K' @  最佳动画片(提名)2 b! L2 w* I  F0 c

0 _  _, q8 g/ P0 N  第49届动画安妮奖 (2022)
$ b0 L/ Y3 A' H2 D# m! k4 [  最佳独立动画长片(提名)
( r0 k3 q( o* @# B, T9 y. K3 n
Fortune.Favors.Lady.Nikuko.2021.JAPANESE.1080p.BluRayCD.x264.DD5.1-HANDJOB 6.53 GB 4 S) M3 _( D: e: i

$ g+ L, O0 d/ `, B% [Video
$ N+ i% d" A2 o3 }5 a& k' xID : 1
: Y* w: `- w# _Format : AVC9 F9 }  p" N' P/ c5 t/ J0 w4 p9 R
Format/Info : Advanced Video Codec
6 }$ ]4 }! L2 `# p. ?Format profile : High@L4.1
7 q. s9 `( t4 e- `4 Y- j( @# gFormat settings : CABAC / 5 Ref Frames7 Q- k2 e, S4 O9 s/ F$ n# C: E
Format settings, CABAC : Yes
0 G- M$ w, B/ o; A7 A: m0 D" GFormat settings, Reference frames : 5 frames
0 ?5 t2 N& y% G4 l9 N0 t6 rCodec ID : V_MPEG4/ISO/AVC
: N! e. A- W- b4 R/ N; q1 z# EDuration : 1 h 36 min
. w! }& y9 ]# U% WBit rate : 9 067 kb/s
( N8 C( j" l; |5 oWidth : 1 892 pixels
" L3 Q; E4 u' F9 l, h$ YHeight : 804 pixels0 Y0 f) r  I# D7 R; f9 |# H" b$ D
Display aspect ratio : 2.35:19 ?( L/ s; E" A. w+ |+ N# X  _0 ~
Frame rate mode : Constant: k7 c7 t0 x$ w  f7 M5 v, S
Frame rate : 24.000 FPS  y' C1 Q6 e5 i+ R9 ^3 A
Color space : YUV4 P' B4 n3 g( d" y4 D; w
Chroma subsampling : 4:2:0- q, M$ Q/ ~8 R) n% Q- [
Bit depth : 8 bits+ F2 K" V4 ^/ x5 r
Scan type : Progressive
+ j3 F7 M  _0 }5 G3 YBits/(Pixel*Frame) : 0.248
" x1 l2 e8 ]" S5 ?Stream size : 6.10 GiB (93%)
4 `2 z* v; S. c8 e& H9 KWriting library : x264 core 164 r3065 ae03d926 k) u2 y1 Z: E& Z; k
Encoding settings : cabac=1 / ref=5 / deblock=1:-3:-3 / analyse=0x3:0x133 / me=umh / subme=10 / psy=1 / psy_rd=1.00:0.00 / mixed_ref=1 / me_range=32 / chroma_me=1 / trellis=2 / 8x8dct=1 / cqm=0 / deadzone=21,11 / fast_pskip=0 / chroma_qp_offset=-2 / threads=25 / lookahead_threads=6 / sliced_threads=0 / nr=0 / decimate=0 / interlaced=0 / bluray_compat=0 / constrained_intra=0 / bframes=16 / b_pyramid=2 / b_adapt=2 / b_bias=0 / direct=3 / weightb=1 / open_gop=0 / weightp=2 / keyint=240 / keyint_min=24 / scenecut=40 / intra_refresh=0 / rc_lookahead=60 / rc=crf / mbtree=0 / crf=14.5 / qcomp=0.60 / qpmin=0 / qpmax=69 / qpstep=4 / vbv_maxrate=62500 / vbv_bufsize=78125 / crf_max=0.0 / nal_hrd=none / filler=0 / ip_ratio=1.40 / pb_ratio=1.30 / aq=2:1.005 {; j5 p! q4 H: N
Default : Yes
) `* ^0 h" k8 p/ N( nForced : No% e, k' o2 x, J- o  i; g
Color range : Limited: _% h0 k% W' _9 d$ I  R8 P
Color primaries : BT.709/ t, k* A: T' M! N+ y
Transfer characteristics : BT.709: c7 X# t3 M& B+ e0 ~
Matrix coefficients : BT.709
/ i: C- {" r! r5 \5 C6 F; N- e0 b' c# D
Audio
: L& ]$ z: N* {: F. x- D( X$ DID : 2
( l' F& d* T; o" M& y1 N4 D6 U& XFormat : AC-3
9 @/ U7 h/ z) M4 W: }) R2 aFormat/Info : Audio Coding 3
$ d3 S, P5 k, ^Commercial name : Dolby Digital
- B0 i& w3 \) \% V# }Codec ID : A_AC3
, U4 U  u  u3 _6 @. w, dDuration : 1 h 36 min3 E% T/ ]6 ^8 }" ^  `
Bit rate mode : Constant7 P. S+ V/ p9 ~
Bit rate : 640 kb/s
( \( N* I8 w4 _9 \9 V( q; u) KChannel(s) : 6 channels% Z/ t  ^/ T. F
Channel layout : L R C LFE Ls Rs; B. F# [, }  s$ _
Sampling rate : 48.0 kHz
4 J1 T9 s! ]% gFrame rate : 31.250 FPS (1536 SPF)1 N' v4 y/ r) p9 \" B
Compression mode : Lossy
1 L8 x& m2 s( @" l9 l# xStream size : 441 MiB (7%)
+ O, i9 x3 c! U1 J: t% t, YLanguage : Japanese' H; s/ ~  l/ d5 l( g8 B/ j5 M
Service kind : Complete Main
5 |7 a/ h0 D+ r; r  o: a! A1 xDefault : Yes
" @' J* L4 @6 h7 T- ?2 g% F0 mForced : No7 ~' }1 h& r$ Z* p4 c& c* p6 s! g

) W8 i) l$ N/ |0 [* e! U5 K& tText
/ t5 a5 i2 A9 V; z- j3 _ID : 3
( W4 q9 X/ y4 I8 G6 }; Z$ T* |Format : UTF-8, q/ s7 y8 b+ z( ~* l* }
Codec ID : S_TEXT/UTF8
& D2 ^) d% t$ Y' u, G# S$ v9 vCodec ID/Info : UTF-8 Plain Text7 L9 J4 k  g- d4 r) y3 N
Duration : 1 h 35 min& a; O- E! t* K/ I7 I
Bit rate : 52 b/s( b4 l( [5 }9 E- J0 ]- c
Count of elements : 1293
; m3 s! {3 |2 s) P* C( J6 T% ?3 ]Stream size : 37.2 KiB (0%)
! h4 T3 h- v5 D) l9 jLanguage : English
7 @8 v& |) K* l' JDefault : Yes
+ ?+ a8 y3 [, y- R" tForced : No4 w3 s9 @4 K& B0 Z4 E

1 t* O4 k' x/ v- S1 w& x( I) JMenu2 w& p! Z  W2 p4 Q: w+ D/ C
00:00:00.000 : en:Chapter 1
, H! H( D3 R, e% G7 C00:05:38.000 : en:Chapter 2/ _+ _. M3 M7 {2 X. W6 |, R; d$ v
00:05:54.500 : en:Chapter 3
  E" K1 B- S* }- E5 V00:10:48.917 : en:Chapter 4$ E* B3 x" P3 b; O) ?
00:16:44.250 : en:Chapter 5
5 f  x$ t7 l' Z; U! R00:21:37.417 : en:Chapter 68 p2 C+ w- R1 k: s* O
00:31:09.167 : en:Chapter 7
8 a" b+ e- A7 p7 L8 O00:37:40.542 : en:Chapter 8
- a- f+ p. U: ~  w00:41:04.042 : en:Chapter 9
+ V/ M' G# l2 a3 A00:50:43.542 : en:Chapter 10. j. u$ g9 [- B+ j( e  N+ W
00:57:09.458 : en:Chapter 11
; G  b0 \9 ^% t7 j3 T) ^% G4 a01:04:32.500 : en:Chapter 12
, w9 p! v2 a5 \7 C, v01:06:30.875 : en:Chapter 13
9 e# n5 Q' V3 i- V: N9 W. w& z2 y01:11:17.667 : en:Chapter 14: r5 a8 Y$ ~$ ]
01:15:12.000 : en:Chapter 15- d- n- }" b. g3 W
01:18:57.167 : en:Chapter 165 P* k# t- ^. i
01:27:26.958 : en:Chapter 174 a/ B( k9 V) m2 b3 R! ]' d
01:30:33.875 : en:Chapter 180 z  h  q$ k) ]! s/ F
01:32:02.750 : en:Chapter 19
Fortune.Favors.Lady.Nikuko.2021.1080p.BluRaycd.x265.10bit.DTS-HomeHD 3.51GB
; h; C. h: G& b1 U
8 o) s3 z( Y" K. NVideo
9 u% F1 _- I9 [- `) Z/ @ID                                       : 1, H. e" b2 z# h0 D
Format                                   : AVC& V- r4 c; X; z8 g# M: S2 T
Format/Info                              : Advanced Video Codec- G! J6 p5 h6 b5 g+ V
Format profile                           : High@L4.1/ U7 Y, W% V* j% u( ^& E1 ^8 V- N4 \
Format settings                          : CABAC / 5 Ref Frames
! V' G8 W  t  gFormat settings, CABAC                   : Yes
) l7 |; d' i! d8 M  j4 vFormat settings, Reference frames        : 5 frames' [$ Q- d/ |; }% y+ W4 U  ]3 z
Codec ID                                 : V_MPEG4/ISO/AVC
9 X0 U& }, N( cDuration                                 : 1 h 36 min5 Y0 M4 Q7 m! x$ s- ?0 `% k
Bit rate                                 : 8 232 kb/s% j' A! P$ F/ f" h
Width                                    : 1 920 pixels3 p" c9 g2 w- \; n3 X
Height                                   : 804 pixels
% l" A1 h. P' ^* Q5 Q$ HDisplay aspect ratio                     : 2.40:1
& t- P" f3 C8 u0 z# V6 n: f9 @Frame rate mode                          : Constant
8 |% u3 f" S+ Y& @6 L- D- b8 n/ `Frame rate                               : 24.000 FPS
: S) Z5 W- _" |3 x, w# }) p6 iColor space                              : YUV# [& h* I. {1 v* i- v1 ?1 g
Chroma subsampling                       : 4:2:0) S( y( m# i$ Q- I1 A
Bit depth                                : 8 bits
* }- c5 ]8 V; i! p* z6 CScan type                                : Progressive
9 h9 j4 W9 D* P) [0 A1 T2 jBits/(Pixel*Frame)                       : 0.222
& a: T: X2 [5 [8 M/ o' tStream size                              : 5.53 GiB (84%)
' ?3 m. w4 |) m8 `Title                                    : Jubowo @ WiKi! j* ^( u' f7 X
Writing library                          : x264 core 164 r3094 bfc87b74 ^) u0 }" ^3 O# _
Encoding settings                        : cabac=1 / ref=5 / deblock=1:-3:-3 / analyse=0x3:0x133 / me=umh / subme=11 / psy=1 / psy_rd=1.00:0.10 / mixed_ref=1 / me_range=32 / chroma_me=1 / trellis=2 / 8x8dct=1 / cqm=0 / deadzone=21,11 / fast_pskip=0 / chroma_qp_offset=-3 / threads=25 / lookahead_threads=6 / sliced_threads=0 / nr=0 / decimate=0 / interlaced=0 / NTM4NzU= / bluray_compat=0 / constrained_intra=0 / bframes=12 / b_pyramid=2 / b_adapt=1 / b_bias=0 / direct=3 / weightb=1 / open_gop=0 / weightp=2 / keyint=250 / keyint_min=24 / NTM4NzU=uuDQuD2mJt9fsCf / scenecut=40 / intra_refresh=0 / rc=2pass / mbtree=0 / bitrate=8232 / ratetol=1.0 / qcomp=0.65 / qpmin=0 / qpmax=69 / qpstep=4 / cplxblur=20.0 / qblur=0.5 / NTM4NzU=LmsMAP37EqsCpk / ip_ratio=1.40 / pb_ratio=1.30 / aq=3:0.90( _) H2 q1 z, J. m+ k- d
Language                                 : Japanese# `  ~( J, m( C9 A3 W
Default                                  : Yes3 L  }& x% Q* {2 P# f3 Z; B
Forced                                   : No
  }6 a0 o+ R: O. A3 K1 B/ j) X& G
8 H2 t& q! ]6 P! h! pAudio
5 w. X/ b  S% y- @: `ID                                       : 2/ d, U6 h) `/ A2 P3 Z  f. u
Format                                   : DTS
1 [5 T" H$ h7 x" eFormat/Info                              : Digital Theater Systems
1 H1 Q% N/ p2 Q2 ?# e0 bCodec ID                                 : A_DTS
! \2 M4 X* S) i% [7 ZDuration                                 : 1 h 36 min1 c3 [- h) V# R4 C$ b4 i
Bit rate mode                            : Constant
) d5 a( Q- @6 o1 ~6 ?Bit rate                                 : 1 509 kb/s
9 N. ^, X' ~* N# P0 D& Q0 @Channel(s)                               : 6 channels
; I- W# @- _( I3 n, U5 d2 i6 F4 f2 G+ zChannel layout                           : C L R Ls Rs LFE
6 K) j: p$ \( R# ]) S+ z8 G5 |Sampling rate                            : 48.0 kHz
# W# B0 a; O$ dFrame rate                               : 93.750 FPS (512 SPF)& J1 D; L1 p- h/ @
Bit depth                                : 16 bits2 l4 o! j7 S: ?) n1 \3 k: Z' Z
Compression mode                         : Lossy
9 ?! `4 I  {3 s" \6 NStream size                              : 1.01 GiB (15%)
7 {' f  W  J% m$ |Language                                 : Japanese& V5 X' V  z0 u; K
Default                                  : Yes9 t8 K, u1 A- ~
Forced                                   : No
+ w4 A, u- E" A% K& X6 a8 j# k, n. |
Text #1
4 V( E1 G/ u. v) g9 QID                                       : 3/ _# r. ~" y7 j& y
Format                                   : ASS. c+ ~" n1 V  Q5 y9 K
Codec ID                                 : S_TEXT/ASS9 f+ u* f- H9 h7 ^! i* C4 @
Codec ID/Info                            : Advanced Sub Station Alpha
' x& K! f( @: c0 G! _Duration                                 : 1 h 35 min) X& K% Y% B- L( B! _# c
Bit rate                                 : 92 b/s0 V& @, s7 B8 ?1 u$ P1 d' q
Count of elements                        : 1426
5 z& B! Q+ u' z1 s" c# A$ {Compression mode                         : Lossless
( U% |- Q9 g, q8 [  [Stream size                              : 65.0 KiB (0%)
: o: m4 b  n0 nTitle                                    : 简体# ~, k. G/ x. X4 m6 c/ ?
Language                                 : Chinese
+ p  ]! h& Z+ ]6 ]. PDefault                                  : Yes
/ ^- }, ~- J0 y# s/ c# Y. eForced                                   : No
0 Q# F5 h$ Y$ s0 F1 z
2 N  u/ W0 N. z' g; _) eText #2$ _+ t/ T) S8 t
ID                                       : 4
0 u/ U' K/ ]+ z8 D" \( |3 s' s. QFormat                                   : ASS
8 E  ~- o; U; ?* w  fCodec ID                                 : S_TEXT/ASS( N3 n7 h: Z/ [0 D# `
Codec ID/Info                            : Advanced Sub Station Alpha( S( M0 m. x: v) H: \3 k. b
Duration                                 : 1 h 35 min. X$ h2 E, F' B' N+ E( C4 ^& U
Bit rate                                 : 92 b/s
+ y) j. j: ~# _! g* DCount of elements                        : 1426
; P# b1 ?. h) t8 V$ Y& \9 ACompression mode                         : Lossless& U  l  @9 K8 @" l$ l, K
Stream size                              : 65.0 KiB (0%), L( Z/ u+ f9 L8 i' r! G, A6 {
Title                                    : 繁體2 p- q, e! k, B' \& Z5 f
Language                                 : Chinese  |$ G' u0 o7 o: k/ f6 ]- H
Default                                  : No7 i# F. ^3 ]5 t- `5 m2 z3 W
Forced                                   : No
' Y+ d; \+ j  J! O' ^4 H" |, c  L0 X% W# j
Menu
7 h& Q3 A. F# |) R/ ~; [( @00:00:00.000                             : en:Chapter 01
0 U: [$ c! C; b00:05:38.000                             : en:Chapter 02+ d* T6 e) q% r6 ^
00:05:54.500                             : en:Chapter 03
9 ?) A5 r. B. k00:10:48.833                             : en:Chapter 04
9 ]8 U0 S# }8 D00:16:44.250                             : en:Chapter 05, e& J8 u6 L# K8 `9 l
00:21:37.417                             : en:Chapter 06# g) ]5 [/ r! v/ |" T& O. N
00:31:09.083                             : en:Chapter 07
* D( ?0 [0 m5 _. b, d! `00:37:40.542                             : en:Chapter 08% e3 W1 e" R  y0 V- \+ X3 [% E6 D* a
00:41:04.042                             : en:Chapter 09
& a0 [; u9 w0 _# ~% r. p00:50:43.458                             : en:Chapter 10$ S* U! q- K1 @5 z, g) M3 m! J
00:57:09.333                             : en:Chapter 11/ P( L7 z/ G8 Q7 P2 q
01:04:32.500                             : en:Chapter 12
6 j7 f9 Q, T  X5 y2 g) x01:06:30.875                             : en:Chapter 13
- ]2 ^3 \, m- F) o7 f+ C! \01:11:17.667                             : en:Chapter 14
1 D  {( z0 `5 x! L4 i01:15:12.000                             : en:Chapter 15, [9 ]' Y5 F# `& I
01:18:57.167                             : en:Chapter 16, Y0 \8 o  j# R
01:27:26.833                             : en:Chapter 17/ u, X& ?; w+ @, |; T! d
01:30:33.875                             : en:Chapter 18$ E$ U4 O6 J% T% F( P
01:32:02.750                             : en:Chapter 19
" A7 u( K; F$ j3 K1 o01:36:14.000                             : en:Chapter 20

& t5 u) G8 ~* q! D6 [' ~
游客,查看本帖隐藏内容请回复 | 加入VIP可免积分免回复 了解详情 | 还不是会员:点击获取邀请码 Invitation Code

本版积分规则

小黑屋|Archiver|蓝光电影资源网

GMT+8, 2022-8-10 00:23

Copyright © Tencent Cloud.

快速回复 返回顶部 返回列表