BluRayCD Forum

 找回密码
 立即注册【分享大片】
查看: 10|回复: 0
收起左侧

[动漫动画] 杀掉它,然后离开这个小镇 Kill It and Leave This Town 2020 1080p BluRaycd x264-ORBS 5.56GB

[复制链接]

1万

主题

1万

帖子

10万

积分

Post Share

金币
171 枚
体力
26705 点

卓越贡献勋章VIP黄金勋章诚信会员勋章

mvods 发表于 2022-6-30 08:28:57 | 显示全部楼层 |阅读模式
4 x1 e0 j  S& g- y  m% r# k

* F' F! y4 J6 P5 _◎译  名 杀掉它,然后离开这个小镇, e3 ^0 Y) r* K0 r0 D
◎片  名 Zabij to i wyjedź z tego miasta / Mistrz i Malgorzata / Kill It and Leave This Town- \+ p5 ^- h" v8 m) R3 `, }
◎年  代 2020
* S  [1 B6 b- v+ Y+ y) U* z◎产  地 波兰
5 ]2 C+ q2 I# o; Y: B( v, H◎类  别 动画/剧情
% v9 @9 u4 t, ^/ Z* j◎语  言 英语/波兰语/拉丁语
0 s: X( u* p7 U( F$ h- [3 M◎上映日期 2020-02-22(柏林电影节)/2021-03-05(波兰). }- ^) i, L" }, O0 I
◎IMDb评分  6.6/10 from 813 users) z6 h* q6 G" M8 E9 v, e7 |8 D
◎IMDb链接  https://www.imdb.com/title/tt8387918/
' N7 P- j) ?/ w( m$ `◎豆瓣评分 7.2/10 from 1,012 users
/ P# H2 U  d$ A- l1 s◎豆瓣链接 https://movie.douban.com/subject/34952351/
# q; Y. o% l5 L◎片  长 1 h 31 min- ]! V1 C* X( k: g5 U& s
◎导  演 马里乌什·维尔琴斯基 Mariusz Wilczyński* D: w% ~- q6 d/ a  Q( @
◎编  剧 阿格涅什卡·西伯 Agnieszka Scibior
: ^/ e5 _  k9 l) ]5 v- a       马里乌什·维尔琴斯基 Mariusz Wilczyński
) g7 m1 l! _3 @) Y. J0 |       米哈伊尔·A·布尔加科夫 Mikhail A. Bulgakov1 f+ j' B( R0 r4 i( Q
◎演  员 安杰伊·瓦伊达 Andrzej Wajda% o0 K4 e1 X. A2 k0 O; z1 q3 y  I
       玛雅·奥丝塔泽斯卡 Maja Ostaszewska$ ~7 b5 S0 W1 m5 L/ c
       达尼尔·奥勒布里斯基 Daniel Olbrychski% q* H! m/ G" t; M1 O# q& j
       克里斯提娜·杨达 Krystyna Janda0 U9 @( j/ B# j8 s' E
       马格达莱娜·谢莱卡 Magdalena Cielecka$ D- U$ g8 H. a$ X9 A* P- E
       安娜·迪姆纳 Anna Dymna
6 J: x& ?8 q$ N* M* o, K9 A4 r       马雷克·孔德拉特 Marek Kondrat/ _( O& C  j: n, f7 W% t! y
       玛格查塔·柯查恰沃斯卡 Małgorzata Kożuchowska0 N2 V% F+ |( c: M' I
       萨比格尼·瑞比克金斯基 Zbigniew Rybczyński' Q+ q' c) b4 {5 \2 C7 c& D
       安杰列·查拉 Andrzej Chyra5 _* n, o) b, V, e1 T) Y) K
       安嘉·鲁贝克 Anja Rubik
. C0 _4 ?% k5 n- Y       马里乌什·维尔琴斯基 Mariusz Wilczyński
( F! y! D# u; m& k" e! z! z       克日什托夫·科瓦莱夫斯基 Krzysztof Kowalewski; L) O; p* S" M! V7 o8 w$ n" _
       芭尔芭拉·克拉夫托夫娜 Barbara Krafftówna
/ l# h& ]9 N+ |. o  ~4 P+ t       Irena Kwiatkowska
3 p3 g* M7 K3 k       海伦娜·诺罗维茨 Helena Norowicz5 |5 {4 ^% W7 v4 F2 y4 S
       Wojciech Tomczyk ) T1 Z% y: |+ H7 ^" @/ I+ K
       Hanna Kosinska
. \6 F# y4 x% w       阿格涅什卡·西伯 Agnieszka Scibior4 r, C3 h, J' s( g( ?: l$ O

9 Q- m! m# L3 Z; m" Q9 a◎简  介   
& |) j1 P9 ?7 c8 _( S. W
  T" t! W( s$ n2 @* b8 b% w  描绘主角失去挚爱后,将他童年时代的卡通偶像与文学英雄藏在记忆深处。多年来,他在充满想像力的城市中,与这些英雄们同在,只是他发现自己已经长大,再也回不去永恒、不存在的青春岁月,他必须回到现实世界。
) w- h* n- f/ w: e) h% r+ K
$ H! Z/ X1 d( ^) i6 h* v  Fleeing from despair after losing those dearest to him, the hero hides in a safe land of memories, where time stands still and all those dear to him are alive.
) n; {5 o! X: T3 ]
Video* R4 N0 ?# Q3 z, v3 V; ?0 L% i
ID                                       : 1
3 I1 p# F9 m& SFormat                                   : AVC
2 k* x; o5 |8 n) Z) b2 t0 AFormat/Info                              : Advanced Video Codec
# X* y+ n; E6 ~9 d) AFormat profile                           : [email protected]
5 w/ y+ r  C6 c2 i# Y& B5 AFormat settings                          : CABAC / 4 Ref Frames& F' v; W$ V4 a
Format settings, CABAC                   : Yes; M0 r. E2 s, y( A. ~
Format settings, Reference frames        : 4 frames
- w1 K2 S6 Q0 j, ^' i( ]Codec ID                                 : V_MPEG4/ISO/AVC
9 ]4 o, o6 ]) C4 ]Duration                                 : 1 h 31 min) l+ Q; j4 Y5 M! S# Y
Bit rate                                 : 8 514 kb/s9 q7 M9 A# ?  x# ~& n
Width                                    : 1 920 pixels( N+ g. @/ c4 T2 q" w% g' t
Height                                   : 1 038 pixels% U7 f6 W, P/ p$ p  k' a& K
Display aspect ratio                     : 1.85:1# e4 I5 P  T8 d
Frame rate mode                          : Constant' ]0 ]; b; O7 Q" U
Frame rate                               : 24.000 FPS  E, L# I2 `/ O% t
Color space                              : YUV
& c, \' Z/ P* w0 |Chroma subsampling                       : 4:2:0$ L) U& y8 n: C4 ]
Bit depth                                : 8 bits
" x# j+ U) R9 b! y+ [5 R4 H8 dScan type                                : Progressive
$ \* E+ V1 M7 X9 k4 @' ?Bits/(Pixel*Frame)                       : 0.178
: G- u$ ?6 X9 R. U% E: x5 CStream size                              : 5.43 GiB (98%)" N" b& M* b7 E) S6 X
Writing library                          : x264 core 164 r3094 bfc87b72 T3 x  t) D' o9 @  v: L) O
Encoding settings                        : cabac=1 / ref=4 / deblock=1:-3:-3 / analyse=0x3:0x133 / me=umh / subme=10 / psy=1 / psy_rd=1.20:0.00 / mixed_ref=1 / me_range=24 / chroma_me=1 / trellis=2 / 8x8dct=1 / cqm=0 / deadzone=21,11 / fast_pskip=0 / chroma_qp_offset=-2 / threads=24 / lookahead_threads=4 / sliced_threads=0 / nr=0 / decimate=0 / interlaced=0 / bluray_compat=0 / constrained_intra=0 / bframes=8 / b_pyramid=2 / b_adapt=2 / b_bias=0 / direct=3 / weightb=1 / open_gop=0 / weightp=2 / keyint=250 / keyint_min=24 / scenecut=40 / intra_refresh=0 / rc_lookahead=60 / rc=crf / mbtree=1 / crf=16.0 / qcomp=0.60 / qpmin=0 / qpmax=69 / qpstep=4 / ip_ratio=1.40 / aq=3:0.906 k4 F, Y) H# ]( Q  z( \
Default                                  : Yes# ?7 E4 f& k' }) ^( n6 h
Forced                                   : No4 k* b/ s6 ]! \- ^/ N6 G4 S9 R
Color range                              : Limited& a! k" t$ r* l! n7 I0 A. ~, k
Matrix coefficients                      : BT.709
$ c4 B* y* p' a& W# `: O$ u0 c! V/ x& a
Audio" n2 d% G1 \$ |* m1 R) ?
ID                                       : 2
4 ]( f" Y9 q" n3 W9 x& `0 xFormat                                   : AC-37 I' a  V, k/ `
Format/Info                              : Audio Coding 3% W8 Y- X8 G, C( V! {/ ?
Commercial name                          : Dolby Digital
  ^6 N3 z& K, U! S4 g9 a3 ]Codec ID                                 : A_AC3
  Q5 N$ C' O  l/ h# N( oDuration                                 : 1 h 31 min1 y% S# t( a1 S4 @5 x# h6 u, R# Z+ W. I
Bit rate mode                            : Constant
* `9 q: r9 \8 ^Bit rate                                 : 192 kb/s
7 n  P0 F" c& b9 S3 c; Y* X: TChannel(s)                               : 2 channels' F% V  `- x: c0 e
Channel layout                           : L R+ |3 i. N5 o/ T7 U
Sampling rate                            : 48.0 kHz
! O7 y& ?" ]' X% G+ m  @Frame rate                               : 31.250 FPS (1536 SPF)
2 U! h* j- o  j9 i3 cCompression mode                         : Lossy5 \# g8 r; S3 @+ E& V4 B$ n( K
Stream size                              : 125 MiB (2%)
' }8 I9 C4 _2 i% R# [% dLanguage                                 : Polish' J% Q/ U/ I  v7 L
Service kind                             : Complete Main
4 Z9 i7 R% ~% l  }% j" R6 nDefault                                  : Yes
' C( Y3 t' A* ZForced                                   : No
  y/ z* W' |6 F. H; M- v! g& R" Y7 Q8 C/ Q4 Q" Q
Text #1
/ g+ G6 a, h8 t! mID                                       : 3& }# z5 x& o8 ]7 Z. i: o( T
Format                                   : UTF-8# F$ d6 O+ Q3 J( _: a
Codec ID                                 : S_TEXT/UTF8
9 C" F$ x# x* K9 j% GCodec ID/Info                            : UTF-8 Plain Text. |" w8 `" ?* |9 n% h
Duration                                 : 1 h 18 min
: x) e) N) y8 w: b. K( U; lBit rate                                 : 42 b/s( ]$ \8 u0 N' k- `. |* Z5 K
Count of elements                        : 985
( _; [9 r" j/ u: m' qStream size                              : 24.7 KiB (0%)
/ Y9 H. n6 ~2 `Title                                    : English (Forced)- e8 M" v2 m) E( G
Language                                 : English
5 E7 J1 q$ A+ P) ~; nDefault                                  : Yes: U' n- J3 J/ a% z# F& a5 Z
Forced                                   : Yes
# S5 C8 P9 r% A  }3 i8 s
! f* ]( ]& d& D  {+ ^" SText #2+ f0 q0 q7 A0 ?# i1 p0 ^; w$ O
ID                                       : 4
& {1 e  @4 z* W, s2 `' P$ gFormat                                   : PGS1 F( z& a2 i/ `+ C; ]' ^
Muxing mode                              : zlib' b, W9 o$ X$ n# {- f- }
Codec ID                                 : S_HDMV/PGS6 i% t# U3 }+ C$ d  A: ^; A
Codec ID/Info                            : Picture based subtitle format used on BDs/HD-DVDs. p: ?- f, p8 K9 `8 R3 g& T
Duration                                 : 1 h 18 min
* k6 }0 B2 ~& P2 CBit rate                                 : 18.3 kb/s2 y$ ^6 r! h; H2 W& _: v% t" c
Count of elements                        : 1970
; [# B1 s" {, sStream size                              : 10.4 MiB (0%)
" D+ t( r6 N% `Language                                 : English/ x. l2 [, C+ r' F7 H
Default                                  : No
/ O# {7 L  x( b. X% bForced                                   : No1 h7 {$ u% o+ k
7 {" U+ m+ U, R% Y2 |
Text #3% V1 Z0 t. H6 {; }) N" V
ID                                       : 58 E" f; e3 Q# R0 @4 M- ^- v
Format                                   : PGS
' a" |' H8 X# tMuxing mode                              : zlib
( H$ U6 W) J% v5 tCodec ID                                 : S_HDMV/PGS
2 K- l2 m- M; l, eCodec ID/Info                            : Picture based subtitle format used on BDs/HD-DVDs
+ g/ b# J; n# u' s& }" ?! v- w! p. eDuration                                 : 1 h 18 min
8 R; X1 g7 z6 K$ f, j% mBit rate                                 : 16.9 kb/s
; O8 z* J# v* f9 S2 ~  X7 `3 hCount of elements                        : 1876) E' P: N( ]" }) v! c. d
Stream size                              : 9.57 MiB (0%)4 q" F9 h" j$ N
Language                                 : French
* U2 R: x9 U3 r0 K" _: gDefault                                  : No' H$ a' g7 J2 J
Forced                                   : No
* V6 i/ R) c. J+ w1 l; B+ O( `1 ^# ?! t8 D! X, b' e
Text #45 V5 s2 s3 M: P. \# w
ID                                       : 6
+ k* c( Y9 ?8 ^6 x  T# r2 y, H+ `  NFormat                                   : PGS
4 b7 j, o' z+ [7 }7 SMuxing mode                              : zlib
& N- e- ~. |; M# ~' a5 y/ fCodec ID                                 : S_HDMV/PGS% B6 M0 ^0 A& O* z5 s
Codec ID/Info                            : Picture based subtitle format used on BDs/HD-DVDs! A% X: U- ^6 [8 Z; g" [7 l7 h
Duration                                 : 1 h 18 min$ b$ N& C7 h5 l7 L' Q
Bit rate                                 : 18.0 kb/s' G8 N  q4 i2 ^4 ?
Count of elements                        : 1672
6 b' M* P9 u$ h6 M5 `9 }Stream size                              : 10.1 MiB (0%)
5 j9 C7 v% O! ]; e& ^) wLanguage                                 : German
; Q1 k% ]9 v) Z  ~Default                                  : No
2 w5 h. a6 G' w+ K* |; `) SForced                                   : No: v2 R( l' K9 x0 ^4 a. \6 d* C' U

$ t! }% V2 Q& [1 `( \0 oMenu8 M' {( `. M' r$ \# i/ \5 l* C0 f
00:00:00.000                             : Chapter 01
, R8 e/ e- }1 W# }8 [00:08:27.875                             : Chapter 02" V0 F! Z/ `" x8 r
00:19:13.333                             : Chapter 03
. s1 n) d; a# L/ r00:30:34.583                             : Chapter 04, P6 Q" V( c/ Q; M
00:43:18.875                             : Chapter 05
. ~5 _" f6 v6 r5 c00:52:37.625                             : Chapter 06
( H4 V) x: @3 {$ Z01:00:33.500                             : Chapter 07  x) i5 H' ]/ d! @9 z  h7 ]/ r
01:10:04.750                             : Chapter 08
. I" C. C4 P8 {01:31:14.417                             : Chapter 09
5 {% p# \" b* o! g3 L1 A4 m- V# j- r  c# r3 d3 s7 o- x
Kill.It.and.Leave.This.Town.2020.1080p.BluRayCD.x264-ORBS 5.56 GB/ T  }3 _! O7 W: r2 ~& k

) [& P# D( l2 q5 m/ iTitle......: Kill It and Leave This Town' D4 a9 q) Z# K& x- Y' ]. p1 S
Rating.....: 6.6/10 from 798 users
6 W0 J' z, z1 q: bGenre......: Animation, Drama$ e7 C% ?0 e8 e
URL........: https://www.imdb.com/title/tt8387918* r% b8 M, `0 y' N
, a9 {5 Q: Y6 x# ]6 J/ Q
Video......: CRF 16 (8514 Kbps)0 f3 e: E: W8 h/ _+ `
Source.....: 23675 Kbps
; h( W: v* [) {- b4 p5 EResolution.: 1920x1038
7 E: u" _6 G8 y" j$ I$ _/ o- bFrame Rate.: 24 fps
. J/ B3 A1 r* X% r3 |8 KDuration...: 1 h 31 min$ j7 S) e! U- M/ `% d5 V# \
Language...: Polish
# }, `6 s4 O6 yAudio......: AC-3 2ch (192 Kbps)
& X% x  _) X/ s- r" ~- pSubs.......: English, French, German  r8 t9 |3 r1 \
Size.......: 5.6 GB
$ B: p3 }; _. _
游客,查看本帖隐藏内容请回复 | 加入VIP可免积分免回复 了解详情 | 还不是会员:点击获取邀请码 Invitation Code

本版积分规则

小黑屋|Archiver|4K蓝光论坛

GMT+8, 2022-12-4 10:34

Copyright © Tencent Cloud.

快速回复 返回顶部 返回列表