BluRayCD Forum

 找回密码
 立即注册【分享大片】
查看: 31|回复: 0
收起左侧

[动漫动画] 杀掉它,然后离开这个小镇 Kill It and Leave This Town 2020 1080p BluRaycd x264-ORBS 5.56GB

[复制链接]

1万

主题

387

回帖

12万

积分

Post Share

金币
3947 枚
体力
32369 点

卓越贡献勋章VIP蓝光勋章诚信会员勋章

mvods 发表于 2022-6-30 08:28:57 | 显示全部楼层 |阅读模式

, T- W  b% S5 b8 u5 X
, b2 b" h$ _7 g6 a4 d5 v3 e) G& e◎译  名 杀掉它,然后离开这个小镇
: n) G/ @3 [& w5 k- r0 b◎片  名 Zabij to i wyjedź z tego miasta / Mistrz i Malgorzata / Kill It and Leave This Town/ d8 r; W3 S  b! R
◎年  代 2020
9 P+ h! D$ e" }6 C8 i5 r, c' @! m◎产  地 波兰' s0 G: \6 D/ w7 _: k# p
◎类  别 动画/剧情3 N' h; T' f, t5 ?( m6 ]1 ?# S
◎语  言 英语/波兰语/拉丁语- q6 m. `( G2 ^% b
◎上映日期 2020-02-22(柏林电影节)/2021-03-05(波兰)* h4 c7 L# l9 h
◎IMDb评分  6.6/10 from 813 users/ Z7 V6 E* L% }) O* E/ t
◎IMDb链接  https://www.imdb.com/title/tt8387918/
7 L) l% R0 h6 X◎豆瓣评分 7.2/10 from 1,012 users
+ @. Y% V/ ^" K  s! ~4 G◎豆瓣链接 https://movie.douban.com/subject/34952351/; u! u. C- Z9 Q& o" [& V( ^
◎片  长 1 h 31 min! W" G& u) V# |  M% O
◎导  演 马里乌什·维尔琴斯基 Mariusz Wilczyński
+ u9 p5 r, U- r◎编  剧 阿格涅什卡·西伯 Agnieszka Scibior
2 L# p4 \* c- P4 [0 P: p       马里乌什·维尔琴斯基 Mariusz Wilczyński2 ?* g1 @8 k# W( d) [% j# C
       米哈伊尔·A·布尔加科夫 Mikhail A. Bulgakov
4 m) _& |9 l, q+ N+ b8 J# L◎演  员 安杰伊·瓦伊达 Andrzej Wajda/ f1 D1 R* m& S4 z' h* d
       玛雅·奥丝塔泽斯卡 Maja Ostaszewska5 @- X- S! P+ ^/ r9 p# g
       达尼尔·奥勒布里斯基 Daniel Olbrychski
5 i, `7 m" S6 P3 H% p       克里斯提娜·杨达 Krystyna Janda& V4 v- {, k; `) X
       马格达莱娜·谢莱卡 Magdalena Cielecka7 F' }, m# s, p- W, L: k& A  o
       安娜·迪姆纳 Anna Dymna
# S2 i+ S/ |- O( l$ v" [% m       马雷克·孔德拉特 Marek Kondrat% t, W4 S8 c' s: y
       玛格查塔·柯查恰沃斯卡 Małgorzata Kożuchowska9 b+ ?6 s3 ]1 @% I, H% d
       萨比格尼·瑞比克金斯基 Zbigniew Rybczyński
* ^$ ?5 d2 C1 {       安杰列·查拉 Andrzej Chyra8 h0 e% q% f- Y; Z6 w) X
       安嘉·鲁贝克 Anja Rubik
; n- i8 d4 \* W, ~/ L5 J       马里乌什·维尔琴斯基 Mariusz Wilczyński
$ I2 q% m7 s; t4 e       克日什托夫·科瓦莱夫斯基 Krzysztof Kowalewski+ }+ b7 X6 J7 }6 l5 A" ~
       芭尔芭拉·克拉夫托夫娜 Barbara Krafftówna
/ i7 M: [0 S2 ~  ?3 ^" _: S) s0 r       Irena Kwiatkowska
+ K: c6 L# A4 f6 F       海伦娜·诺罗维茨 Helena Norowicz
; r  y- Z' J( K$ }9 N! Z! L4 K       Wojciech Tomczyk 0 p5 y3 d) `2 R( y
       Hanna Kosinska - X# i6 q, D( p. G3 N
       阿格涅什卡·西伯 Agnieszka Scibior. S/ j/ X% I2 B, F1 l5 A
+ V. t9 ?& F/ j$ ?" ~: _( D) F
◎简  介   
5 i( E5 E% K1 @; F6 c; S
) N7 B6 P: M) ^; [0 O  描绘主角失去挚爱后,将他童年时代的卡通偶像与文学英雄藏在记忆深处。多年来,他在充满想像力的城市中,与这些英雄们同在,只是他发现自己已经长大,再也回不去永恒、不存在的青春岁月,他必须回到现实世界。' J8 h( n' I, \

, b) t7 [' u4 N/ T* Z! e  Fleeing from despair after losing those dearest to him, the hero hides in a safe land of memories, where time stands still and all those dear to him are alive.
% V4 z8 M1 u7 n4 |0 c
Video
6 L6 I' [& `6 E3 Y+ E( z! F' F8 LID                                       : 1
; ?$ Q1 Y3 O5 C4 g. }" m+ gFormat                                   : AVC2 N% y/ N4 p$ e- r8 a7 {$ i% z
Format/Info                              : Advanced Video Codec
' v! e* L9 b" D# M2 o- Z# [* YFormat profile                           : [email protected]* ^, ?, I( {1 f0 p; h' e0 v8 p
Format settings                          : CABAC / 4 Ref Frames
" o# H, g7 L5 {7 L7 N- @& U* ^& IFormat settings, CABAC                   : Yes
# c9 o( C  M2 c/ KFormat settings, Reference frames        : 4 frames: b9 e3 \* e; F2 Q0 f% y
Codec ID                                 : V_MPEG4/ISO/AVC
$ t+ P. O' e/ m% U! x' ~5 M7 lDuration                                 : 1 h 31 min
" ]. }$ P# R% S; Q! @8 @Bit rate                                 : 8 514 kb/s
& I* g* ~) i! {/ MWidth                                    : 1 920 pixels
. K; C! x9 ]7 M- O1 Y: ~Height                                   : 1 038 pixels) Z6 f( ^+ g5 D% R' E2 s
Display aspect ratio                     : 1.85:1. v! E- F. f6 ^0 N' F/ x
Frame rate mode                          : Constant
5 _7 g, l/ Z( c' e; R3 Q1 m- NFrame rate                               : 24.000 FPS4 D6 Z! D$ R) B6 o$ O# l+ J
Color space                              : YUV. W" T, C. I& j4 ~8 ^
Chroma subsampling                       : 4:2:0
, R) Y8 a: l' w$ c2 F( m- O# x6 gBit depth                                : 8 bits9 T' T2 m* O- Z
Scan type                                : Progressive
5 i: ?$ J+ F5 k# J5 G+ D, yBits/(Pixel*Frame)                       : 0.178
9 ^+ E9 C3 T' z# eStream size                              : 5.43 GiB (98%)
% \0 l6 `4 F& t+ q6 z" hWriting library                          : x264 core 164 r3094 bfc87b7; t# h  h: n, c% j% m+ D- i
Encoding settings                        : cabac=1 / ref=4 / deblock=1:-3:-3 / analyse=0x3:0x133 / me=umh / subme=10 / psy=1 / psy_rd=1.20:0.00 / mixed_ref=1 / me_range=24 / chroma_me=1 / trellis=2 / 8x8dct=1 / cqm=0 / deadzone=21,11 / fast_pskip=0 / chroma_qp_offset=-2 / threads=24 / lookahead_threads=4 / sliced_threads=0 / nr=0 / decimate=0 / interlaced=0 / bluray_compat=0 / constrained_intra=0 / bframes=8 / b_pyramid=2 / b_adapt=2 / b_bias=0 / direct=3 / weightb=1 / open_gop=0 / weightp=2 / keyint=250 / keyint_min=24 / scenecut=40 / intra_refresh=0 / rc_lookahead=60 / rc=crf / mbtree=1 / crf=16.0 / qcomp=0.60 / qpmin=0 / qpmax=69 / qpstep=4 / ip_ratio=1.40 / aq=3:0.90
4 q/ z' p# z  E# xDefault                                  : Yes# m3 p# k5 X" k2 S! I: n
Forced                                   : No8 G. S7 }* q: ], \3 P/ M* A' Y8 m
Color range                              : Limited
8 R6 J% N* q) q& Y, x$ A$ CMatrix coefficients                      : BT.709
3 o6 R( t9 h  x& R
# |  X% |; k) h& JAudio3 z$ C& d3 C) @0 V8 L) E  x: e% X
ID                                       : 25 f, K1 O7 O2 T* }* g; w" _7 z/ Y
Format                                   : AC-3
2 z% h' |. ~; }: N0 gFormat/Info                              : Audio Coding 3
% j: d4 q9 S+ d* ~' _. a# D# eCommercial name                          : Dolby Digital
6 f, e' Z8 H2 Z4 x$ s" aCodec ID                                 : A_AC3
$ J9 \6 _& d6 e3 [5 G4 u$ u8 C# HDuration                                 : 1 h 31 min" T# P5 c% Q+ Q/ F
Bit rate mode                            : Constant
4 a& }9 I2 X" U1 z$ j6 e6 fBit rate                                 : 192 kb/s
+ q( ?& ]; }! G1 t3 _- B# ~- UChannel(s)                               : 2 channels. B& G. Z* w$ }* P. S# O! B$ F9 Z
Channel layout                           : L R
7 p( u6 Q7 W+ j' ]1 ~0 K) o( M4 a3 o4 DSampling rate                            : 48.0 kHz
  c- ~( H0 q/ a$ {! j$ wFrame rate                               : 31.250 FPS (1536 SPF)
! L3 q2 Y: N# W3 `5 qCompression mode                         : Lossy
+ \7 F, w: l8 ]5 Y# P3 h2 QStream size                              : 125 MiB (2%)) E: Z1 d0 Q% @, ?
Language                                 : Polish- P) L9 `& C5 X* J: _/ W4 u, i9 H, F
Service kind                             : Complete Main! \" }6 F. d' N/ C; g9 z8 B* I
Default                                  : Yes9 K$ Y9 V! W, P: u3 I
Forced                                   : No9 ^: o; V( O$ x; z8 [
( @; \7 G9 o' }+ d3 v
Text #1
$ v- G% p- Z, K7 w! s9 L7 sID                                       : 3; E# w+ a' m% {$ [6 B) O
Format                                   : UTF-8
  n4 M# d) I' y% N5 @* o$ YCodec ID                                 : S_TEXT/UTF8" k8 `7 M& n7 @  O; a4 w4 n& A
Codec ID/Info                            : UTF-8 Plain Text, f" Y3 E& }# g8 [5 p  k( p+ [% @
Duration                                 : 1 h 18 min
& m: d, v# B2 X- u& v: U; j8 ABit rate                                 : 42 b/s
/ i  g9 @" ^* a, a  C/ K! f" ^Count of elements                        : 9857 O8 m; G' }' p
Stream size                              : 24.7 KiB (0%)
& J2 k$ p, X- {  \) }Title                                    : English (Forced)! @$ A' w! E9 F8 Y1 I
Language                                 : English& a4 R( R1 y1 [$ L/ \
Default                                  : Yes# J3 x; [1 ?- o+ q# ^7 d
Forced                                   : Yes6 z6 ~! m/ c- |0 L
! H5 b2 l- M4 b
Text #27 v1 h/ W1 k; L! w
ID                                       : 4
2 ^" k: G/ P0 p' @, pFormat                                   : PGS
# x( f* z5 M/ D8 @; ]8 T, s) _Muxing mode                              : zlib
1 }, J. i9 N& sCodec ID                                 : S_HDMV/PGS- B7 \. P, |) S# |' ?& f1 ?& F% E* d9 v
Codec ID/Info                            : Picture based subtitle format used on BDs/HD-DVDs, h, ?8 a2 A, C  r9 v% |
Duration                                 : 1 h 18 min9 h8 L9 |7 S, m# T8 O% J
Bit rate                                 : 18.3 kb/s9 Q9 L; X+ K1 ?$ ^7 e
Count of elements                        : 1970! \6 ~9 P1 H& g, o  K
Stream size                              : 10.4 MiB (0%)
9 E' q9 i. T* N" o, P: y6 T9 D& ?. NLanguage                                 : English
; y5 e, h/ a  U& uDefault                                  : No
+ b; {9 H" O4 T# I- VForced                                   : No
* Y8 T* C$ }# c& ?' O( v5 @9 d
. I* \, F# g' T7 qText #3  c  ?* J6 H5 Z6 s$ h  P. B
ID                                       : 50 b6 S, K' ~! A. k4 ]& z
Format                                   : PGS; L! s1 u2 y6 ]
Muxing mode                              : zlib
9 L& b! n! n1 a! X! X5 |4 G/ DCodec ID                                 : S_HDMV/PGS9 w- P7 t) y7 s/ I/ u9 S
Codec ID/Info                            : Picture based subtitle format used on BDs/HD-DVDs
; h- i; x# @- Q7 C0 U3 YDuration                                 : 1 h 18 min" O( a. y# p+ D
Bit rate                                 : 16.9 kb/s
# h  G% Z: R' M, t2 xCount of elements                        : 1876) r/ R- i( z8 D/ r% d+ H
Stream size                              : 9.57 MiB (0%)3 i1 f; U5 g9 f6 Z5 X0 |6 S
Language                                 : French- |" i) o# f6 }. ]3 x
Default                                  : No
/ F7 g( c- S+ @' B* O$ G6 B: ]Forced                                   : No4 B7 m7 H2 ~& p/ A
& w* w! W; Y! W3 j  j, A% A5 P0 X
Text #4
) A' m, @9 x; ~9 mID                                       : 6
' o! R8 R% k0 |! G1 P. Z/ `- PFormat                                   : PGS
, Z5 a; ~: [% P2 O& o+ jMuxing mode                              : zlib
  K% T/ r  ?: X- F$ y0 a6 w5 Y% ?$ H+ cCodec ID                                 : S_HDMV/PGS5 E5 N* D8 H% |0 a+ p+ b+ p: v
Codec ID/Info                            : Picture based subtitle format used on BDs/HD-DVDs
' p8 g- N8 u8 C5 RDuration                                 : 1 h 18 min
  T. A0 u8 c; f! rBit rate                                 : 18.0 kb/s
& A: j7 h3 c" ACount of elements                        : 1672  B' @) D, O8 ?* e5 D. }( P* T
Stream size                              : 10.1 MiB (0%)8 |, L" J/ y, x- m/ m
Language                                 : German% T+ x* g4 I1 x" v
Default                                  : No1 O+ K( x9 h2 }5 K
Forced                                   : No
+ K8 u" `  |  B& [: M" n7 w, ?' n! @' c1 D3 d4 Z
Menu
: c# e* k+ m2 U, a5 W6 L9 m% r00:00:00.000                             : Chapter 01- S( g" A# M6 k+ B
00:08:27.875                             : Chapter 02' X6 n" j+ l3 U( P/ u9 J3 }8 e" O
00:19:13.333                             : Chapter 03- s( k1 {+ ?/ u3 Z( O+ C
00:30:34.583                             : Chapter 04
" j. L6 }' B7 P( F% B$ \00:43:18.875                             : Chapter 05
- E; ]% _$ p  V" b+ c00:52:37.625                             : Chapter 06
2 c' @( k8 g' C2 F01:00:33.500                             : Chapter 07
, r, E% c" |# N/ W+ J- Q. I7 N01:10:04.750                             : Chapter 08
9 c; f. Q7 t4 Z, }1 d01:31:14.417                             : Chapter 09
/ Y2 I( P9 a# W% b# D& P3 K! ]; p, S* e. N. V( l- ?! ^' y
Kill.It.and.Leave.This.Town.2020.1080p.BluRayCD.x264-ORBS 5.56 GB+ i+ H, F! \- v1 K! V0 z

  y9 n0 ?( t$ w: U" m5 OTitle......: Kill It and Leave This Town
6 G2 j1 J3 P8 R8 x' lRating.....: 6.6/10 from 798 users: `0 R" @7 k( a' W
Genre......: Animation, Drama
* \. G: d( E, t6 u7 DURL........: https://www.imdb.com/title/tt8387918
" ?+ ~* r' N! ~- `) R2 b7 \/ H% K' j* x" Y, p' [4 f7 a7 F3 y9 @
Video......: CRF 16 (8514 Kbps)4 {+ e! E; h, h3 b
Source.....: 23675 Kbps
9 m& c2 t; _% k; z2 _  E# gResolution.: 1920x10384 v" j3 y; ]: `8 U/ j
Frame Rate.: 24 fps# Q; B8 l' _! j/ k3 z8 P$ I
Duration...: 1 h 31 min
5 I3 h, w; R% j1 ^. ~# uLanguage...: Polish: O& ]0 t# E1 ^+ }2 k
Audio......: AC-3 2ch (192 Kbps)
& T9 J: _) m. I; N. {% x# @Subs.......: English, French, German
" k+ a# b; J) K% n& y7 {* ~$ jSize.......: 5.6 GB
2 J) S) X2 R. Y: Y3 a% r9 W
游客,查看本帖隐藏内容请回复 | 加入VIP可免积分免回复 了解详情 | 还不是会员:点击获取邀请码 Invitation Code

本版积分规则

小黑屋|手机版|Archiver|4K蓝光论坛

GMT+8, 2024-3-5 06:28

Copyright © 2001-2021, Gadaddy Cloud.

快速回复 返回顶部 返回列表