BluRayCD Forum

 找回密码
 立即注册【分享大片】
查看: 9|回复: 1
收起左侧

[动漫动画] 酷爱电影的庞波小姐/庞波:影迷 [内封中字] Pompo The Cinephile 2021 JAPANESE 1080p BluRaycd x264 DD5.1-BdC 4.11GB

[复制链接]

1万

主题

1万

帖子

12万

积分

Post Share

金币
24000 枚
体力
24786 点

卓越贡献勋章

mvods 发表于 2022-6-30 12:12:23 | 显示全部楼层 |阅读模式
. m& r' H* m! l: k% }$ W
# @9 A  ^+ V. D8 s2 M: s
◎译  名 酷爱电影的庞波小姐/庞波:影迷
7 m, }# {8 g: [◎片  名 映画大好きポンポさん / Pompo: The Cinéphile / Eiga daisuki Pompo-san! J+ `7 Z' C$ h
◎年  代 2021
7 p' K" s) K* i◎产  地 日本7 {  M( b9 s; \5 B! C5 y5 e; y& \
◎类  别 动画/喜剧/剧情$ w$ C0 i" E: G$ D0 }. s  C) d
◎语  言 日语  H+ C8 E* b9 K, S4 w9 A7 P5 c
◎上映日期 2021-06-04(日本)/2021-06-15(上海国际电影节)
# p+ N8 X9 l# g5 b) ^% Y, J  ?. u1 C9 I◎IMDb评分  7.0/10 from 446 users
# N- Q) K; }. {0 D0 V◎IMDb链接  https://www.imdb.com/title/tt12439248/
- d" F0 K  p3 j( M5 t/ ~& G◎豆瓣评分 7.5/10 from 2,335 users
9 o2 V/ c4 K+ t/ e% |* H* x8 N◎豆瓣链接 https://movie.douban.com/subject/30037194/
: _0 K  t$ ?- A+ j' p◎片  长 1 h 34 min, t6 a' o( q1 x4 ?; F. _2 M
◎导  演 平尾隆之 Takayuki Hirao1 g) ^& I% ?4 O# J% k2 a
◎编  剧 盐谷庄吾 Shogo Shiotani% [+ `4 z0 D1 ?3 f; S  O6 J: t
       平尾隆之 Takayuki Hirao: \2 ?" }! x( O
◎演  员 清水寻也 Hiroya Shimizu
/ o$ ~& M/ n! B9 N$ e) r       小原好美 Konomi Kohara# l' O5 i) J! E* Y
       大谷凜香 Rinka Otani2 F/ ?3 ]! e. I! \! y2 S5 B
       加隈亚衣 Ai Kakuma
: X% f* U: ]' t* [) ~+ d7 U       大塚明夫 Akio Ôtsuka
; I+ }2 e% Z  M       木岛隆一 Ryuuichi Kijima
3 O2 T" w5 X) N) O7 U: x       小山力也 Rikiya Koyama
4 {3 ?' j- V$ T: P2 m. m$ a3 I, D& n       坂卷学 Sakamaki Manabu2 l2 e' \9 z0 ]3 \/ F8 g$ z
       小形满 Mitsuru Ogata
9 |4 [4 M$ ^2 ~       宇垣秀成 Hidenari Ugaki
' R- I; R2 W! U* H1 n3 u+ [       高桥伸也 Takahashi Shinya
: j* {' z, ?+ l8 R( K( h: S  C       清水彩香 Ayaka Shimizu' F: R8 K1 N" d9 q8 r% B( e
       谷育子 Ikuko Tani
* N* K( s* p. d' q" w  Z       永野善一 Nagano Yoshikazu
/ h, x% Y& F7 ^; Y       大林隆介 Ryûnosuke Ôbayashi
: e5 |1 F0 a6 Y3 g  L       野水伊织 Iori Nomizu
6 T- c! R6 d0 x3 K       雪野五月 Satsuki Yukino
" T- x8 D* k& ]( o. h       中田让治 Jôji Nakata
, y* C# b- l; |. l       杉山里穗 Sugiyama Riho
  q; c$ l8 X1 ]8 H: x, y7 ^       足立慎吾 Shingo Adachi
/ I; L5 \! |" z& K1 b4 |/ g5 p. W% L. W$ ]  `; X
◎简  介   
, n  c+ |+ z3 O0 k4 E
- G4 c- E0 h8 H3 u6 Z* K4 d: ^0 I  一位著名的电影制片人让她年轻的制作助理有机会执导他的第一部电影。
3 ^" W$ l/ ~8 N( F* d$ _  T( q+ q% `, }( ^- I4 A- A7 q. n
  庞波小姐是干练的电影制作人。: a$ w7 Y& m3 g8 s8 U
  她能看出演员及工作人员的潜力,让他们发挥十二成才华,简直可谓大萤幕之子。
3 }- _' [9 r& k. x  尽管她日夜都在电影之城喵莱坞用心制片,拍的却尽是B级卖肉动作片……3 `( K. c4 T: U7 G- {
  担任其助手的青年「电影痴」吉恩对此有疑问,而庞波小姐亲手策画的脚本
0 R0 B9 r) S8 D* {  i  就在某天交到了他手上。而且,导演还吩咐:「这部片子要交给你拍。」
! |0 r$ G  {) ~  吉恩能拍出庞波小姐所说的「名作」吗。$ p0 _$ c" W) w; ^+ l. H7 k. U* y

0 V! t4 |6 Z/ Y2 E+ h' q  A famous movie producer gives her young production assistant a chance to direct his first film.3 @/ I! o1 G: x
Pompo.The.Cinephile.2021.JAPANESE.1080p.BluRayCD.x264.DD5.1-BdC 4.11 GB
* R# J' _  p) k% Q2 l
6 W& ~+ z' \& c4 rVideo# Y. t, p1 A. _, R2 ~
ID                                       : 1! c" x' S1 c/ J+ e0 R
Format                                   : AVC
) F6 p5 g5 s: c; \1 n8 V3 kFormat/Info                              : Advanced Video Codec' m% ?& z& F+ l& F
Format profile                           : [email protected]
3 ^$ A2 S: O) {5 W% P6 C: nFormat settings                          : CABAC / 4 Ref Frames
) \, q" }7 B  R% e% }Format settings, CABAC                   : Yes  p! K) q/ ]9 s( x; `
Format settings, Reference frames        : 4 frames: J; G  n, w0 O, `" L, z
Codec ID                                 : V_MPEG4/ISO/AVC. u# ^( S. {9 }, C. E) W+ t
Duration                                 : 1 h 34 min1 Y$ B# C* @0 c0 @, u8 X8 _
Bit rate                                 : 5 499 kb/s
3 s4 t1 L3 b( v( h1 E8 Y% g) D7 o; hWidth                                    : 1 920 pixels
, m" _3 b" b" [3 }3 SHeight                                   : 1 036 pixels  T3 Q8 J- e1 j& ]
Display aspect ratio                     : 1.85:1) A, r. o# a. @& U
Frame rate mode                          : Constant" _& p) U6 c' ]) N+ R: g
Frame rate                               : 23.976 (24000/1001/189150) FPS
) W( O3 M# \1 D. r* |4 J( IColor space                              : YUV
: N& W8 c2 |6 d* Q. ~4 H: M7 VChroma subsampling                       : 4:2:03 D5 F# J! B: I. X+ j
Bit depth                                : 8 bits
0 T9 j2 r( k+ f. y2 Z  QScan type                                : Progressive
$ i. D2 j# {0 x9 PBits/(Pixel*Frame)                       : 0.115' t+ ?, x6 L" R# [/ N; Q
Stream size                              : 3.62 GiB (88%)
6 y8 ^; r  e0 ?! x0 [Writing library                          : x264 core 161 r3033 0d754ec
: Q& z" s+ A4 M5 p; vEncoding settings                        : cabac=1 / ref=4 / deblock=1:-3:-3 / analyse=0x3:0x133 / me=umh / subme=10 / psy=1 / psy_rd=1.00:0.00 / mixed_ref=1 / me_range=32 / chroma_me=1 / trellis=2 / 8x8dct=1 / cqm=0 / deadzone=21,11 / fast_pskip=0 / chroma_qp_offset=-2 / threads=12 / lookahead_threads=2 / sliced_threads=0 / nr=0 / decimate=0 / interlaced=0 / bluray_compat=0 / constrained_intra=0 / bframes=8 / b_pyramid=2 / b_adapt=2 / b_bias=0 / direct=3 / weightb=1 / open_gop=0 / weightp=2 / keyint=240 / keyint_min=23 / scenecut=40 / intra_refresh=0 / rc_lookahead=60 / rc=2pass / mbtree=0 / bitrate=5499 / ratetol=1.0 / qcomp=0.60 / qpmin=0 / qpmax=69 / qpstep=4 / cplxblur=20.0 / qblur=0.5 / vbv_maxrate=62500 / vbv_bufsize=78125 / nal_hrd=none / filler=0 / ip_ratio=1.40 / pb_ratio=1.30 / aq=3:0.80
7 `4 U3 \3 X$ D5 S" z5 v: KDefault                                  : Yes
$ Q$ ^8 @5 {$ l) Y) ^: d8 s% QForced                                   : No' s( I5 C3 S3 O( |( k, y
Color range                              : Limited' ?4 o( I- P( \1 ~$ D# b! F
Color primaries                          : BT.709! W7 K. j) i) w4 V) c5 S' x6 f
Transfer characteristics                 : BT.709
5 U- B  R9 u1 n0 K* N/ a# [# n( eMatrix coefficients                      : BT.709
  S5 n: r0 _! J* Z# j/ C% k  c/ w: ~- X# N) N
Audio' V/ Y  o! K- \
ID                                       : 2
) m7 h. `& d6 f: IFormat                                   : AC-3
: ^0 k4 x- X' gFormat/Info                              : Audio Coding 3: H7 g  q9 n+ W- I7 o" O
Commercial name                          : Dolby Digital2 x( i1 E6 M8 A+ \
Codec ID                                 : A_AC3
$ |/ d1 h' D0 K$ U$ |, h6 FDuration                                 : 1 h 34 min
! J" M( m) d# `4 }Bit rate mode                            : Constant. v' V% R; s1 k8 n5 r5 g
Bit rate                                 : 640 kb/s  U/ [5 X4 V1 `
Channel(s)                               : 6 channels
! i6 [& ^9 c  q5 S% \Channel layout                           : L R C LFE Ls Rs7 ?6 T; E$ H: b  U+ }, O
Sampling rate                            : 48.0 kHz& o1 h8 Z4 Z4 |4 L* s6 [  z- K
Frame rate                               : 31.250 FPS (1536 SPF)
% y2 F# _5 y9 l8 o  A% bCompression mode                         : Lossy7 z5 c# l. b& ~
Stream size                              : 431 MiB (10%)
; B  W$ E2 ~0 K3 w) JLanguage                                 : Japanese/ F  V0 g" a- d
Service kind                             : Complete Main, e% g1 f+ |! i9 P' \" ?
Default                                  : Yes
) s! M2 H+ H2 p- c7 G# P. m% IForced                                   : No- r' O$ v4 _8 g+ Y

; q7 Q& h( S2 g0 gText #1
- j' T5 q5 x& [0 ?& E1 s3 SID                                       : 3
! e; j5 r2 x( ?3 lFormat                                   : ASS
9 [( e5 t3 Q+ g- D. y0 p* aCodec ID                                 : S_TEXT/ASS8 ]+ p  D2 h* n, x0 y0 f& Y2 x
Codec ID/Info                            : Advanced Sub Station Alpha
, e! g# d# H$ p& yDuration                                 : 1 h 30 min
* a9 R+ x5 p: k2 W! L! W8 h" m' RBit rate                                 : 89 b/s
8 Y- g4 t% H+ ~: ?8 G. _9 UCount of elements                        : 1223# {9 H( @2 Y$ N/ M
Compression mode                         : Lossless
; H: y1 ^+ b7 a; Y& L6 }Stream size                              : 59.1 KiB (0%)1 v5 z5 c- `* v, J! M& s' y
Language                                 : English
( E3 ]; J. p  X: U! H6 U9 v: |9 ZDefault                                  : No0 B: |9 y7 L" _( n& _& H
Forced                                   : No
5 ~* U0 t1 Y* i1 J& J# S- P
- F) w( W/ n+ H& ]" eText #2
% X: ?' a# r- R4 v, IID                                       : 4
% F( T" W5 W% G: u3 F& sFormat                                   : ASS
* J7 I+ f& n2 l- o0 @& HCodec ID                                 : S_TEXT/ASS0 j" y7 ?. Q0 X2 s; |
Codec ID/Info                            : Advanced Sub Station Alpha; T, F1 o) {+ I- {3 K& E8 l- V
Duration                                 : 1 h 30 min9 s) A! p9 }) \
Bit rate                                 : 111 b/s1 L' q& _% F- h5 Y+ @: {, b9 U
Count of elements                        : 1278: z: \5 _2 g7 U  z- j
Compression mode                         : Lossless; N/ H+ W# y! W" K& M+ G
Stream size                              : 73.7 KiB (0%)
1 C; }+ G. Y8 o. I( V" HLanguage                                 : Turkish; I: f! l& d+ \# }& y: v# {! I
Default                                  : Yes
2 a4 _& y1 P! F. R. ~, w8 y2 P! @. nForced                                   : No1 b; Q* `6 h7 X7 a$ R

* e6 O. y: {+ J! CText #3
( f6 _( S' B5 u; Y0 kID                                       : 5
1 x: }* D) n' `6 Z  E2 e4 CFormat                                   : ASS  Y8 m4 b# s$ p4 i+ b. U4 d( X% {
Codec ID                                 : S_TEXT/ASS
/ s$ w0 w7 V/ h, DCodec ID/Info                            : Advanced Sub Station Alpha2 r' ^9 H! o! ~4 W1 g1 ~+ U
Duration                                 : 1 h 30 min, z" ]0 v5 O, \+ b' V
Bit rate                                 : 97 b/s0 U. u+ @/ ?$ K
Count of elements                        : 1198  G) p* O* y- e+ Z" c
Compression mode                         : Lossless
6 D; m, l( O0 S0 t- l& Q0 j$ G3 MStream size                              : 64.5 KiB (0%)
$ |) D* x# T+ P' t% B/ WLanguage                                 : Chinese
# D5 D3 w" S4 t! O: oDefault                                  : No- H& _$ E% E- T! E( q" _
Forced                                   : No  E  O4 e' X3 L* h

; E4 n' ~. e1 S( VText #4
' m- G, {; D* L, ^) lID                                       : 6
. i  [2 ]' Y; w0 C( h8 C8 X$ OFormat                                   : PGS3 e  d; L; E7 g- h# T8 U6 K" N& ^
Muxing mode                              : zlib7 K: L1 B' e1 x6 e
Codec ID                                 : S_HDMV/PGS+ z1 X) b- s& w
Codec ID/Info                            : Picture based subtitle format used on BDs/HD-DVDs
. R! m/ s; W: \4 \# J$ T+ ]4 XDuration                                 : 1 h 33 min
- q" c! G! |% L% TBit rate                                 : 273 kb/s
, ?; G8 L6 `* }! L4 G- OCount of elements                        : 10706) c( }- K6 l+ w* L1 a; [/ G% O% h
Stream size                              : 183 MiB (4%)1 C$ Y9 ~3 z8 a
Language                                 : Japanese, Q# H9 y4 C* M! u: K+ M
Default                                  : No, m3 Y% v: n, N, G7 i% d
Forced                                   : No
" \; R) ^* G. r7 f) ~$ ?0 b) V* r& Z
Menu
7 R4 R2 B  p+ M% `00:00:00.000                             : :Chapter 018 u% s( y3 p6 R- f  e
00:01:02.604                             : :Chapter 02# m* B& i+ }* K" X. }, \0 S" N
00:02:34.529                             : :Chapter 03
! {/ C! |3 i) r00:22:53.038                             : :Chapter 042 |- K4 h4 h, g
00:34:38.702                             : :Chapter 05
  H2 m( I9 N8 q2 |3 `; |. H00:45:32.396                             : :Chapter 069 k% [4 J5 S/ x1 C2 P+ K! R
01:06:01.499                             : :Chapter 077 {) c) K  {8 k
01:30:33.928                             : :Chapter 08
( Q" l; O2 W' M4 y9 U
游客,查看本帖隐藏内容请回复 | 加入VIP可免积分免回复 了解详情 | 还不是会员:点击获取邀请码 Invitation Code

0

主题

370

帖子

1490

积分

Sponsor

金币
2 枚
体力
663 点
QQ
jiyugen8180 发表于 2022-6-30 23:48:47 | 显示全部楼层
每天都来蓝光论坛看看,我爱蓝光电影。
$ a, p  K' u5 c9 O% [. iI love your Blu-ray movies Forum!
( n' z! q7 l: W

本版积分规则

小黑屋|Archiver|蓝光电影资源网

GMT+8, 2022-8-15 05:30

Copyright © Tencent Cloud.

快速回复 返回顶部 返回列表