BluRayCD Forum

 找回密码
 立即注册【分享大片】
查看: 7|回复: 1
收起左侧

[科幻恐怖] 神秘感染1/7步成尸/七步成尸/神秘接触/尸控一夜情 Contracted 2013 1080p BluRaycd x264 DTS-FGT 7.32GB & 5.46GB

[复制链接]

1万

主题

1万

帖子

12万

积分

Post Share

金币
23882 枚
体力
24613 点

卓越贡献勋章

mvods 发表于 2022-7-4 23:42:55 | 显示全部楼层 |阅读模式

, q0 R. A% K) u$ o5 A/ k& L. I- a: A, u9 N+ [% D
◎译  名 神秘感染/7步成尸(港)/感染/七步成尸/神秘接触/尸控一夜情(台)
1 n, ]4 w% j4 Y* g◎片  名 Contracted
% i1 H  U# w6 i$ e! k◎年  代 2013! k6 Z: R/ t3 P6 z/ z
◎产  地 美国
5 d  r8 w5 F" ?- Z◎类  别 剧情/惊悚/恐怖
$ k7 b1 `. e: U5 M& h9 i◎语  言 英语
  J1 h: ^* \3 n! e2 y◎上映日期 2013-11-22(瑞士)
" j9 V1 D$ r1 v: e  m- s◎IMDb评分  5.3/10 from 15,239 users! J# L8 J( J! M5 q, q9 `
◎IMDb链接  https://www.imdb.com/title/tt2281159/
$ g" m3 c) U$ O9 a/ l2 h5 I◎豆瓣评分 6.0/10 from 11,918 users. _6 l6 Q2 @  D- D, \
◎豆瓣链接 https://movie.douban.com/subject/21348112/
, I+ n+ e) {( Z* i) D0 S2 g◎片  长 1 h 23 min
  x% T# J  o# ]1 D( n◎导  演 艾瑞克·英格兰德 Eric England  _+ V- x: c) W% n% P$ {3 F
◎编  剧 艾瑞克·英格兰德 Eric England
# @, x- `! z1 n( s0 P6 g! R  [◎主  演 娜嘉拉·汤森德 Najarra Townsend# x+ m2 g6 A1 O& q6 [7 [
       爱丽丝·麦克唐纳 Alice Macdonald/ t5 N$ l( \" {( s0 O
       查理·孔茨 Charley Koontz
' v  d5 m0 P4 s6 g# t. h4 z       西蒙·巴雷特 Simon Barrett! t; f. `; @$ Z( E( E
       卡罗琳·威廉姆斯 Caroline Williams
' ]0 _$ J' c7 V9 S' X0 E% w. R! g       凯蒂·斯特格曼 Katie Stegeman& C  C) a! ~& l, L' f2 i2 T  K
       马修·默瑟 Matt Mercer
$ s; ~6 i3 D6 C! k- W0 e3 a       戴夫·霍姆斯 Dave Holmes0 Y# ~1 e% Q, r0 K, I, y
       安德烈·博耶 Andre Boyer- a+ [; _# K4 W  \: `' ~2 U

. [7 `7 l' N7 \4 n5 U0 E+ O; S7 v◎标  签 丧尸 | 恐怖 | 惊悚 | 病毒 | 美国 | 血腥 | 感染 | 美国电影8 i5 A3 z& e! ]! ~

+ d* O" S; ]" @/ m◎简  介   4 d5 v' V! c/ j& i  G

& Y2 P/ i6 @0 `- h2 k, S  萨曼莎(娜嘉拉·汤森德 Najarra Townsend 饰)原本约好和女友妮姬(Katie Stegeman 饰)一起去夜店消遣,她见到了朋友爱丽丝(爱丽丝·麦克唐纳Alice Macdonald 饰),喜欢自己的男孩莱利(Matt Mercer 饰),却独独没有看到妮姬。酒过三巡,落寞的萨曼莎自饮自酌,谁知却遭遇了一名男子的暴行。令人不愿回忆的一夜过后,萨曼莎重新回到烦恼多多的生活中。谁知未过几天,她便发现出现在身体上上的种种异状,莫名的血迹,恐怖刺耳的幻听,眼睛充血,皮肤出现青斑,牙齿脱落。' m8 w$ R1 F* E/ W  T) `
) T( T3 e, `9 c3 C2 c" u
  从爱丽丝口中得知,对她施暴的男人似乎是警方正全力追查的一个极度危险的人物。几天前还如花似玉的女孩,而今变成了一副恐怖的死尸模样……
2 _0 v2 X/ |- E- D, V
- j( W# i# j1 d  m% W3 G; R  After being drugged and raped at a party, a young woman contracts what she thinks is an STD; but, it's actually something much worse.
Contracted.2013.1080p.BluRayCD.x264.DTS-FGT 7.32 GB- x: \2 C* |) s- |% k4 r* O

8 s7 x* z( y) B- W+ ~: gVideo# e1 R5 T+ }7 L
ID                                       : 1
8 ]# ?2 [8 W) e' A4 E5 b( a3 xFormat                                   : AVC% m/ D: u' v$ ]) a" P( G
Format/Info                              : Advanced Video Codec
# O; K; S$ _( r) p/ oFormat profile                           : High@L4
4 }( M" v; Z2 k- HFormat settings, CABAC                   : Yes: M5 v+ _: b5 q$ @* m1 O3 l& a8 D
Format settings, ReFrames                : 4 frames+ ~. B: c9 d8 q( W6 ^
Codec ID                                 : V_MPEG4/ISO/AVC: H+ C: ^* d  W) d8 e5 D* c6 n# A6 @
Duration                                 : 1h 23mn# u1 F0 B9 }, Y' `$ t, I
Bit rate                                 : 10.7 Mbps
3 F1 v  V7 U; t- dNominal bit rate                         : 11.5 Mbps
0 \, Y' `" V5 X$ X6 g9 G6 S2 FWidth                                    : 1 920 pixels
4 ^; l3 E7 ^( j4 ]& o# AHeight                                   : 816 pixels& k9 j2 Q! ^- I+ M! w( {  T1 q3 ]
Display aspect ratio                     : 2.35:1
5 e5 x0 I1 k* S2 A2 MFrame rate mode                          : Constant
/ d& h, a& i  ~Frame rate                               : 23.976 fps& R9 L+ E  X! j; ?
Color space                              : YUV2 D' s2 _5 {7 P8 b) G( q+ g
Chroma subsampling                       : 4:2:0
: z7 D) z1 u. [1 a: GBit depth                                : 8 bits
* y6 t' z4 G/ U( T5 b  ZScan type                                : Progressive: Q( D0 d) n, m) U
Bits/(Pixel*Frame)                       : 0.286* Y# s. O: V7 L# P; p
Stream size                              : 6.29 GiB (86%)
. E; s4 f, _4 C' g. U* uWriting library                          : x264 core 144 r96 40bb568
6 [* D6 a( T) @# OEncoding settings                        : cabac=1 / ref=4 / deblock=1:-2:-2 / analyse=0x3:0x113 / me=umh / subme=7 / psy=1 / psy_rd=1.00:0.15 / mixed_ref=1 / me_range=16 / chroma_me=1 / trellis=1 / 8x8dct=1 / cqm=0 / deadzone=21,11 / fast_pskip=1 / chroma_qp_offset=-3 / threads=12 / lookahead_threads=3 / sliced_threads=0 / nr=0 / decimate=1 / interlaced=0 / bluray_compat=0 / constrained_intra=0 / bframes=3 / b_pyramid=2 / b_adapt=2 / b_bias=0 / direct=3 / weightb=1 / open_gop=0 / weightp=2 / keyint=250 / keyint_min=25 / scenecut=40 / intra_refresh=0 / rc_lookahead=50 / rc=abr / mbtree=1 / bitrate=11500 / ratetol=1.0 / qcomp=0.60 / qpmin=0 / qpmax=69 / qpstep=4 / vbv_maxrate=31250 / vbv_bufsize=31250 / nal_hrd=none / filler=0 / ip_ratio=1.40 / aq=1:1.00
; D8 @# ~) F  R; `1 NLanguage                                 : English
! a6 k7 m2 c4 y1 E2 `4 [' J! |+ `4 {( bDefault                                  : Yes7 h; V8 {/ y7 E0 t
Forced                                   : No
3 E& x) D& n: w) B' [6 c4 S3 p# I& j9 M7 Y3 i) y6 Y+ g
Audio* v+ E  O( q' G) @
ID                                       : 2& l( \# S3 K5 K! h& d
Format                                   : DTS: T$ J* [- }* {9 `
Format/Info                              : Digital Theater Systems
& l2 @1 F+ ~) L" Y* IMode                                     : 16
# ]) D9 l1 E( R; m0 ^, ]8 a2 l% u" }Format settings, Endianness              : Big
( O$ W' Z/ g* l: @( ~  kCodec ID                                 : A_DTS
3 P$ ?% i+ K$ V* F, T( bDuration                                 : 1h 23mn
1 E) q$ s4 E2 s5 G2 WBit rate mode                            : Constant& G' X/ W6 ]. k8 v4 o+ K8 G
Bit rate                                 : 1 509 Kbps
+ u4 F6 ^/ h! _' P0 m' n6 P9 ?Channel(s)                               : 6 channels
4 O/ Z$ \' N; f: ^Channel positions                        : Front: L C R, Side: L R, LFE
2 l8 K, J( X  p( s6 cSampling rate                            : 48.0 KHz# a8 h7 n2 y' z1 B# O& q
Bit depth                                : 16 bits
' M5 w* Z" k4 `8 T4 iCompression mode                         : Lossy
/ Z# ^6 I$ X6 A+ t) G- F- \Stream size                              : 906 MiB (12%)& e+ U  G2 o  I
Language                                 : English
/ P+ ]& [! P- N, v5 ZDefault                                  : Yes3 r& b% k$ `( d$ p3 N2 D0 ~
Forced                                   : No! M  E7 V$ X" F, L* [

/ ?: u) W5 e( PMenu% {& j" }6 A4 {8 F& t- t
00:00:00.000                             : en:Chapter 016 F+ ^% M( Q& f0 g9 c$ r2 G
00:12:26.620                             : en:Chapter 022 r2 N& Q5 g) B/ X
00:19:12.651                             : en:Chapter 034 U# G  m, `# n3 N) D& n2 o
00:23:33.620                             : en:Chapter 045 V' ?( |; b# {5 f
00:28:50.437                             : en:Chapter 05& v0 F1 f* L7 B6 T2 }1 y! Q
00:38:28.097                             : en:Chapter 06
% u5 b- o3 {  J00:44:17.321                             : en:Chapter 07
+ `: R% s7 [2 a00:49:08.070                             : en:Chapter 08
6 {  @+ ?5 n; ]: w00:55:17.814                             : en:Chapter 09
5 S" k% a+ M6 H5 \3 @. @* y# u6 J! k01:04:03.548                             : en:Chapter 10
' U5 j! Y' A: y4 m, W8 L! {01:09:25.244                             : en:Chapter 11
' @  ]* D) l8 |01:16:55.110                             : en:Chapter 12
; K; \1 M7 _  |. O7 j2 Y01:18:58.108                             : en:Chapter 13
Contracted.2013.1080p.BluRaycd.x264-PFa 5.46 GB
5 S0 C' E1 a: K! m
9 G/ h0 J& e, y$ O4 t/ B  v/ ^; dhttp://www.imdb.com/title/tt2281159/
* J3 `+ i: q7 {/ A9 |$ H0 c; a7 U
Length..............: 1h 23mn
  |) O5 ?3 `6 Y- V1 qVideo...............: 1920x816 (X264 @ 24.000fps)
( z; y5 @9 Q/ h. M$ h4 s" j& Z# K0 CBitrate.............: 9312Kbps9 Y+ A& a( s$ w0 V; B" L
Audio...............: AC3 640 Kbps
* V0 F# `9 d0 z8 u6 c0 WLanguage............: English! N% B, \$ \6 O* u7 Z/ u, f) n* u6 n
Subtitles...........: N/A* F$ F* |8 `% j/ h! ~4 ?
Genre ..............: Drama | Horror

; L* j9 L3 s. {. O& m
游客,查看本帖隐藏内容请回复 | 加入VIP可免积分免回复 了解详情 | 还不是会员:点击获取邀请码 Invitation Code

2

主题

424

帖子

1831

积分

Sponsor

金币
450 枚
体力
603 点
211 发表于 2022-7-6 07:48:27 | 显示全部楼层
楼主发贴辛苦了,I*老*虎*U!! w9 R& w4 S8 Y, o" L$ H! ]* i
Your resources, well, I am very satisfied!
) M' H/ w* R4 N$ ]) k' E0 b" e

本版积分规则

小黑屋|Archiver|蓝光电影资源网

GMT+8, 2022-8-10 02:03

Copyright © Tencent Cloud.

快速回复 返回顶部 返回列表