BluRayCD Forum

 找回密码
 立即注册【分享大片】
查看: 8|回复: 2
收起左侧

[动漫动画] 福星小子1: 只有你/福星小子剧场版1 Urusei Yatsura Only You 1983 1080p BluRaycd x264-HAiKU 8.63GB

[复制链接]

1万

主题

1万

帖子

12万

积分

Post Share

金币
24000 枚
体力
24786 点

卓越贡献勋章

mvods 发表于 2022-7-5 03:35:39 | 显示全部楼层 |阅读模式
8 ^. [; a4 x8 Y* n
0 N2 M  u0 X/ n8 S+ I' j3 T' V4 v
◎译  名 福星小子1: 只有你/福星小子剧场版13 R" E7 t( K6 C' z/ {+ T0 \: d! i0 D" u3 ]
◎片  名 うる星やつら オンリー・ユー / Urusei Yatsura 1: Onri yû / Urusei Yatsura 1: Only You/ \; B# g; T) b+ P& G8 f, @! a6 i5 Z
◎年  代 19836 h! a8 J: d6 ~
◎产  地 日本
6 E# K+ J8 z5 T; A◎类  别 喜剧/科幻/动画
5 o) H/ G3 y$ ~  |  ?◎语  言 日语* v0 X4 b2 G* E* `/ Q# ]! t
◎上映日期 1983-02-11(日本)$ S! W9 i% t& M; o# G& H
◎IMDb评分  6.7/10 from 683 users2 [; E. {+ c- W. d
◎IMDb链接  https://www.imdb.com/title/tt0086520/
7 G! g9 X# O* S3 j% C! G' U% F6 r◎豆瓣评分 7.3/10 from 355 users7 b3 ]3 a, q; F5 H  X8 H* @0 p
◎豆瓣链接 https://movie.douban.com/subject/1918439/5 _7 p" ]6 R, X2 ~' s
◎片  长 1 h 43 min
- g& U7 r$ B* r, Y$ B, \, }+ C◎导  演 押井守 Mamoru Oshii4 q$ X- M+ R+ j! w7 Z% g
◎编  剧 押井守 Mamoru Oshii
9 \  N% I& b! S0 a- _4 d, i* M4 n- w       金春智子 Tomoko Konparu
7 G5 _. S0 c# {8 }5 ]& H! d. m       高桥留美子 Rumiko Takahashi
* ?# M  }$ h4 b9 {0 K# }◎演  员 平野文 Fumi Hirano1 z+ t9 @2 j6 l1 c0 ^+ ~3 [* z# ?
       古川登志夫 Toshio Furukawa0 H4 w. K$ p8 p( n  r: Z
       岛津冴子 Saeko Shimazu5 h9 {- X' R/ A4 ~3 O  M
       神谷明 Akira Kamiya. p* s8 Z2 _) i  O* V' S& V! ]
       杉山佳寿子 Kazuko Sugiyama) ~& J$ ?/ m0 C  Y- R; K& U
       永井一郎 Ichirô Nagai
1 w* n$ N4 Q# i' W3 n" W3 A       鹫尾真知子 Machiko Washio
4 V% ?& W3 D- V# d       千叶繁 Shigeru Chiba
+ }' c/ Q7 h, e; ~( I4 X       村山明 Akira Murayama
0 V6 _$ X! c4 D# ~# L/ w& I       二又一成 Issei Futamata
; _1 Z: h  D0 N/ d9 s  k; }       绪方贤一 Kenichi Ogata1 k/ Y- ^; }4 V9 _" g- B' K$ I* j1 V. i
       佐久间夏生 Natsumi Sakuma
9 {. K2 g% ^$ x       泽律雄 Ritsuo Sawa
- K0 q% S& ]* e' z* v6 X       井上瑶 Yô Inoue* ], e4 l8 S7 @$ `5 L0 g6 S
       三田友子 Yûko Mita2 o  g% L6 Q! D0 ]
       玄田哲章 Tesshô Genda/ c2 H  g6 W6 ?& \+ T/ n
       史蒂文·保罗 Steven Paul
4 j$ r; N. A$ a1 j" \: H3 J/ P       青木和代 Kazuyo Aoki$ {1 l: G# h3 C; ~
       Shiori Shiori
! n& O1 T2 A5 R: ^! W, F       伊泽弘 Izawa Hiroshi
4 U6 a* C( |* X, D* H       杰瑞温塞特 Jerry Winsett
& Z# i3 W; ^2 ^4 l- E       Langley McArol ' E+ X  V2 q& `" l" ~
       Kaitlyn Walker
3 T5 Z) ^2 k! Y/ B       Kristen Foster ; q; Y( Z( h7 [: m$ u0 i
       Anthony Lawson1 h; j# W3 ~3 v6 |7 G/ _1 \
       岛田敏 Bin Shimada
6 D8 N& t7 h/ l2 h2 l% g       高木早苗 Sanae Takagi( I! L3 s& E: [+ {. P
       榊原良子 Yoshiko Sakakibara
9 `- s8 @+ r; B       盐屋翼 Yoku Shioya
4 I& c; H; C" j' Y* f  I$ D7 }& ?       吉田理保子 Rihoko Yoshida; `3 @0 k4 ~! y' W& e6 z
       麦人 Mugihito
2 U8 E: ]4 Z' X4 y; ^& z) ^       田中秀幸 Hideyuki Tanaka
- C0 z- ?8 a2 s6 ]0 z       京田尚子 Hisako Kyôda
6 }4 p, h" `1 p7 U       丸山裕子 Yûko Maruyama
$ y) q! Q- h/ C# m7 @- M2 ?# {       小原乃梨子 Noriko Ohara% B- r- F8 ?5 h  e9 i( y" h) b4 w0 {
       泷泽久美子 Kumiko Takizawa3 o6 e3 \1 O% {7 p' V, M( M
       Yûji Nunokawa 9 i( \; E: r/ R' O' x
       安西史孝 Fumitaka Anzai6 j; y0 X6 j1 s4 Z; C
       小林泉美 Izumi Kobayashi6 ]  j/ C% |* P1 Q' F) n# E; d) I8 t
       天野正道 Masamichi Amano
2 ]' x) t9 @- f3 n       押井守 Mamoru Oshii
- e( _8 c0 ~6 [% ^. `% C8 \2 {- R" v# R8 E7 C6 {- ^
◎简  介   # X' g6 p$ G/ v3 Y0 b) q

+ s1 Q6 D+ i! E. f: L  阳光明媚的一天,友引市的居民们相继受到婚礼邀请函,但是男女主角令他们大为震惊。女方名叫埃儿,是某星球的女王,男方竟是那个宇宙最大花心男——诸星当。这一消息迅速在友引市流传,拉姆的支持者们对阿当进行严刑逼供,愤怒的拉姆更是大发雷霆,电光四射。殊不知一切源于十数年前,幼稚园时期的阿当游戏中踩到埃尔的影子,按照对方星球的规定,他在将来会成为埃儿星的驸马。为了营建心中理想的庞大后宫,阿当执意前往。而拉姆和她的朋友们也将展开一场夺回阿当的大作战……
& e& h. r9 M. _6 J: T: _0 l0 G' l; k3 t. y
  本片根据漫画家高桥留美子的同名原作改编,是动画大师押井守首部剧场版动画。虽然高桥对该片颇多赞誉,但是押井守本人则认为此片是“完全失败之作,不过是一部大一点的电视动画片”。
7 j# {# Y  q, n) g3 F) n7 z2 Q0 ~8 |9 h2 D4 m3 B
  When everyone in town receives invitations to Ataru's wedding, they are shocked to see that his sweetheart Lum is not the bride. Eventually they learn that when Ataru was playing games as a little boy, he stepped on a girl's shadow. Unbeknownst to him, the girl was from extraterrestrial culture where stepping on one's shadow is a form of marriage proposal, and now she and her family have come back to see that Ataru keeps his promise. If he manages to get out of this without being killed by her folks, he'll still have to avoid being torn apart by the hands of Lum.) B( |+ K. {* S" Q' t
Video, u1 I4 k% Q% E' R
ID                                       : 1
5 [* e4 B, k% oFormat                                   : AVC
& r) o# q# ]4 V5 z6 FFormat/Info                              : Advanced Video Codec
) E+ M4 }  K9 X) @, ~Format profile                           : [email protected]
. }8 P1 @2 H0 I6 u2 A" y% YFormat settings                          : CABAC / 4 Ref Frames$ @0 P# z* g" ]6 f4 O
Format settings, CABAC                   : Yes3 `" y8 y+ t1 I8 F- N" R  P
Format settings, Reference frames        : 4 frames
( I3 h% `" V, Z: M2 R& [Codec ID                                 : V_MPEG4/ISO/AVC
% x, C9 Z2 l2 T% X5 TDuration                                 : 1 h 43 min
4 \$ h- {6 }% @: g1 T  x' U1 @5 kBit rate                                 : 10.8 Mb/s  V8 q8 |8 c3 c  }
Width                                    : 1 916 pixels
% |- ^6 U- W; `% Y- e0 IHeight                                   : 1 036 pixels
6 G3 O/ |/ n+ m0 mDisplay aspect ratio                     : 1.85:1
6 l7 x) k7 r7 ~; x! g0 T7 e+ SFrame rate mode                          : Constant
0 D6 \" w1 W( z+ ^: ~5 z0 }Frame rate                               : 23.976 (24000/1001/189150) FPS
: ]( T! S8 M9 u* j' cColor space                              : YUV
% ~% D% C" v. {6 D3 x% D! _Chroma subsampling                       : 4:2:0
8 o; v( k& q: Q2 uBit depth                                : 8 bits$ w  O% v1 ~4 X
Scan type                                : Progressive5 j1 B# n# B0 c6 u# @/ x* ^
Bits/(Pixel*Frame)                       : 0.227
/ b* F2 C7 W  ^3 p: ^1 d- X) IStream size                              : 7.84 GiB (91%)7 n! p# J: ], j0 e& o
Writing library                          : x264 core 164 r3094 bfc87b7+ T6 |  X  C2 t/ K
Encoding settings                        : cabac=1 / ref=4 / deblock=1:-1:1 / analyse=0x3:0x133 / me=umh / subme=10 / psy=1 / psy_rd=0.50:0.00 / mixed_ref=1 / me_range=32 / chroma_me=1 / trellis=2 / 8x8dct=1 / cqm=0 / deadzone=21,11 / fast_pskip=0 / chroma_qp_offset=-2 / threads=24 / lookahead_threads=4 / sliced_threads=0 / nr=0 / decimate=0 / interlaced=0 / bluray_compat=0 / constrained_intra=0 / bframes=8 / b_pyramid=2 / b_adapt=2 / b_bias=0 / direct=3 / weightb=1 / open_gop=0 / weightp=2 / keyint=250 / keyint_min=23 / scenecut=40 / intra_refresh=0 / rc=crf / mbtree=0 / crf=20.0 / qcomp=0.60 / qpmin=0 / qpmax=69 / qpstep=4 / ip_ratio=1.40 / pb_ratio=1.30 / aq=3:1.00
. W6 N" f6 V7 n7 @& x4 _Language                                 : English+ O* ]3 y/ h$ Z: E
Default                                  : Yes+ M% Z- t0 @3 b; w$ v5 b
Forced                                   : No0 |" _! W5 u$ T$ N  P/ e' {. S' d
Color range                              : Limited7 j# m; ]6 c' N' S. Y, s# M
Matrix coefficients                      : BT.709, R$ Y- L2 m3 ^" B" X
7 v) R; h: v& ~* {# e
Audio #1# ~  C, l* f# `. ^! [
ID                                       : 2
, \" Y7 U: R8 jFormat                                   : FLAC7 O" k! `# w3 u4 D2 n( f9 y
Format/Info                              : Free Lossless Audio Codec
, V3 O+ p: K9 s) v4 J5 R7 |' g- sCodec ID                                 : A_FLAC' }! V, g8 O/ [. p3 t
Duration                                 : 1 h 43 min: _5 g9 d" M6 B+ J% l3 y+ L; G
Bit rate mode                            : Variable2 l+ d2 Y8 v: a* u7 M
Bit rate                                 : 476 kb/s* m8 I8 T. T9 W! f0 \
Channel(s)                               : 2 channels
0 |& x$ L, J2 t; QChannel layout                           : L R0 Q; U. m1 s# x- f1 e/ _
Sampling rate                            : 48.0 kHz, U0 m7 h& ?% p# a4 C
Frame rate                               : 11.719 FPS (4096 SPF)
$ E! O- ~, Y+ ^+ A* `Bit depth                                : 16 bits
/ W; R! T$ k  L1 [% ~0 f2 FCompression mode                         : Lossless: s- [) ^. w# f0 S. p; f
Stream size                              : 354 MiB (4%)
' _: |) A* }6 _9 K! qTitle                                    : Japanese+ X1 q  [) ^( I! b: L/ m
Writing library                          : libFLAC 1.3.3 (UTC 2019-08-04)
6 u  v5 n, Y  \3 m& s- r5 s" zLanguage                                 : Japanese. p* i. K, k' m: ?  W5 B' Y% t
Default                                  : Yes8 ^4 B( p8 ~& r/ c# q; i
Forced                                   : No
: U& W4 ]! B& o4 P+ L& U9 ~
$ o) _& b* a0 g) e& e3 SAudio #2
6 |1 ?  M% t6 [  BID                                       : 3
! Y" G4 ~3 s0 r' r' }5 V: `* o& TFormat                                   : FLAC) w7 o% T. H, T0 g
Format/Info                              : Free Lossless Audio Codec
8 H1 W+ E7 D& s6 ~: ?$ ]1 pCodec ID                                 : A_FLAC
! u5 j' l: q) E: N6 ^Duration                                 : 1 h 43 min
( V$ `8 Z6 a. j/ d/ ABit rate mode                            : Variable+ R9 I  H. a! c7 }  R" Q
Bit rate                                 : 594 kb/s
  i% @& }" g2 EChannel(s)                               : 2 channels# R6 V& i, h* M; E3 ?( R+ x8 i) E
Channel layout                           : L R& q+ y+ ^: _3 K4 E7 v
Sampling rate                            : 48.0 kHz+ w. Y, Y( E4 o9 ~  N! ^* T
Frame rate                               : 11.719 FPS (4096 SPF)
' |9 L( w' r7 q" XBit depth                                : 16 bits
, @  W, q* j1 Y4 P* r( s+ d; PCompression mode                         : Lossless
& a9 V3 B4 p. y1 K% A8 gStream size                              : 441 MiB (5%): R1 D& z$ t' q
Title                                    : English% \7 Y- `3 I0 g3 V% a6 ]0 y% u
Writing library                          : libFLAC 1.3.3 (UTC 2019-08-04)
: l* R% [& }: i) WLanguage                                 : English9 b1 Q: n8 a0 c
Default                                  : No
# o/ I/ w! W1 m4 K, uForced                                   : No9 j. O) ^8 [) g. ?$ u* V! s: {

( O# `) y/ Y$ x* k5 C6 r* IText #1% |# H, \5 q2 ~  y2 {8 l3 o
ID                                       : 4  k  |, X/ v7 ]6 \
Format                                   : UTF-8
; P1 ^4 {: ^6 yCodec ID                                 : S_TEXT/UTF8
  E: F/ i6 c" Y( B' O- i* bCodec ID/Info                            : UTF-8 Plain Text
  B* k7 X4 e- H% E1 j1 |Duration                                 : 1 h 41 min! v) j2 f) C9 T
Bit rate                                 : 59 b/s
0 w3 H+ {- I1 sCount of elements                        : 1106. w7 b! ^8 f: ?
Stream size                              : 44.0 KiB (0%)$ h- ?0 P8 o" @* S# {# n" N
Title                                    : English Forced& D$ O. s* X( F
Language                                 : English
( q5 _) M- O2 C3 R+ RDefault                                  : Yes
) p- A/ P; I5 Q; a$ ?% e$ s  M6 fForced                                   : Yes
9 `, z  y0 r6 y' u4 H* Q5 m+ E% A) ?' I$ y% H; E
Text #2: e! v. c) a" D! K$ @6 [
ID                                       : 5
, w9 x, f% k& v8 s# |. GFormat                                   : UTF-8
9 u$ g5 H+ [" K) c2 Y* ^Codec ID                                 : S_TEXT/UTF8
4 h0 ^! ^2 y! ]9 \) oCodec ID/Info                            : UTF-8 Plain Text7 s3 `  J5 Z: O) \8 y% E: I7 N
Duration                                 : 1 h 41 min: h, o+ Z! T7 v* \- U+ N9 d; P
Bit rate                                 : 4 b/s
, @  K$ P  g+ r/ D- JCount of elements                        : 75) l& {1 h2 P) s
Stream size                              : 3.18 KiB (0%)+ P. h& M/ x2 d7 v  Z5 |
Title                                    : English Forced for English Dub
& a& N6 O" U( F% J# OLanguage                                 : English0 J- ?6 I% k  p
Default                                  : No7 }8 P! k1 ]( H2 {
Forced                                   : No
$ U. Q1 S5 Z6 D, P
& }1 X2 Y+ S1 p$ H% MText #31 N  e* n8 v& U" X- w( b
ID                                       : 6( K) u4 }/ L) w: z
Format                                   : PGS
& G- [% [# m5 b) EMuxing mode                              : zlib- P8 g* m6 G5 X4 H
Codec ID                                 : S_HDMV/PGS
4 f. F* m/ j2 T/ r, U1 {Codec ID/Info                            : Picture based subtitle format used on BDs/HD-DVDs4 l) i3 I# O+ q' u- P4 d
Duration                                 : 1 h 41 min4 s% Z' g1 E# G# T- W
Bit rate                                 : 35.0 kb/s
1 U) S1 `( O) A  UCount of elements                        : 1762
8 n) V4 t1 r6 R/ v* MStream size                              : 25.4 MiB (0%)2 v" r4 Y/ {3 q6 i4 ?
Title                                    : English Forced
$ \0 k. p% X& C( ~" yLanguage                                 : English8 Q+ o. F$ o' w! e2 |& ^
Default                                  : No8 L8 w& ^+ T- d* _% x: a
Forced                                   : No! M+ u/ X/ R2 E$ S4 l
' N: ~: o" ~9 y- _
Text #4
3 Z# q- t( j8 w2 Z3 W7 tID                                       : 7$ r6 L6 o( W2 b
Format                                   : PGS
, C) b$ _% o7 @& }: lMuxing mode                              : zlib
$ q9 |. x. ?  Y  B0 ACodec ID                                 : S_HDMV/PGS0 H. o3 I' O% x# y
Codec ID/Info                            : Picture based subtitle format used on BDs/HD-DVDs( w9 u& X- o4 f1 }
Duration                                 : 1 h 41 min" L3 q% O6 @0 A9 O7 J3 d
Bit rate                                 : 3 280 b/s. x  m2 g4 F+ G# p+ ~' v
Count of elements                        : 1783 A( w) \: S7 r" q
Stream size                              : 2.38 MiB (0%)
) F6 k/ j* m- V7 STitle                                    : English Forced for English Dub8 X4 c* X6 D0 O: t! Q' S
Language                                 : English( F- T6 w8 B$ }1 H' J+ K  Q
Default                                  : No2 ^% `& k: Z: Y6 @9 }7 p) |0 w; f
Forced                                   : No7 f3 @3 s6 E& Y+ w3 N
6 U9 O: W- E3 X. |/ p/ w
Menu9 [% `6 a3 C( H# Y+ t6 `+ [
00:00:00.000                             : :Chapter 01- D9 U! Z4 x' g2 [6 k2 _0 F1 h
00:06:04.322                             : :Chapter 02
+ _0 M% C5 I2 L3 q  W00:08:26.047                             : :Chapter 03( @& {; {9 E- Q
00:10:50.775                             : :Chapter 04
# M' C" K  I6 w4 G9 Y8 Q3 M00:18:09.213                             : :Chapter 05, `. W  R* \, C7 H0 ?! L1 s. P; e
00:26:14.865                             : :Chapter 069 B; Q" d+ J# T# M; U8 m# z
00:32:04.881                             : :Chapter 07
2 p% r8 ^: K0 b' Z5 l5 O2 M00:37:20.989                             : :Chapter 08
! S  b$ q& w/ i00:41:53.136                             : :Chapter 09
7 h: M# s6 h+ s' Q1 y00:49:36.891                             : :Chapter 10
# t/ q/ ~  P$ b. Y* p# O00:55:53.517                             : :Chapter 112 U2 r4 j( ~$ H5 B/ K
01:00:04.351                             : :Chapter 12
+ Z$ U& S, f* l' [4 \$ l01:04:23.401                             : :Chapter 13) `# s) s! x3 D* n. w2 o, |
01:09:55.358                             : :Chapter 14, J1 P0 N" k. o% p" c
01:17:14.505                             : :Chapter 15
# R6 u( f7 L3 O( y: y01:26:25.347                             : :Chapter 16# b8 b9 X. l6 Q0 ^' o
01:29:56.641                             : :Chapter 17: W% m% g1 r1 F( ]# Z
01:39:07.525                             : :Chapter 18
% E  W  t1 s1 V, z01:41:29.542                             : :Chapter 19
. y5 `7 j$ |  y; l4 ^0 B( N# o; b' Q9 D. O- V7 ^
Details for Urusei.Yatsura.Only.You.1983.1080p.BluRayCD.x264-HAiKU 8.63 GB
+ F) L# r6 w, K/ w" [- _! t9 w4 w( j# U$ ^  m
Duration : 1h 43mn
4 r4 j. S* q& L" _  h) ~Video    : 1916x1036 @ crf20 10807kb/s 23.976fps (Source: 21887kbps)
% I( o5 O! T* S( wAudio1   : Japanese 476kb/s 2ch FLAC" l) H# M3 T$ b- G- @7 r; ?
Audio2   : English 594kb/s 2ch FLAC3 O! U. c1 h! S0 [
File Size: 8834.78mb
+ B  I3 I& }" BSubtitles: English
( T" J& n3 ^; Z& K$ D2 LIMDB     : https://www.imdb.com/title/tt0086520) C4 J! r  M9 R6 _, y; Z; J, m! M
Info     : When everyone in town receives invitations to Ataru\'s wedding,
% s6 ]6 U# Y' W% }" o, n1 j9 j9 u8 Jthey are shocked to see that his sweetheart Lum is not the bride.
1 l% }5 C8 U3 kEventually they learn that when Ataru was playing games as a little7 P( N" j6 T3 i3 G
boy, he stepped on a girl\'s shadow. Unbeknownst to him, the girl was% u8 T5 n) c' w7 q
from extraterrestrial culture where stepping on one\'s shadow is a5 @8 ]: F! H$ P8 g
form of marriage proposal, and now she and her family have come back7 V8 r' H9 y! |5 z# f4 o
to see that Ataru keeps his promise. If he manages to get out of this
, K) M% R/ U# K) [( A6 @without being killed by her folks, he\'ll still have to avoid being torn
  |. P8 @/ t9 rapart by the hands of Lum.& G- {, h8 {+ ]5 L
; r1 j' r: e, h$ n( l% w1 ?4 m
L O O K I N G    F O R5 n" w- i: H% X( E
! C1 i8 N+ D3 z: Z3 ?+ Q7 ~
* 100mbit+ sites for exclusive group use
) |9 J. |9 g. o2 L) \) R5 \! [* 100mbit+ dedicated (anime) archives
0 V5 u1 c* \& i+ z8 o. t* retail suppliers from au/ca/jp/uk/us
7 M$ x6 M: i  {7 t3 T5 ^9 \' T4 C! @* crunchyroll/funimation rippers

' m% D- Z- |$ v( Y8 r. |
游客,查看本帖隐藏内容请回复 | 加入VIP可免积分免回复 了解详情 | 还不是会员:点击获取邀请码 Invitation Code

31

主题

2259

帖子

1万

积分

Sponsor

金币
1593 枚
体力
6232 点
QQ
shiji1973 发表于 2022-7-5 09:09:27 | 显示全部楼层
沙发是抢的而不是占的!+ {+ O# L+ b) l( b1 L0 k0 C, j
The decisive Replies sink is I get the sinking feeling great sense of accomplishment!. t6 |: j# c& u( v( v, M6 L

2

主题

441

帖子

1897

积分

Sponsor

金币
460 枚
体力
627 点
211 发表于 2022-7-7 07:09:21 | 显示全部楼层
Bluraycd又有新电影发布了,激动中……!
6 T* o/ {& L6 e; |Your resources, well, I am very satisfied!# V2 ?( E) h; g7 Q+ P

本版积分规则

小黑屋|Archiver|蓝光电影资源网

GMT+8, 2022-8-15 05:00

Copyright © Tencent Cloud.

快速回复 返回顶部 返回列表