BluRayCD Forum

 找回密码
 立即注册【分享大片】
查看: 12|回复: 2
收起左侧

[动漫动画] 福星小子1: 只有你/福星小子剧场版1 Urusei Yatsura Only You 1983 1080p BluRaycd x264-HAiKU 8.63GB

[复制链接]

1万

主题

1万

帖子

10万

积分

Post Share

金币
171 枚
体力
26705 点

卓越贡献勋章VIP黄金勋章诚信会员勋章

mvods 发表于 2022-7-5 03:35:39 | 显示全部楼层 |阅读模式
! K$ L3 ~/ c. ?6 w4 E4 {

/ {- r8 r! S( ~, l6 C8 C' m1 H2 k◎译  名 福星小子1: 只有你/福星小子剧场版1
! h  Y6 m! R6 s/ _% H1 R◎片  名 うる星やつら オンリー・ユー / Urusei Yatsura 1: Onri yû / Urusei Yatsura 1: Only You0 b7 A- ?& Y( l0 Z) g- V2 w! z2 Y
◎年  代 19831 N( ?% P, b- j
◎产  地 日本  o! H5 Y2 H3 ?& k
◎类  别 喜剧/科幻/动画
8 J+ v3 Z6 \( K5 R' j4 P◎语  言 日语
) E8 |! G- m& x  @4 ^, e◎上映日期 1983-02-11(日本)
4 _& w& n" o9 K! s) o◎IMDb评分  6.7/10 from 683 users8 |3 i7 Z, H7 V2 D
◎IMDb链接  https://www.imdb.com/title/tt0086520/
! E; L: D$ B7 W0 A/ d◎豆瓣评分 7.3/10 from 355 users
0 z0 G, K& B3 B$ b& B" ?& k' j◎豆瓣链接 https://movie.douban.com/subject/1918439/
8 |" i! U" U' p+ q0 _◎片  长 1 h 43 min
" v* X  V! q  ^# L◎导  演 押井守 Mamoru Oshii
, x: d/ G; q' N1 Q6 x4 M# `◎编  剧 押井守 Mamoru Oshii
4 K% U6 o; l* L* s3 {       金春智子 Tomoko Konparu
2 l! H  o2 {7 D6 R, _+ _9 q       高桥留美子 Rumiko Takahashi
8 D% G, |; c2 c: ]◎演  员 平野文 Fumi Hirano, |1 d! ^( Y. b  h5 l. f
       古川登志夫 Toshio Furukawa
, O- n4 G% Y  ?8 D5 k, Z       岛津冴子 Saeko Shimazu) o$ b4 B; Y# h- W3 p8 Y0 _, j) [
       神谷明 Akira Kamiya! x( e: @* i& p6 O# ?
       杉山佳寿子 Kazuko Sugiyama# |# F9 M4 {+ \  o, o
       永井一郎 Ichirô Nagai
7 ?/ r2 c2 `; A. o' }       鹫尾真知子 Machiko Washio, l6 t- F; y5 l- C6 t
       千叶繁 Shigeru Chiba  J6 Y0 n& A7 V/ L7 b5 o
       村山明 Akira Murayama' p" M, Z( p& O  d0 c
       二又一成 Issei Futamata
1 C1 `; Q+ e% Y4 A       绪方贤一 Kenichi Ogata0 Q5 x9 B1 {- ~5 c/ v& K$ S' g
       佐久间夏生 Natsumi Sakuma0 {9 h% _; ^, w0 b
       泽律雄 Ritsuo Sawa6 H1 M8 F: b* g$ H
       井上瑶 Yô Inoue7 S! h9 m+ S% V: S+ L" w3 {  s. S9 h
       三田友子 Yûko Mita' a! P; t8 n& w. O9 Q5 a
       玄田哲章 Tesshô Genda
1 p7 I; E" _7 v. ~2 O/ S% z       史蒂文·保罗 Steven Paul
1 {, }  E# Y' o; d- Z0 K' f' W- m       青木和代 Kazuyo Aoki
( }2 i3 S- v# v1 i       Shiori Shiori
2 t$ q9 ^- x6 k& Y6 m       伊泽弘 Izawa Hiroshi* W8 q: y" L/ z* I" z
       杰瑞温塞特 Jerry Winsett& R' m6 d# G3 k( |
       Langley McArol
5 h% O( k" ^1 N: \       Kaitlyn Walker 6 a+ R+ S$ P' ]" j' r$ }
       Kristen Foster % G$ i  x3 [! E8 R" b& x/ B
       Anthony Lawson( P4 ?& S& z8 Z* A) z5 z
       岛田敏 Bin Shimada
- P7 _( X: B: ~$ }" ~% T       高木早苗 Sanae Takagi
+ Y) ?* ~( m  a1 ~7 A       榊原良子 Yoshiko Sakakibara1 \4 Q9 L& }6 R
       盐屋翼 Yoku Shioya* h6 a7 m/ `( V
       吉田理保子 Rihoko Yoshida( ~8 S. K$ t4 i7 @/ I3 s
       麦人 Mugihito
2 O( \7 J( H! {$ o7 Q+ x/ d       田中秀幸 Hideyuki Tanaka" ]! x3 H* A; N$ f7 R/ P& ?
       京田尚子 Hisako Kyôda
8 n6 l. |! x6 P- j       丸山裕子 Yûko Maruyama; x" a; Z: K* o2 ?
       小原乃梨子 Noriko Ohara: W: T7 j4 Q; P/ G4 _: R
       泷泽久美子 Kumiko Takizawa/ B+ W( Q- `; u* T* P; V  l
       Yûji Nunokawa 4 r% o" Y8 G% {/ d7 |, k
       安西史孝 Fumitaka Anzai
1 b- I% Q; x5 {' O# d) I       小林泉美 Izumi Kobayashi* T% w5 ^/ d& g9 u
       天野正道 Masamichi Amano
! L! I* H6 J# s% |# o       押井守 Mamoru Oshii
5 d3 t6 m9 ^/ G/ z# L
  \3 x+ e) T5 u7 q5 P" o: X3 u◎简  介   
0 z" |) X7 E8 k7 G) C% b
) ^' b$ ~. u. H) _# k& t+ b  阳光明媚的一天,友引市的居民们相继受到婚礼邀请函,但是男女主角令他们大为震惊。女方名叫埃儿,是某星球的女王,男方竟是那个宇宙最大花心男——诸星当。这一消息迅速在友引市流传,拉姆的支持者们对阿当进行严刑逼供,愤怒的拉姆更是大发雷霆,电光四射。殊不知一切源于十数年前,幼稚园时期的阿当游戏中踩到埃尔的影子,按照对方星球的规定,他在将来会成为埃儿星的驸马。为了营建心中理想的庞大后宫,阿当执意前往。而拉姆和她的朋友们也将展开一场夺回阿当的大作战……+ b- A) W6 Y4 _/ s) \

6 h2 R$ {! ]# x) e  本片根据漫画家高桥留美子的同名原作改编,是动画大师押井守首部剧场版动画。虽然高桥对该片颇多赞誉,但是押井守本人则认为此片是“完全失败之作,不过是一部大一点的电视动画片”。  q2 x4 k' ]  d% R' V1 s% _
0 f% x' K  n4 l
  When everyone in town receives invitations to Ataru's wedding, they are shocked to see that his sweetheart Lum is not the bride. Eventually they learn that when Ataru was playing games as a little boy, he stepped on a girl's shadow. Unbeknownst to him, the girl was from extraterrestrial culture where stepping on one's shadow is a form of marriage proposal, and now she and her family have come back to see that Ataru keeps his promise. If he manages to get out of this without being killed by her folks, he'll still have to avoid being torn apart by the hands of Lum.
) T2 ?' T. z" x
Video
! d! o, h0 i" a- CID                                       : 1
) Q1 E) t7 F! P% H3 Y( tFormat                                   : AVC- t9 I4 E: u5 d
Format/Info                              : Advanced Video Codec
% c$ m+ n2 M1 B* _6 MFormat profile                           : [email protected]
5 t5 W5 m  B( ~' U. s+ BFormat settings                          : CABAC / 4 Ref Frames
, z/ x' [$ \8 r% ?! ?# }Format settings, CABAC                   : Yes  E7 l  O) s# G& m8 ]
Format settings, Reference frames        : 4 frames
0 }' p) R& e$ ZCodec ID                                 : V_MPEG4/ISO/AVC
0 j! P9 f& F! H9 i3 QDuration                                 : 1 h 43 min
. u  V9 [) y  ?& a3 ?% |5 HBit rate                                 : 10.8 Mb/s
+ I1 |$ n. R: E4 J' N6 pWidth                                    : 1 916 pixels
& {5 k! C9 f4 H+ w5 M2 t0 o8 cHeight                                   : 1 036 pixels
7 z. {) ?+ h+ m. SDisplay aspect ratio                     : 1.85:1
2 V3 l% N; E( y: }9 V+ v, o) w. CFrame rate mode                          : Constant
8 {& Z3 e' q( o. f0 {. ?0 VFrame rate                               : 23.976 (24000/1001/189150) FPS& v1 V4 y% R; h" @5 O, N7 b
Color space                              : YUV: c, D# m8 X3 f
Chroma subsampling                       : 4:2:0
- s# H* L4 `( T2 X- S, nBit depth                                : 8 bits
+ ]; w* V9 L1 I6 IScan type                                : Progressive# X$ |2 [- }7 T+ u2 r
Bits/(Pixel*Frame)                       : 0.227
  }4 a: V8 `6 H1 s% o' CStream size                              : 7.84 GiB (91%)$ {+ l/ l! B4 R. L# m: Q5 T% Y
Writing library                          : x264 core 164 r3094 bfc87b7
1 g) e6 B% n) O! {* C: R3 {Encoding settings                        : cabac=1 / ref=4 / deblock=1:-1:1 / analyse=0x3:0x133 / me=umh / subme=10 / psy=1 / psy_rd=0.50:0.00 / mixed_ref=1 / me_range=32 / chroma_me=1 / trellis=2 / 8x8dct=1 / cqm=0 / deadzone=21,11 / fast_pskip=0 / chroma_qp_offset=-2 / threads=24 / lookahead_threads=4 / sliced_threads=0 / nr=0 / decimate=0 / interlaced=0 / bluray_compat=0 / constrained_intra=0 / bframes=8 / b_pyramid=2 / b_adapt=2 / b_bias=0 / direct=3 / weightb=1 / open_gop=0 / weightp=2 / keyint=250 / keyint_min=23 / scenecut=40 / intra_refresh=0 / rc=crf / mbtree=0 / crf=20.0 / qcomp=0.60 / qpmin=0 / qpmax=69 / qpstep=4 / ip_ratio=1.40 / pb_ratio=1.30 / aq=3:1.00
  W5 o/ M* P  i! D& v9 F  PLanguage                                 : English( x- ]4 q" d" J
Default                                  : Yes
. J: ^- \1 O$ s0 q) a9 {Forced                                   : No
% h% {  B% B% A5 j, b' \' \0 K( @Color range                              : Limited' P* X3 x# T. V$ l- j  u
Matrix coefficients                      : BT.7096 ^4 g8 R# s) j6 z7 B$ s
5 c* v! A: Y% ^" ^9 c+ ~
Audio #13 _$ @& E# w1 Y+ S  `; u
ID                                       : 2
. ~5 U' |' A; [Format                                   : FLAC
6 S+ B* n$ {% H& B5 f- l3 gFormat/Info                              : Free Lossless Audio Codec' H5 ]& {5 ]. O2 I4 c6 X$ I1 W
Codec ID                                 : A_FLAC
3 y# }  t  |3 WDuration                                 : 1 h 43 min
0 m/ U( w$ ?; a% K# h9 Q, T: KBit rate mode                            : Variable" v& p: H7 o/ v) ^$ p
Bit rate                                 : 476 kb/s
7 P6 a4 V4 ^1 P0 J1 PChannel(s)                               : 2 channels1 N) i* `5 O* X7 N4 s0 f: m/ c
Channel layout                           : L R$ {; c5 V: }; N0 I9 o
Sampling rate                            : 48.0 kHz$ o( T5 G3 g/ Z  M$ ?4 [- r
Frame rate                               : 11.719 FPS (4096 SPF)
4 C* a# B/ R, `6 i4 @; S9 q% @Bit depth                                : 16 bits4 J+ G2 r/ y! H' I
Compression mode                         : Lossless' W/ \+ w6 q: |
Stream size                              : 354 MiB (4%)# Q2 I& h% n% q' p- {
Title                                    : Japanese8 I9 j5 b+ v% T3 t  y' f8 ^2 |4 h
Writing library                          : libFLAC 1.3.3 (UTC 2019-08-04)
1 h' O& _7 R- {  @2 @" HLanguage                                 : Japanese! K8 G3 x! G5 E: n4 Y$ G" |% p8 h
Default                                  : Yes% U5 s7 W$ ~2 l6 g. Z( e
Forced                                   : No
& ]2 k  W; Z) U% L& ]  w( i- ^9 ?
Audio #25 R% z  L8 F: F) d" e! r# i! M
ID                                       : 3
6 b/ z5 u- k) H5 S' D1 jFormat                                   : FLAC) E, w3 O' Q* W' m5 J8 q: Z+ c
Format/Info                              : Free Lossless Audio Codec1 H4 T2 X& D# b
Codec ID                                 : A_FLAC% M7 d' Y" S& \- d! ^
Duration                                 : 1 h 43 min
5 y6 P. B7 I) P  W( ^; a/ E% PBit rate mode                            : Variable
# Z, ~8 [8 I! ^Bit rate                                 : 594 kb/s& ?( I# k% J& Z0 z7 v6 {) w$ I
Channel(s)                               : 2 channels8 a0 d2 w* Q$ b
Channel layout                           : L R
7 J- @  @# f7 p. i8 k" ySampling rate                            : 48.0 kHz
' t2 K0 q. [$ P. k" m$ ~Frame rate                               : 11.719 FPS (4096 SPF)" v' G$ a* i( u! T' V$ m
Bit depth                                : 16 bits
. Q3 m5 ^% A0 L; O8 _Compression mode                         : Lossless
7 H" s5 ?4 e- }# o  U$ p- B3 oStream size                              : 441 MiB (5%)- H( K- s. {# g& w1 ?% k
Title                                    : English( G# s1 f) ?/ F* ^  E* w
Writing library                          : libFLAC 1.3.3 (UTC 2019-08-04)
1 s  M7 j& A% w/ c/ z8 yLanguage                                 : English
, u* D7 c. R  H6 V# \" LDefault                                  : No- w4 A  F: q  z7 V1 u
Forced                                   : No! O& i7 t: n$ T6 L6 N( o* q0 s

7 u0 N3 S9 `3 x, A0 m& eText #1
' r/ Q3 C! E: Z7 B, M5 k" i0 |ID                                       : 4- h$ w0 {/ Y$ o4 ]1 @) _' Q
Format                                   : UTF-8$ l6 U# [. I/ C; [! {4 G
Codec ID                                 : S_TEXT/UTF82 C! P& I9 z# s7 q' n, K0 x/ Q. F' e
Codec ID/Info                            : UTF-8 Plain Text$ a  Z0 ?4 B; S
Duration                                 : 1 h 41 min9 ]. b1 d2 Z' p. B. T1 f# s
Bit rate                                 : 59 b/s
/ D- i# R) j6 C; i  p: i, KCount of elements                        : 11069 W9 O; m) p# D9 z- o' j) g
Stream size                              : 44.0 KiB (0%)% ^; n5 B$ g/ b5 s: }+ m: l
Title                                    : English Forced
3 g$ w! y( R! }. wLanguage                                 : English
/ P! p5 |% b# J. ~Default                                  : Yes
) G- u0 w$ I1 |, W# d5 hForced                                   : Yes
) ?. i+ J' o, K6 _. A! J7 c1 ^! ]; A3 m- x/ c
Text #2
% k3 |3 D( {. r& M, m4 n* h" g2 uID                                       : 5
/ S" g) i' u  W8 ?3 IFormat                                   : UTF-8! K3 n+ D/ ^4 i$ q( Q
Codec ID                                 : S_TEXT/UTF8
3 P2 D! p; y1 q% E% p( ?+ B1 t  zCodec ID/Info                            : UTF-8 Plain Text3 G3 ]! P* r, Z; l
Duration                                 : 1 h 41 min
2 h4 n. _' @9 `( H7 g, ~+ DBit rate                                 : 4 b/s9 }! ]4 `% ]# g4 [; ?
Count of elements                        : 75
$ b% q( Q7 Y" S4 ]! K6 qStream size                              : 3.18 KiB (0%)
2 }( w/ t  }" _3 M. hTitle                                    : English Forced for English Dub
7 ~5 ~! K) g6 Y& U# b! JLanguage                                 : English
" Q! x) g9 M) O% ?6 `; a! JDefault                                  : No
2 y9 A+ }  m& EForced                                   : No$ a2 m8 U! R: b8 p' o

- q9 a5 r3 r2 U2 g' xText #3( y! C' Z- N/ \9 Y# y: w
ID                                       : 6, V7 B6 I3 h* z" V) ^
Format                                   : PGS9 x% Y+ }/ ~4 m& k
Muxing mode                              : zlib
) S8 }* m! O. _( lCodec ID                                 : S_HDMV/PGS
2 J+ w1 `8 |4 P( vCodec ID/Info                            : Picture based subtitle format used on BDs/HD-DVDs
" f) @, Z+ @7 G1 m8 ?Duration                                 : 1 h 41 min/ v" T' C& V( g# Q& Y# Z
Bit rate                                 : 35.0 kb/s8 D/ S5 ?4 h) ?) `5 B3 z
Count of elements                        : 1762
3 n( D' {+ I( [( jStream size                              : 25.4 MiB (0%)
3 {$ \; |0 S* `0 ITitle                                    : English Forced* g( T2 O1 L7 L  c
Language                                 : English: P/ d# ^! D/ d" p( C
Default                                  : No
+ N8 B/ c7 x9 F% {+ mForced                                   : No) k* n$ D# q+ Y7 L' z

6 a+ @0 a8 N/ IText #4
6 c; F; N4 n1 U( f; e9 C+ mID                                       : 7# \1 u9 v1 E6 v8 O! L, H
Format                                   : PGS
5 C% v" [% J) y8 R  \# `1 pMuxing mode                              : zlib
1 \) h+ L6 ~, P) P$ @0 `( sCodec ID                                 : S_HDMV/PGS
8 C( A& }( s' N; w4 sCodec ID/Info                            : Picture based subtitle format used on BDs/HD-DVDs# [, z( \1 x( b8 d) \
Duration                                 : 1 h 41 min. {3 m! J+ P- ^: G8 Q! H
Bit rate                                 : 3 280 b/s. A" q! P" S$ X  ^, I# L; F
Count of elements                        : 178
5 h9 |1 k8 L! e" Q' u. f2 ^# @Stream size                              : 2.38 MiB (0%)
+ G6 u9 V1 o7 \; ^) qTitle                                    : English Forced for English Dub
$ r" ?9 l7 V* N$ f! c9 |Language                                 : English
7 m( u0 R2 ?6 KDefault                                  : No
' T+ e! Z" N2 H+ |8 |) }Forced                                   : No
. T9 d& L# f9 D; }: u. l
* B# k6 s7 `% Y4 r+ A/ C9 jMenu7 c+ D; m- r2 R
00:00:00.000                             : :Chapter 01$ k7 d( d; k) [% f5 {& o  G
00:06:04.322                             : :Chapter 02
0 t" E* E3 h3 Y4 w( p00:08:26.047                             : :Chapter 03
# i: B5 C1 z. T& Z00:10:50.775                             : :Chapter 04+ J* C. \: t, F, G  a3 ?
00:18:09.213                             : :Chapter 056 [' u, q* f2 F; ?- @5 V
00:26:14.865                             : :Chapter 06
$ Z6 e& W1 T' v3 [! I" {00:32:04.881                             : :Chapter 07  ?" C9 }! B5 s! s, p: Y
00:37:20.989                             : :Chapter 089 b3 _! B6 k" c: s! ^* L3 `
00:41:53.136                             : :Chapter 09
5 y4 U* m# C2 S00:49:36.891                             : :Chapter 10
* C. ~3 y! h: H9 [: o# ^7 O0 O( e00:55:53.517                             : :Chapter 11
' s5 Z% y' n$ `01:00:04.351                             : :Chapter 12
% [+ ?5 ~+ @; N5 y01:04:23.401                             : :Chapter 13+ |* B7 ^7 b: i  y/ {
01:09:55.358                             : :Chapter 14
! L. _: ]" l  |9 L! m, v8 [- j/ Y/ f01:17:14.505                             : :Chapter 15. s4 [) f& v6 }) K# m
01:26:25.347                             : :Chapter 16
$ B" T8 T; B% S! z01:29:56.641                             : :Chapter 176 [! J7 W/ v6 |  W
01:39:07.525                             : :Chapter 18
0 q$ K3 e3 H- r+ C3 |01:41:29.542                             : :Chapter 19
, M+ F: `/ W7 K9 ~* r" v4 `" i5 p' m& }
Details for Urusei.Yatsura.Only.You.1983.1080p.BluRayCD.x264-HAiKU 8.63 GB
% C8 H/ J# |9 E, _5 i: e* i
; y* S; _' Q  L# D. ~Duration : 1h 43mn# w% s: D& w+ v* }- P8 x
Video    : 1916x1036 @ crf20 10807kb/s 23.976fps (Source: 21887kbps)6 B2 J3 v+ n3 y2 ]9 C+ Q. u
Audio1   : Japanese 476kb/s 2ch FLAC
: o$ [' Y0 C" A( B: `. YAudio2   : English 594kb/s 2ch FLAC$ \" O0 a- v& _3 |$ K: p
File Size: 8834.78mb
, y+ Y2 f2 K% _Subtitles: English* Y; j; P. T! e
IMDB     : https://www.imdb.com/title/tt0086520
/ p4 D" r% o! w7 }6 b7 g$ ZInfo     : When everyone in town receives invitations to Ataru\'s wedding,
0 X  U- J; b- W# q* {; N( Pthey are shocked to see that his sweetheart Lum is not the bride.
6 }0 F1 R+ V+ U5 [Eventually they learn that when Ataru was playing games as a little
9 N0 L* T9 Z8 k( P! @3 iboy, he stepped on a girl\'s shadow. Unbeknownst to him, the girl was  n# s+ G( p; |$ ^& Z4 b
from extraterrestrial culture where stepping on one\'s shadow is a9 G& g& O1 [& A# k9 A
form of marriage proposal, and now she and her family have come back
$ [! U4 P" ^0 M; Q' L* Tto see that Ataru keeps his promise. If he manages to get out of this
; `: S) d. b9 B5 ?without being killed by her folks, he\'ll still have to avoid being torn
/ I0 _- p0 N  _/ Q' `apart by the hands of Lum.! h& x* D) G; N; p1 a: d# g+ K* ~9 V

( R( ?& o, v' D) e5 ^L O O K I N G    F O R
; J$ o+ `. G0 A: m
7 Z1 B5 a7 I& y4 r/ Y1 n. h* 100mbit+ sites for exclusive group use
, L. Z: C" m5 b* 100mbit+ dedicated (anime) archives+ V6 e# M$ S9 T: ~$ Y
* retail suppliers from au/ca/jp/uk/us' u' X  j2 A4 o) {* F; Z5 U) V
* crunchyroll/funimation rippers
2 ]' e! H" _7 }8 G+ Q. K# s4 A! T, b
游客,查看本帖隐藏内容请回复 | 加入VIP可免积分免回复 了解详情 | 还不是会员:点击获取邀请码 Invitation Code

31

主题

2549

帖子

1万

积分

Sponsor

金币
1803 枚
体力
6847 点
QQ
shiji1973 发表于 2022-7-5 09:09:27 | 显示全部楼层
沙发是抢的而不是占的!
2 F/ f/ ?# ~" ]* s* G& }The decisive Replies sink is I get the sinking feeling great sense of accomplishment!
+ |5 P( x1 M& O5 ~2 T: Q

3

主题

601

帖子

2565

积分

Sponsor

金币
588 枚
体力
874 点
211 发表于 2022-7-7 07:09:21 | 显示全部楼层
Bluraycd又有新电影发布了,激动中……!
9 T* H$ y1 d% h# q4 ]Your resources, well, I am very satisfied!5 u  l2 F& t4 \' h

本版积分规则

小黑屋|Archiver|4K蓝光论坛

GMT+8, 2022-12-4 09:02

Copyright © Tencent Cloud.

快速回复 返回顶部 返回列表