BluRayCD Forum

 找回密码
 立即注册【分享大片】
查看: 148|回复: 13
收起左侧

[蓝光原盘] 奇异博士2:疯狂多元宇宙 [REMUX无损版] Doctor Strange in the Multiverse of Madness 2022 1080p BluRaycd REMUX AVC DTS-HD MA TrueHD 7.1 Atmos-FGT 43.76GB & 36.35GB

[复制链接]

8906

主题

9100

帖子

7万

积分

Forum Moderator

金币
13283 枚
体力
12363 点

卓越贡献勋章

24小时 发表于 2022-7-5 17:37:52 | 显示全部楼层 |阅读模式
Dr. Stephen Strange casts a forbidden spell that opens the door to the multiverse, including an alternate version of himself, whose threat to humanity is too great for the combined forces of Strange, Wong, and Wanda Maximoff.& u% K& O3 n  O3 D% ^' D  \

5 l4 ^4 g1 Z" F" Y9 ~ 01.jpg
% r8 H: C4 X. |" U% c
" ]1 O* d4 I1 m◎译  名 奇异博士2:疯狂多元宇宙/奇异博士2:失控多重宇宙(港/台)/奇异博士2: 失控多元宇宙(港)/斯特兰奇博士2
% L/ B7 k. S2 A9 c0 k# Z9 ~' H◎片  名 Doctor Strange: in the Multiverse of Madness / Doctor Strange 2  
1 G) z  K& l9 H' E◎年  代 2022% F% J9 m- n4 v4 T
◎产  地 美国1 B6 n  k& X! v- p1 F! i
◎类  别 动作/恐怖/奇幻/冒险7 `% Y& m" v0 q5 V' M% z+ L
◎语  言 英语, G1 F- _  O2 `* x2 ^; K1 T/ A# Z
◎上映日期 2022-05-04(中国台湾)/2022-05-06(美国)
3 ?' k, y$ h: S. E4 m◎IMDb评分  7.1/10 from 278,326 users
( w* ^) }- v* q$ `8 W# z◎IMDb链接  https://www.imdb.com/title/tt9419884/$ g+ T6 X# x! j% N3 c- H# i
◎豆瓣评分 6.4/10 from 141,306 users
* `$ K& b6 N4 f+ N◎豆瓣链接 https://movie.douban.com/subject/30304994/: q- d  V; l! N* h% ~( j( T4 L
◎文件格式 x264 + DTS + TrueHD  ) z' B2 J- |! v
◎视频尺寸 1920 x 1080
/ Y: b7 d) f" _. H% d( S' ?+ Y◎文件大小 1DVD 43.76 GiB & 36.35 GiB
' q; M; j4 x6 D* i  ?6 G4 O$ |) B◎片  长 2 h 6 min) p$ k8 Y$ [# @
◎导  演 山姆·雷米 Sam Raimi5 b0 n8 A1 g! i% }$ O1 O
◎编  剧 迈克尔·沃尔德伦 Michael Waldron
# d2 I6 |: O  V3 V       杰德·哈雷·巴特利特 Jade Halley Bartlett  
/ [* q  Q3 N; Q  O  [* j. v; b       史蒂夫·迪特寇 Steve Ditko
% g; ?+ i+ D; `( C! V  m       斯坦·李 Stan Lee+ |# a! W1 i: y/ a
◎主  演 本尼迪克特·康伯巴奇 Benedict Cumberbatch- L; m5 X3 m& s( G3 X
       伊丽莎白·奥尔森 Elizabeth Olsen; {) W9 @* R+ k! h4 c- P1 a
       切瓦特·埃加福 Chiwetel Ejiofor
* H4 U' k5 L* ]' r& h$ v& y       本尼迪克特·王 Benedict Wong. Q4 a0 P. N& w7 q  V
       克索斯利尔·戈麦斯 Xochitl Gomez
7 c$ r7 i. ?" r5 j       瑞秋·麦克亚当斯 Rachel McAdams7 f/ j5 d! y& `  q  n' n
       迈克尔·斯图巴 Michael Stuhlbarg
* c  k9 Q& P+ _; I+ w       帕特里克·斯图尔特 Patrick Stewart
' U" x4 Q' t0 {' T8 I       海莉·阿特维尔 Hayley Atwell
/ A/ v& \; I8 S2 T* h6 {3 H/ I& o       约翰·卡拉辛斯基 John Krasinski! ]) V9 J* J& R- _4 H7 ?
       拉什纳·林奇 Lashana Lynch
0 h, q$ n& K! Y$ N9 G  g  \- [: \) g       安松·蒙特 Anson Mount
# p0 j8 s' J3 b8 L0 L       查理兹·塞隆 Charlize Theron3 s* N0 }& b& i+ p2 A% j* ^) G) B
       希拉·阿蒂姆 Sheila Atim; j) \4 c' r. ~. X0 {
       亚当·赫吉尔 Adam Hugill
4 h+ T+ l. C0 N/ f1 B" g$ d, ]: y0 c       亚子·米切尔 Ako Mitchell
! W( l: U# p% ^6 c1 \, \/ E       杨沫沫 Momo Yeung0 v  g7 Q. S- ~& W) e# z. V
       丹尼尔·斯温 Daniel Swain0 q" S5 H! i4 ?) ?, ^# |4 a
       多波·雷斯尼怀罗 Topo Wresniwiro
; f7 ~& P7 k% Q$ {: K       伊登·纳森森 Eden Nathenson& l7 W& D) v/ o
       维尼·莫利 Vinny Moli# A- t- D* i$ ~# f7 H
       大卫·谢 David Tse
% v4 l; V# w% F  S; ~2 ]: z       乔丹·亚历桑德拉 Jordan Alexandra# ]# M) z+ ?3 S3 p! i' o
       迈克尔·沃尔德伦 Michael Waldron* S/ J, L5 e7 q6 m1 D' X! `$ I
       朱利安·希威德 Julian Hilliard8 d% _# J0 x0 R% R2 R: T) @
       杰特·克莱恩 Jett Klyne5 p  C' m% r  K2 x8 X( r
       布鲁斯·坎贝尔 Bruce Campbell' j) T  T8 W4 q
       马里安·洛伦西克 Marian Lorencik
, X1 d2 V  G9 B8 u6 \* L
3 _3 W+ e; ^' F5 S◎简  介   " \* A& h* E: U  f+ h7 X, k
. F+ _, N8 V3 V6 e* w3 Z
  充满无限未知的疯狂多元宇宙即将展开,一切皆有可能。& G. t9 e5 k! Q* m! B3 p
4 q+ d3 r$ ]1 }( Q
  Doctor Strange teams up with a mysterious teenage girl from his dreams who can travel across multiverses, to battle multiple threats, including other-universe versions of himself, which threaten to wipe out millions across the multiverse. They seek help from Wanda the Scarlet Witch, Wong and others.
( X: L5 ~* B0 `6 ?4 f! ]7 k* |
Doctor.Strange.in.the.Multiverse.of.Madness.2022.1080p.BluRayCD.REMUX.AVC.DTS-HD.MA.TrueHD.7.1.Atmos-FGT
  x1 A3 k" n& p4 }3 G, Q8 S% P7 S" T  Z
Video
( D8 n2 N' G2 O8 SID                                       : 1" r3 X( y1 q  M" R1 I
ID in the original source medium         : 4113 (0x1011): q) C  k9 f; B2 g. d; X
Format                                   : AVC
5 l% \/ y+ I. U- c+ d* BFormat/Info                              : Advanced Video Codec# p2 ?) Z" p: I* [4 }% `
Format profile                           : [email protected]
0 k9 E0 K  Z0 x) n! PFormat settings                          : CABAC / 4 Ref Frames& n3 `2 o# G+ R) }; v; _1 y# ^3 T
Format settings, CABAC                   : Yes: L5 X, ~+ S' v, e) \1 V2 Z0 y
Format settings, Reference frames        : 4 frames; O& S8 w: X' n$ U6 G
Codec ID                                 : V_MPEG4/ISO/AVC
. M- `! L) H) Z& l  e5 _+ C9 jDuration                                 : 2 h 6 min( z2 h, d7 F' w  }
Bit rate mode                            : Variable  J+ J5 {7 e( L9 {# n% j, H
Bit rate                                 : 33.3 Mb/s! k% o: m- x$ o. N, s, O
Maximum bit rate                         : 36.3 Mb/s! k- n* Y9 ~: X" Z& L+ g; y
Width                                    : 1 920 pixels4 I3 f3 `5 Q  n+ E+ U. \$ s1 N
Height                                   : 1 080 pixels
! ^5 V9 K3 ]1 @& [- }Display aspect ratio                     : 16:9
1 y. N5 O: C5 R# I) M* QFrame rate mode                          : Constant
/ U+ ~( `" Q' Q8 o7 _Frame rate                               : 23.976 (24000/1001/189150) FPS: L, c% O, B- Y
Color space                              : YUV8 J: z/ z) \1 [* L- J: w" b# R" I
Chroma subsampling                       : 4:2:0
# w+ q  }) ]4 y' R# J) XBit depth                                : 8 bits. |2 K& V4 }+ g1 l* Y3 K' n3 E% y
Scan type                                : Progressive
! B+ b) r% ]/ g7 a0 z( FBits/(Pixel*Frame)                       : 0.669% O# k" W% ~1 C8 Q8 V& j
Stream size                              : 29.4 GiB (67%)+ i% l% y& Q9 c/ g/ a" g# V; H- r
Language                                 : English
( F) a. \" }7 E% M3 g1 a0 B6 k/ yDefault                                  : No
+ l- {" T/ R$ ?Forced                                   : No# V% k8 p  \+ C- o# W; p
Original source medium                   : Blu-ray) |0 l! D5 Q' k) Q

" m( b4 u) z* @# D7 E4 gAudio #1
  n/ V: J/ I* ZID                                       : 2, L! @" Y4 |1 l' U+ y# j
ID in the original source medium         : 4352 (0x1100)9 y, y! n/ G3 s& U& }
Format                                   : MLP FBA 16-ch
1 k/ Y; K2 z' DFormat/Info                              : Meridian Lossless Packing FBA with 16-channel presentation
, C. a. Q+ k! T/ B1 ?Commercial name                          : Dolby TrueHD with Dolby Atmos% v+ E9 d* P6 ]6 P
Codec ID                                 : A_TRUEHD
) c/ X+ {8 X0 VDuration                                 : 2 h 6 min! _# n/ W- d3 Z& w& ?6 y
Bit rate mode                            : Variable% k! s8 ~2 o4 n% s
Bit rate                                 : 4 419 kb/s7 s: j0 L8 ?" ~% @2 g' U! G3 N
Maximum bit rate                         : 7 824 kb/s) g- \, ~) C& r6 G
Channel(s)                               : 8 channels, A# t) D1 f1 }4 Z* J* d. t* l
Channel layout                           : L R C LFE Ls Rs Lb Rb
# B0 B  v1 o6 F3 E2 c0 oSampling rate                            : 48.0 kHz: F, F# s' O2 p
Frame rate                               : 1 200.000 FPS (40 SPF)' c, Y% q6 W, C+ h
Bit depth                                : 24 bits9 |2 K+ P: m7 q' U
Compression mode                         : Lossless' @4 _1 {6 O2 g
Stream size                              : 3.91 GiB (9%)9 e+ u" a2 j1 a* |
Title                                    : TrueHD 7.1 Atmos
6 Y' A$ W5 h4 s: Z9 z: N) {. U' u4 b. uLanguage                                 : English
% g7 B3 _# o2 D7 o% p: b% s% C0 F/ QDefault                                  : Yes: J% L( D  g. R+ r2 C% q/ H
Forced                                   : No
! V" ]$ d* \% z5 S! x! H. P% ?Original source medium                   : Blu-ray2 s2 \9 W6 [; |' g$ }' p# ?
Number of dynamic objects                : 132 T4 {" l, q% j  @* Q* t* \
Bed channel count                        : 1 channel
0 n( ?- r  D" kBed channel configuration                : LFE
, ^" g8 P% _( E( x# b/ M3 z5 s7 I& \5 z
Audio #2+ R$ p, k0 F; U* b! L
ID                                       : 3% [: i; W. ]* [) u* A; O
ID in the original source medium         : 4352 (0x1100)3 t- ~: m: ^0 ?: E8 X* z# A
Format                                   : DTS XLL% U5 ~4 O$ k6 C" n, ?: r
Format/Info                              : Digital Theater Systems$ X+ S% w" H8 b( M+ M
Commercial name                          : DTS-HD Master Audio
4 X4 P. y( T- {8 P3 F( SCodec ID                                 : A_DTS
4 ~! }- u- A3 p9 q, t' o2 \5 kDuration                                 : 2 h 6 min, Z7 y, o, z& N5 J
Bit rate mode                            : Variable# |+ ^  D6 Y* W1 V
Bit rate                                 : 4 923 kb/s
4 O7 O) Z( I9 f  x3 nChannel(s)                               : 8 channels
) c- y0 X6 Q" P( F# D4 NChannel layout                           : C L R LFE Lb Rb Lss Rss) q8 X0 D- G6 R: V
Sampling rate                            : 48.0 kHz
. K0 D$ a' L* Y( {1 aFrame rate                               : 93.750 FPS (512 SPF)3 Y4 ^6 [2 P- Q$ z8 |* T' F/ i7 E/ C
Bit depth                                : 24 bits" ?* D" Z% P3 M, w$ L/ e
Compression mode                         : Lossless
; V% D, u3 A3 Q& dStream size                              : 4.35 GiB (10%)6 T; ?6 [4 x& O0 Y/ A9 z$ H0 [# P
Title                                    : DTS-HD MA 7.17 E$ v1 t0 u3 i
Language                                 : English4 ?# B) a! F1 x& S6 E( |
Default                                  : No
. O1 K# [: _; F4 e* m) T4 ]9 K3 D' AForced                                   : No
, \( v$ M1 o' ~# k, E) `Original source medium                   : Blu-ray
7 z% H8 y$ Z0 F. C; R2 j
  V4 q9 t* b- L5 v! vAudio #3
1 O- k6 Z1 ?- w& RID                                       : 4/ f3 c! {" R1 V# a
ID in the original source medium         : 4352 (0x1100)
; t/ L4 v) s$ o7 _: \; |$ K' eFormat                                   : AC-3
1 r! b& l5 W! `6 u0 H$ f! T0 o  vFormat/Info                              : Audio Coding 3
1 L0 d' s( n# ], l( ^  c- k- N+ gCommercial name                          : Dolby Digital* c* r; d+ [! u$ W  K/ G
Codec ID                                 : A_AC3+ {0 F: f- o* A
Duration                                 : 2 h 6 min# j( D7 \+ B' r2 X& B  v2 q
Bit rate mode                            : Constant
" _" c$ p, \5 B- G( {Bit rate                                 : 640 kb/s7 z: U0 Q' @4 Y+ A4 _5 W1 o
Channel(s)                               : 6 channels, {& f$ E$ }0 ]- H5 n4 S" m
Channel layout                           : L R C LFE Ls Rs0 ~, V! h* i, A, `/ T
Sampling rate                            : 48.0 kHz" Y/ ?5 V3 l) A; r5 @
Frame rate                               : 31.250 FPS (1536 SPF)5 j; `% u6 l3 y0 C
Compression mode                         : Lossy
% G. u; Z6 O$ wStream size                              : 579 MiB (1%)  n- C  o* N) y$ h0 T( X
Title                                    : DD 5.1
) w8 `7 V; o5 z2 k% z8 jLanguage                                 : English
* G, A" c& m. L0 r7 IService kind                             : Complete Main! G7 s' H' M$ m
Default                                  : No
; V* u- y" ]+ C$ u* \+ dForced                                   : No6 }  }- g, B  U1 W
Original source medium                   : Blu-ray' X7 K' a3 {) P$ c+ {2 {( q

& S1 g; B9 s0 e- yAudio #4
5 I$ Y+ e# B( c0 LID                                       : 5
( g% |$ `" V- Q; j8 O+ kID in the original source medium         : 4353 (0x1101), J/ Z* w$ E# w, ^0 w2 F! c
Format                                   : AC-3* H% U7 e7 u5 w
Format/Info                              : Audio Coding 3
0 e+ M5 E' {/ [% S, d1 nCommercial name                          : Dolby Digital0 }  y9 f, h: [' G
Codec ID                                 : A_AC3
: t; D4 A" u; s6 pDuration                                 : 2 h 6 min1 n6 B5 w4 p/ ^8 z3 f, W
Bit rate mode                            : Constant
6 r- J9 x3 E4 U: \) q+ x4 P$ lBit rate                                 : 320 kb/s
: J) z* V. c. I! f& CChannel(s)                               : 2 channels2 L. @7 O5 b# f9 ]
Channel layout                           : L R
" @+ c+ {/ \( B$ C! f& y4 |Sampling rate                            : 48.0 kHz$ @* k% C+ U! [
Frame rate                               : 31.250 FPS (1536 SPF)$ K1 F  p2 T" z
Compression mode                         : Lossy- s5 z0 _; j# Q2 \! H
Stream size                              : 290 MiB (1%)) Y- ]  b9 I  G# s5 W
Title                                    : DD 2.0
, n% k4 }% ~: ~+ G( K" \Language                                 : English6 m: K3 T, O$ }3 }+ A
Service kind                             : Complete Main8 |+ I1 B1 D) C) ^' G
Default                                  : No- [9 \: W% u# v6 ]2 H
Forced                                   : No
, u) x4 A- u+ [: `Original source medium                   : Blu-ray
* f. H2 c/ T1 {, q+ A1 V5 @4 q
9 P9 R( }& a5 D7 S$ l* z+ mAudio #5% n5 h5 Z0 k& r+ W( U
ID                                       : 68 D& K4 b  u0 Y! q
Format                                   : E-AC-3: [! Y2 G: p! C# g4 ~( _
Format/Info                              : Enhanced AC-3
  {8 o$ j" M; V/ }5 |) I$ mCommercial name                          : Dolby Digital Plus
0 g4 J/ J  }8 I  a% U, @2 d+ [Format profile                           : Blu-ray Disc
* S8 t+ m* Z6 R1 l# Y+ _Codec ID                                 : A_EAC3
8 x& y7 V% Q/ _Duration                                 : 2 h 6 min: Q+ ]4 r- C7 Q; N) u; B
Bit rate mode                            : Constant
' d' z9 _1 K. i# G* p5 RBit rate                                 : 1 024 kb/s
+ V5 t) {8 \5 jChannel(s)                               : 8 channels
+ @  x) \! j* p, v' F& cChannel layout                           : L R C LFE Ls Rs Lb Rb' f$ V, r! W* U; m
Sampling rate                            : 48.0 kHz8 [5 m6 m, X4 u
Frame rate                               : 31.250 FPS (1536 SPF)5 M* G4 L/ a2 Y7 t6 O0 f
Compression mode                         : Lossy
% B- _5 f2 y: w. e6 ?4 tStream size                              : 927 MiB (2%)
4 U2 ?; d8 M, OTitle                                    : DDP 7.1* }0 ?" A+ e' D  z  T: n
Language                                 : French
% Q. i; _" r) B) m5 t, yService kind                             : Complete Main- b; \. Y. N- `  j( \, ~8 |
Default                                  : No8 V! Y/ x( v2 I( r+ p
Forced                                   : No
! t" m( L' _, z  F2 F0 u% q3 O. |% p; ^# ]' D
Audio #6/ Z$ x8 ]+ g* P. }# q
ID                                       : 7
4 x: r" P/ m" U$ `ID in the original source medium         : 4355 (0x1103)& B9 p# @3 B: _7 h$ `) k* f
Format                                   : DTS
& \" w' Q; @/ B; vFormat/Info                              : Digital Theater Systems
8 T0 g4 z. s& [. x! U: r; cCodec ID                                 : A_DTS
% ?( c2 ~  B! T: q! m4 XDuration                                 : 2 h 6 min. u" B7 z0 h# t6 ]. o- y( x- D
Bit rate mode                            : Constant
  s& D5 Z' ?- k5 [$ |; fBit rate                                 : 1 509 kb/s, I8 d% g; P4 N4 ~% @$ E3 D9 v
Channel(s)                               : 6 channels" X% s) z1 j0 ?
Channel layout                           : C L R Ls Rs LFE
8 `* @( @  `' E* o9 L3 k" n3 sSampling rate                            : 48.0 kHz  k: R" u: i0 E/ P
Frame rate                               : 93.750 FPS (512 SPF)
+ E* Y& F4 j6 [$ E3 h' RBit depth                                : 24 bits. x2 [4 l: |6 H5 ?2 _9 M
Compression mode                         : Lossy# G2 q- \1 C) Z2 u' h/ a
Stream size                              : 1.33 GiB (3%)+ x5 \2 y) |$ _. x3 j0 K. [6 x
Title                                    : DTS 5.1
  x4 ]/ k- o# a) H5 dLanguage                                 : Spanish/ X6 H8 c0 [* [6 X8 k0 q# z
Default                                  : No0 j( ~; \0 s  j& ?" z/ Q
Forced                                   : No
0 V" F" @7 b( X) y* e+ e; Y! WOriginal source medium                   : Blu-ray
, `# N8 N, M' r, T! }; G5 z. M8 J; C% t/ t+ e0 L' }
Audio #7
5 e) f4 q) @6 \" t. S! D2 mID                                       : 87 T5 v' s& X* a0 p$ P
Format                                   : E-AC-3
7 K; w2 l9 C0 y' cFormat/Info                              : Enhanced AC-3+ K& T) z; D; I9 `5 N# t* q6 D2 {
Commercial name                          : Dolby Digital Plus
' H. T# k3 u6 l; mFormat profile                           : Blu-ray Disc
3 M1 L4 T/ ^& o! J% d; K" ~Codec ID                                 : A_EAC3; a# X+ ?% j% K9 \" n; Z
Duration                                 : 2 h 6 min
, Z7 y; |& @8 G/ iBit rate mode                            : Constant
2 B( U9 W8 I+ H8 VBit rate                                 : 1 024 kb/s$ j0 P. b( r9 ]
Channel(s)                               : 8 channels; X4 e- R! ?* r8 P4 P/ W; @
Channel layout                           : L R C LFE Ls Rs Lb Rb
6 [8 a' u, e/ \) B( `( S, r8 }+ HSampling rate                            : 48.0 kHz: \% k- e. X" ^9 `0 M
Frame rate                               : 31.250 FPS (1536 SPF)
$ t6 c3 E/ F4 C2 E1 |$ _5 ^Compression mode                         : Lossy
% Y6 p1 I: @* b) iStream size                              : 927 MiB (2%)2 K& k9 Z; q0 l6 _
Title                                    : DDP 7.10 t  P; S1 I) r( m3 o9 C. M. o
Language                                 : German: T. r' |; l3 d" p0 `6 s3 h
Service kind                             : Complete Main- `& N5 o) \' s8 K; u& _6 |! K
Default                                  : No
8 J- l3 y. ?. C6 L4 jForced                                   : No  X, U" j2 R$ _+ `- j
8 X; `& _( N' g% x
Audio #8
* L$ `% z! P5 YID                                       : 9
9 C6 q9 \8 I( @" D0 g) C- B$ KFormat                                   : E-AC-34 |& k6 R! D- T2 z5 L; L0 l) [# R
Format/Info                              : Enhanced AC-3
6 X; f: ^$ Z  L1 h  GCommercial name                          : Dolby Digital Plus. N1 K! k* n$ o7 g1 j5 R& n
Format profile                           : Blu-ray Disc  H( p& I* D  s, w: B6 u5 z) [7 A: j/ @+ `
Codec ID                                 : A_EAC3
8 l" p9 ^) A/ Q4 T0 KDuration                                 : 2 h 6 min1 _+ e' q8 z/ q. e, Q! H
Bit rate mode                            : Constant1 V* y& c. i& Z! J0 \
Bit rate                                 : 1 024 kb/s) j  E* V8 _: X) S
Channel(s)                               : 8 channels
. x9 [" g7 T: h4 L* G( ^- LChannel layout                           : L R C LFE Ls Rs Lb Rb$ _- z: O8 B3 j$ y0 G
Sampling rate                            : 48.0 kHz
/ t8 ^3 G3 s  z9 eFrame rate                               : 31.250 FPS (1536 SPF)
3 U3 R8 |! a8 }! \Compression mode                         : Lossy
9 I8 L/ f  t% s: f5 F/ X4 vStream size                              : 927 MiB (2%)5 O8 g/ z+ C3 {5 p9 e( o% V6 c
Title                                    : DDP 7.1/ d1 D( i4 [7 ^
Language                                 : Italian# S7 |5 t9 Q+ x6 W! f
Service kind                             : Complete Main
, F  j2 i! p3 f! I) {* ?2 wDefault                                  : No
4 l) b3 u/ N9 S2 s, _0 H2 FForced                                   : No8 A7 V. h9 Q8 U* L* Y+ u$ w

0 d- g- }/ g5 |& x; I( k% TAudio #98 m" M- q8 x4 f2 N6 S! Q3 r5 \
ID                                       : 10
) H9 l3 Y" o" xFormat                                   : E-AC-33 @' H- {$ Z& `$ k' B5 i
Format/Info                              : Enhanced AC-3; |, y, Z, `8 V+ w2 p6 M6 x* z
Commercial name                          : Dolby Digital Plus
5 Q5 v. m  t9 a+ p2 V' |4 L! XFormat profile                           : Blu-ray Disc- R, G+ V  B) D5 F. C, {3 Z, f8 Q
Codec ID                                 : A_EAC3& a# ]! `' k  I
Duration                                 : 2 h 6 min" o/ r+ D% G' c' x/ z
Bit rate mode                            : Constant
" ~; w3 Y& `$ f5 y0 F, FBit rate                                 : 1 024 kb/s( O3 l7 f& Z, O& f
Channel(s)                               : 8 channels8 P  \! m* u# W+ i! M+ d
Channel layout                           : L R C LFE Ls Rs Lb Rb% `8 L5 y6 Q; s3 ^/ D
Sampling rate                            : 48.0 kHz, t! ~* Y' q. \1 J! P  V/ K! x
Frame rate                               : 31.250 FPS (1536 SPF)$ k9 ^% h6 p7 I2 j* s2 k
Compression mode                         : Lossy
5 @1 w' t0 b) h* Z- C+ v/ IStream size                              : 927 MiB (2%)& v- I# E( o# O
Title                                    : DDP 7.1  k- t/ g) V% n" u6 A6 N
Language                                 : Japanese
1 ]* r, h* E7 d8 @$ i1 m) _Service kind                             : Complete Main
" Q& k, n( w/ O8 w5 B; n0 ?/ mDefault                                  : No  a% R3 O% C- a, L3 X
Forced                                   : No- `( I8 H8 F8 \

* ]1 ?+ r) A! B* T, P0 fAudio #10, y/ R" n, T) G  c
ID                                       : 11
4 f; O/ x6 X4 A2 zID in the original source medium         : 4356 (0x1104)
" M/ O* K2 W# J& b: c3 n# \Format                                   : AC-39 E: F& t  `( c4 e0 G
Format/Info                              : Audio Coding 3; x+ N  \3 t5 t( e/ L
Commercial name                          : Dolby Digital( f* w% ~( H9 X& Q& K" J3 f  @
Codec ID                                 : A_AC3
; \) d  T" `, Y0 PDuration                                 : 2 h 6 min
+ j$ D3 |8 J* n4 r, B6 f! @0 wBit rate mode                            : Constant0 l9 Z4 A/ m) p; e' h. k3 h# p
Bit rate                                 : 192 kb/s8 Z# c$ Q* I/ M* o8 ?
Channel(s)                               : 2 channels
' B1 \, H6 [4 h) UChannel layout                           : L R
, Y" J% d3 G  z5 }Sampling rate                            : 48.0 kHz7 @6 w5 G; R% o2 d3 |0 p1 P
Frame rate                               : 31.250 FPS (1536 SPF)
6 j! s( o7 X% v& M/ mCompression mode                         : Lossy
- R. v: w7 r2 k' S* [8 S: PStream size                              : 174 MiB (0%)
- A5 Z9 Q1 z3 dTitle                                    : DD 2.0  i6 i0 ^+ o! h
Language                                 : English
9 J! q. C7 [6 hService kind                             : Complete Main
6 m- L' R& E, \! YDefault                                  : No
+ n& q" _0 C4 g) x# M$ YForced                                   : No3 J: z* W6 @( G; N! z
Original source medium                   : Blu-ray+ P8 G1 p) Z8 P6 W

+ ]6 v2 S" P  {& B3 H0 p% bText #1
  L8 t  c2 C% g4 A) @$ z7 K, f8 n& iID                                       : 129 B9 d4 V$ P7 |2 M4 t
Format                                   : UTF-8# w) M% T) C: t& Q' K$ x$ m
Codec ID                                 : S_TEXT/UTF8& z* {; v5 i8 U& Q9 n9 t' d: Q% t
Codec ID/Info                            : UTF-8 Plain Text5 V1 q# M3 E+ ~6 G$ ?, z0 B. o
Duration                                 : 25 min 9 s
$ E. J  @; B  U" C; j( T2 XBit rate                                 : 1 b/s
8 |5 S: ~7 k4 e# L) m8 j) C) ]Count of elements                        : 9: h- ~3 M3 b6 a
Stream size                              : 265 Bytes (0%)
# T" I* m# {$ XTitle                                    : FORCED' `9 I. s! g2 J5 x3 ~
Language                                 : English9 \; ]) D) h  H# J* S2 J! @5 C* }1 O
Default                                  : No
& c9 t5 g* k3 z7 d' ~Forced                                   : Yes
" P2 }+ z  s( |, @! V4 u+ |$ ?4 u  h7 L% \9 D% Z  {) T
Text #2
( W: a: T( x0 r8 T* I* k/ o# _: \+ V+ uID                                       : 132 V# Y+ h0 r+ P# b3 m/ e
Format                                   : UTF-8  z! @! T0 b0 U# O/ U) N+ w, C
Codec ID                                 : S_TEXT/UTF8' Q) A0 l. s) l' Q: t2 r' Y2 Y4 e5 n
Codec ID/Info                            : UTF-8 Plain Text
. k' E8 I' L& V- `: uDuration                                 : 2 h 5 min' m* g% b" t4 h: }! ?$ L2 \
Bit rate                                 : 38 b/s
+ m- ~4 q- L  D2 w7 I/ ACount of elements                        : 1308
: c  l/ w3 p6 l+ G+ f, QStream size                              : 35.6 KiB (0%)- T/ P# v5 Z* R3 i$ @
Language                                 : English6 S4 i( F! B: j2 u/ @! L
Default                                  : Yes: h" i6 Z& v6 J( a! A9 k
Forced                                   : No
* m# x( G# Q1 u7 P6 G9 s8 M! D% c) A+ _% b$ w! S
Text #3
+ {; Q. F8 r+ ?/ P* p: O. CID                                       : 14
3 q1 }! t" Q7 h8 W9 UFormat                                   : UTF-8" T2 j) k2 ?2 H# O1 S' y- I
Codec ID                                 : S_TEXT/UTF88 v' s. f/ e0 ~5 k. w( u+ X
Codec ID/Info                            : UTF-8 Plain Text
$ \* P9 n0 {' @, v* p2 V$ jDuration                                 : 2 h 5 min6 N0 s1 f9 v1 T; ~5 v2 w6 v: v
Bit rate                                 : 50 b/s  T8 b7 e1 s/ ^/ z. ?9 J
Count of elements                        : 1892
3 r: X8 \# n' o  v" n+ IStream size                              : 46.2 KiB (0%)
: c6 \2 F; V% o  F: dTitle                                    : SDH
8 i. P; a5 v1 W$ a0 ~6 ULanguage                                 : English
1 K! g2 J+ ]! |# Q& pDefault                                  : No
8 _% z* `+ o4 X2 V, o: QForced                                   : No: U% [$ [6 n9 J8 u2 A8 Y
- c5 d8 d8 v8 J8 x
Text #4
# |& P, W. _% k! R' uID                                       : 15
8 n! [  K% j, O# L0 o( g. s  ^ID in the original source medium         : 4768 (0x12A0)
' D8 Z! ~% E) K4 y8 b! u6 @Format                                   : PGS4 d' H: s2 A) ~7 }4 ]4 v) O/ b
Muxing mode                              : zlib
+ m* y3 P) y' N" |+ R1 z9 BCodec ID                                 : S_HDMV/PGS4 T; J- X+ y% D# G0 H# w
Codec ID/Info                            : Picture based subtitle format used on BDs/HD-DVDs
( e7 ^0 R: e3 B% I% kDuration                                 : 2 h 5 min
4 h8 G2 `- |1 G" [( [( Z, S' MBit rate                                 : 35.5 kb/s
' {  t$ u, Y8 wCount of elements                        : 3813
4 _( @/ S7 j5 H8 G4 E4 U6 x  X! J7 Y- {Stream size                              : 31.9 MiB (0%)" l/ L5 m8 s* @5 A/ [
Language                                 : English! J% `( a" n" |; ]
Default                                  : No! I( E. O; O0 }" i) M( I
Forced                                   : No
/ D2 d. ~0 \' l( F' oOriginal source medium                   : Blu-ray' R. I$ `- J! ]* ~: `( k6 o
( D8 l* Y* _. ~6 a4 I+ n" i
Text #5
& g' g1 Q% M; c- D: T+ aID                                       : 165 E$ L: [6 U6 C9 A2 C0 ^, ~: a' F
ID in the original source medium         : 4769 (0x12A1)
, G3 k( f* q2 T" TFormat                                   : PGS# R- t! ~4 l2 k/ d6 u
Muxing mode                              : zlib7 N( |  Y+ \* L9 f0 m# M
Codec ID                                 : S_HDMV/PGS
; @: N4 N  x7 J4 J; l/ Y; K  HCodec ID/Info                            : Picture based subtitle format used on BDs/HD-DVDs) x5 G3 d* c# G) P( a
Duration                                 : 2 h 5 min
8 }% b! F( W# Q& x9 i4 G- a5 bBit rate                                 : 20.7 kb/s+ z3 D7 F& [" H" z
Count of elements                        : 23312 g1 L4 a& J% m5 c
Stream size                              : 18.5 MiB (0%)
! I' V. V9 k. b& MLanguage                                 : French+ z7 n  @+ S% `- a! F/ R; d  Q
Default                                  : No, H! a3 [& |* b! P6 U% A
Forced                                   : No! D/ P8 ]8 S0 r( V2 c
Original source medium                   : Blu-ray
% ]4 g# w+ N7 v1 v# ~: v- ?6 W2 M
Text #6* P) ?+ v0 m' l8 W, J1 F4 t
ID                                       : 17
' [# l- V1 T  ^' }! yID in the original source medium         : 4770 (0x12A2). J0 F/ o* F) I" n* \* e& M! k, S
Format                                   : PGS
# x+ r/ q. ^  T1 m1 [0 Y& [# M6 qMuxing mode                              : zlib2 C# b9 b0 G$ A" K
Codec ID                                 : S_HDMV/PGS+ b: z! \1 a+ m3 x( `3 y8 g" d2 l0 ^$ Y
Codec ID/Info                            : Picture based subtitle format used on BDs/HD-DVDs
* s* ]2 C4 C- o) mDuration                                 : 2 h 5 min
4 W# S, m# G1 C2 M8 q2 @Bit rate                                 : 22.6 kb/s
4 o9 s6 W; V4 D' rCount of elements                        : 2497
  a2 [# n# ]; a2 AStream size                              : 20.2 MiB (0%)$ _: O0 r) F- L5 ?, n" o
Language                                 : Spanish
/ u  J: C0 }. |0 @& XDefault                                  : No
) N9 z+ t' S0 ~. ?, I% ]Forced                                   : No
3 F* u$ Z; w6 L) N' t7 J( @7 mOriginal source medium                   : Blu-ray3 @& a% _6 v3 T5 m) j" U6 g
7 m( D" q' l  {7 j$ _! N, D
Text #7- b! N& N& D8 k  P4 f' h
ID                                       : 18
( B( C+ @6 O. E9 o9 S( I8 TID in the original source medium         : 4771 (0x12A3)
+ M+ z8 Z* R9 A. _1 N& uFormat                                   : PGS
2 q! w7 v8 D( O! T1 \: sMuxing mode                              : zlib  n- F& z4 G- p. F. k/ i7 ?7 l. n+ [7 F
Codec ID                                 : S_HDMV/PGS  l7 J! v  {# s5 s- T
Codec ID/Info                            : Picture based subtitle format used on BDs/HD-DVDs* f7 w( I' r3 m0 f; w$ A  ]
Duration                                 : 2 h 5 min- B! w/ Y8 h+ U& l9 t
Bit rate                                 : 22.4 kb/s
9 N8 R- r6 j5 A1 i; dCount of elements                        : 2301: v8 @6 k' {* z7 l* S* p1 b
Stream size                              : 20.0 MiB (0%)
1 g: f$ t! e- C3 w7 JLanguage                                 : German! z3 ]. j$ P! W
Default                                  : No  a/ F+ k, d4 R) k' Y$ W. l
Forced                                   : No
8 D# N% Z9 i& ?9 Q- K4 vOriginal source medium                   : Blu-ray
! P6 P' G+ p8 V$ I9 U4 l, \
% }: W' s3 Z) z1 zText #8
2 O7 f) c/ `6 z5 J) _, K* rID                                       : 19' K6 \) z" `. {2 l" T7 `: }
ID in the original source medium         : 4772 (0x12A4)9 }- a* p( f  v. q2 M# ^6 n7 I# y. Y
Format                                   : PGS
3 w1 ^( g: |6 x: y# @Muxing mode                              : zlib
6 d. |0 @( D2 \: Z5 O% B& dCodec ID                                 : S_HDMV/PGS$ d& K4 N$ i0 N% _
Codec ID/Info                            : Picture based subtitle format used on BDs/HD-DVDs$ C5 e- O! D/ n: n& ^
Duration                                 : 2 h 5 min4 v7 E7 X- x9 b. |, |4 w, y
Bit rate                                 : 24.3 kb/s
/ X9 j9 Y  ^$ B% v. Y, |$ e$ R8 YCount of elements                        : 2521" w$ T1 z5 w. m
Stream size                              : 21.8 MiB (0%)% K: S4 H+ }1 n! H) D& H
Language                                 : Italian4 G( C) K/ `( |8 i; m2 v
Default                                  : No
: h9 v& U# N) Y8 bForced                                   : No6 K/ Z  M4 ]8 P2 O7 F
Original source medium                   : Blu-ray
" {2 H9 U: h. a% `0 c3 t6 r1 g9 j+ T" N) H2 N. W' {
Text #9: {: L! o  ~1 h0 C( e8 j  g0 M1 j
ID                                       : 20
3 u$ {' G; l: D% q+ m: dID in the original source medium         : 4773 (0x12A5)0 l: G1 E8 w" [. k0 f8 I9 o% I& T
Format                                   : PGS
* J! u. d7 q5 p" i' @3 R* ~, \' JMuxing mode                              : zlib, ~) x$ O) X* j9 e1 q
Codec ID                                 : S_HDMV/PGS6 u( b, W2 K7 d; R8 d$ C- V3 w6 B
Codec ID/Info                            : Picture based subtitle format used on BDs/HD-DVDs
8 a4 _: X* X7 y$ MDuration                                 : 2 h 5 min
2 l; t6 }+ m" Z7 n9 m" C. |Bit rate                                 : 18.3 kb/s
+ T% g$ ]. e% V6 h* S  \# I& }Count of elements                        : 2355
" j+ c( o+ w2 [/ Q' A- bStream size                              : 16.4 MiB (0%)
! K4 Q( h- z( K1 R0 g" {3 y8 OLanguage                                 : Japanese
+ w6 ~; x6 L( \# n. |' T$ ^4 b5 K6 sDefault                                  : No# m) }7 m2 W; x9 Q/ w5 ]9 D. H2 A) F
Forced                                   : No6 q5 [5 U6 _6 ^/ X
Original source medium                   : Blu-ray
& p/ _' o; I" v+ ]! Y9 g3 `4 u) _6 ~- t' M/ t' m
Text #10
" @5 c7 {1 S( v% o1 m4 h5 uID                                       : 21
" x1 W  o$ [6 i4 K( rID in the original source medium         : 4774 (0x12A6)
& ?8 ^* F1 y3 ?2 p# {$ J1 P. JFormat                                   : PGS6 H9 l7 V9 P2 z- B
Muxing mode                              : zlib
& n6 t, n5 n/ k' yCodec ID                                 : S_HDMV/PGS
' h1 t& H) @5 m8 y$ MCodec ID/Info                            : Picture based subtitle format used on BDs/HD-DVDs
# S# c6 l2 M# E5 g/ b8 ?# Z8 wDuration                                 : 2 h 5 min
. J5 J5 u  s) a( [+ ~# L" ?9 eBit rate                                 : 22.7 kb/s
4 o, {& E9 \+ J! `0 pCount of elements                        : 2023
4 _9 O. u1 N6 h( O. TStream size                              : 20.3 MiB (0%)
) w, X9 Q/ I3 z7 A6 Z0 T0 oLanguage                                 : Dutch$ c1 u/ {+ F5 t; J
Default                                  : No+ i' y/ m9 A, K0 `+ ?2 {  x
Forced                                   : No
6 h- {6 x( r2 d8 Z) b* ZOriginal source medium                   : Blu-ray5 e3 j, M- }5 d$ L) e- C& d3 k) V4 b* v

# v8 Y+ \3 E. F* P. \Text #11* z) x' _  @  a- N
ID                                       : 22! [$ V) N! Z- O) @0 `
ID in the original source medium         : 4775 (0x12A7)
( W8 _( Z" A8 u9 i  n7 NFormat                                   : PGS
! {( c  ]2 a9 E- {/ BMuxing mode                              : zlib' T" T0 F( G# C( A+ Z
Codec ID                                 : S_HDMV/PGS7 w4 L- J6 W. r5 h5 w/ o9 x/ w
Codec ID/Info                            : Picture based subtitle format used on BDs/HD-DVDs8 z8 W- z' H3 g4 w, i3 f
Duration                                 : 2 h 5 min
. I! A# Q# H/ w  {' mBit rate                                 : 19.7 kb/s
3 o! r. j0 r* G! ?, T  UCount of elements                        : 1631! N& f! n4 ~& A: c, v
Stream size                              : 17.7 MiB (0%)
6 d. J& p& ]5 B6 ]: \& LLanguage                                 : Danish
; a; y9 ~/ J/ uDefault                                  : No( j; E8 e& G2 w* u
Forced                                   : No" \8 ]3 M2 A$ j2 B6 L
Original source medium                   : Blu-ray
& v+ \# ]( v+ ]1 T- ?* [/ S# M8 {
; @+ |" h9 q1 QText #12% a4 G# W- {; H1 N
ID                                       : 23
% ?/ Z! L( e5 KID in the original source medium         : 4776 (0x12A8)
  R$ }( p4 z* b3 s$ TFormat                                   : PGS- b, K, V: J7 |" T$ d9 a8 g' e
Muxing mode                              : zlib
/ a- @4 C( b. [/ n) H5 m0 S- JCodec ID                                 : S_HDMV/PGS
$ T& P6 a6 F! j4 T. bCodec ID/Info                            : Picture based subtitle format used on BDs/HD-DVDs
( L+ l+ a! }, [4 B3 DDuration                                 : 2 h 5 min# Y" _- T4 B. S
Bit rate                                 : 24.0 kb/s
. D5 @0 X% [/ i0 G4 ~Count of elements                        : 24933 R: {) U5 J6 \  j" o
Stream size                              : 21.5 MiB (0%)
+ ~. A4 z2 Q. T. z* E5 L0 BLanguage                                 : Finnish+ s5 A' |( L3 y/ T8 v! e
Default                                  : No, y; U* k; m. F$ J1 ]
Forced                                   : No
/ ]% |  I$ q; ~  f3 p  E1 aOriginal source medium                   : Blu-ray" G# F6 y6 D! {0 ~8 d% o9 S

; D, R' F% j" S9 u/ u' dText #13. u# q- d. i+ W* z
ID                                       : 24% S0 ^# H4 S( L$ N: U
ID in the original source medium         : 4777 (0x12A9)
6 G0 ^. r! l8 XFormat                                   : PGS1 g' a7 K3 ^+ u
Muxing mode                              : zlib
" S$ l  X8 Y3 }Codec ID                                 : S_HDMV/PGS; X& w. ^; ]. |/ U$ u) W
Codec ID/Info                            : Picture based subtitle format used on BDs/HD-DVDs
9 Z; n0 g9 z$ z! [9 ~. ADuration                                 : 2 h 5 min5 `+ C* t. G2 q& O7 K8 O' w7 ~  t
Bit rate                                 : 21.5 kb/s
1 q) o$ G" N% E# sCount of elements                        : 2523
* u( H/ w) H/ s; H" z8 \# s* }Stream size                              : 19.3 MiB (0%)* ?' q8 B+ @' }# j: ]# r# o
Language                                 : Norwegian
# ~+ \7 U* H" TDefault                                  : No  y8 \( u* G- o7 y; T1 ~( h
Forced                                   : No
0 U3 K* ?( h7 d( jOriginal source medium                   : Blu-ray
3 E5 s; v; ~) ^0 Q( g/ L3 t. l8 Y  e- @, S: ^
Text #14
2 ~, J# y) S; u: M- hID                                       : 25
- M  O: s/ ^  o5 L0 GID in the original source medium         : 4778 (0x12AA): o3 r, P* j3 {! S) q! S
Format                                   : PGS
6 F2 S, |$ p6 ZMuxing mode                              : zlib+ h5 e) j2 U7 p: K8 H% U( P
Codec ID                                 : S_HDMV/PGS
8 F3 l) v. {9 o8 q  nCodec ID/Info                            : Picture based subtitle format used on BDs/HD-DVDs4 H3 q* h  V% `. e6 x
Duration                                 : 2 h 5 min
6 Q0 u% J( l0 G% t7 x8 ?Bit rate                                 : 21.4 kb/s" q) V) L# J: v( v4 {* H
Count of elements                        : 1899
% j, r! @8 {$ s: V5 K/ K( gStream size                              : 19.2 MiB (0%)
( J; G2 M3 T& }0 @, z( M# O: HLanguage                                 : Swedish- H' ~/ G8 s8 ?9 |9 k7 T# |1 A( K: u
Default                                  : No. S( s' ~* U8 `$ F+ ^
Forced                                   : No$ ]0 h( @; c  @; z. m( Q$ R
Original source medium                   : Blu-ray
) _0 B" k4 R" K, b7 ~# K3 u, T! Y( B
Text #152 p- K: y" H. t- h7 K0 O: W
ID                                       : 263 q* w! e2 ~' T. g# m6 p/ v% z
ID in the original source medium         : 4779 (0x12AB)) J2 C0 L( R" C/ b! S/ g
Format                                   : PGS. _8 G2 q4 J* X7 o/ R
Muxing mode                              : zlib0 q+ c% g, a+ ]. I6 ]" |
Codec ID                                 : S_HDMV/PGS! g! e5 s& f; ~4 |: ]4 J0 s3 a& ^
Codec ID/Info                            : Picture based subtitle format used on BDs/HD-DVDs
1 X3 U) R% M! u) d8 zDuration                                 : 2 h 4 min6 b# d" H# k; O# T+ M- K; f
Bit rate                                 : 182 b/s
. x1 `; o0 z  }2 P# A1 ?! M2 HCount of elements                        : 22
! N% C- k! T" W: k3 G9 qStream size                              : 166 KiB (0%)% w) r1 o. z. m4 A! z
Title                                    : FORCED
% @! [4 ~, }5 D2 _) j6 A$ jLanguage                                 : English2 L$ ]( n( ~5 i2 T( j# ]
Default                                  : No# j2 j6 U% A- L
Forced                                   : No
; L2 T) e$ a7 Y1 G# b3 iOriginal source medium                   : Blu-ray7 q. _  p; R+ h! h3 }" d
) O% f: R8 B6 ~* x: B
Text #16$ \- F" a8 t9 V4 F% O2 @
ID                                       : 27
- n6 ^3 O$ d5 ?2 a* j, \ID in the original source medium         : 4780 (0x12AC)4 }" U6 y! s, }
Format                                   : PGS0 j0 p1 w, N. x5 V7 s( i! c
Muxing mode                              : zlib' x3 Y$ J' O  t  o; V9 ]% p
Codec ID                                 : S_HDMV/PGS6 P; b" E, n8 T% W$ T
Codec ID/Info                            : Picture based subtitle format used on BDs/HD-DVDs
( T, K) I9 ]8 ?$ Z$ nDuration                                 : 2 h 4 min0 n9 E  h/ z0 J# ^8 {
Bit rate                                 : 289 b/s" h  d$ i+ [! B! W+ n
Count of elements                        : 25; U& t1 W* e$ f# p4 p
Stream size                              : 265 KiB (0%)% ^  M' F; ]8 ?/ V& x3 G, y+ F
Title                                    : FORCED6 E7 _; J4 B! C6 [9 `
Language                                 : French
/ A- N* W* T( |/ {3 A5 }% IDefault                                  : No
0 @+ ^7 n2 m) M, xForced                                   : No" Z- f6 S! ~4 b5 d2 \
Original source medium                   : Blu-ray- e! c, V7 T  \% q/ [6 G6 B2 }) ?

. U. k6 X' E& N- x/ l7 p* {+ D) |& tText #17
8 S3 u4 [9 O, s: @0 D9 \7 b$ w! lID                                       : 289 ^$ p3 ]* j* y! ]6 v% y
ID in the original source medium         : 4781 (0x12AD)
. a. d7 ]( ~" |- I" ~. bFormat                                   : PGS5 R! V' ]4 G; I" Q
Muxing mode                              : zlib
" n5 j) }# J' C: x6 F: l& c. v' T- nCodec ID                                 : S_HDMV/PGS$ d: |! I, f" R
Codec ID/Info                            : Picture based subtitle format used on BDs/HD-DVDs2 @7 b9 R0 a. h4 q
Duration                                 : 1 h 39 min
1 X4 g0 v0 O/ c2 f9 h7 VBit rate                                 : 347 b/s3 w0 ~, t' S' f& m" ^/ ?* B
Count of elements                        : 21
4 Y$ f. x, `& A/ s8 a2 TStream size                              : 254 KiB (0%)
3 y4 b7 V- v, p3 C3 \$ g1 S/ i) w: iTitle                                    : FORCED
: `! @* Z1 u" [' w" N2 hLanguage                                 : Spanish
/ @9 G: r: B0 o. PDefault                                  : No
: Z2 l2 R& T5 k  z9 S# dForced                                   : No- W# l0 y, }8 q( f, s% s. o
Original source medium                   : Blu-ray; v1 R" ~+ Z+ t" p- F

0 \8 a9 D, s/ s7 D5 wText #18
! h6 h/ C: {5 u8 ]% `3 A& SID                                       : 29, A; i3 e- Z3 n/ k" a, V# z) R
ID in the original source medium         : 4782 (0x12AE)
" d+ Q9 k' r9 _  YFormat                                   : PGS% E% {- o- M8 X5 N
Muxing mode                              : zlib4 i8 G. K) `; e' T: {! f! P
Codec ID                                 : S_HDMV/PGS
* v0 z0 T7 Y# ]* v# Q0 sCodec ID/Info                            : Picture based subtitle format used on BDs/HD-DVDs: n4 t0 v( I, Q+ k4 P7 L, l
Duration                                 : 2 h 4 min
' W* M( P$ e9 {- o6 A" RBit rate                                 : 246 b/s
; x+ x! }' \: {5 z4 v; xCount of elements                        : 23) m! z" R# g9 g& j& E, O. ^
Stream size                              : 226 KiB (0%)
6 B. p' `( o8 z! Q! n; j2 \$ UTitle                                    : FORCED
' {" M0 f, z* ?5 fLanguage                                 : German0 L8 ~8 q- z+ ?5 m+ t. P+ F5 G
Default                                  : No  i, F; V+ ~- O" s
Forced                                   : No  f6 O/ e8 C/ z8 l7 ^. `
Original source medium                   : Blu-ray
0 M- K9 {9 A- N% n5 Q- X6 R) h$ U( a' q3 q6 j  q6 B& j
Text #19: `: G+ j1 a9 |; ~
ID                                       : 304 }2 r. O5 ~9 E& I9 Z- A; e$ g  t
ID in the original source medium         : 4783 (0x12AF)
/ ]" n3 B+ K9 w% y( N5 m# B4 cFormat                                   : PGS/ Q/ v* q9 Z! w% b' }& A! S
Muxing mode                              : zlib
" T- e; j9 j' [2 ?! qCodec ID                                 : S_HDMV/PGS
; t! b2 ^" E' pCodec ID/Info                            : Picture based subtitle format used on BDs/HD-DVDs) K" Z, X% m: d8 l8 z. z
Duration                                 : 2 h 4 min/ X- R, H: b: O# Y
Bit rate                                 : 292 b/s
5 |1 i* w$ }# C' u0 ~- v- Q0 m, ZCount of elements                        : 27
# ^, |6 Q2 j8 e( N7 y# zStream size                              : 267 KiB (0%)
( A5 m2 G$ Y$ X* ]* {. ?% {Title                                    : FORCED* U$ S; }- G2 s8 t  v
Language                                 : Italian, c8 R; s1 s' G& E* D/ Z4 W
Default                                  : No
0 ]) U$ ]3 V0 v" P% p% aForced                                   : No  f1 _, k6 t; x" N
Original source medium                   : Blu-ray
# X) Y6 T4 d9 u. U" Q/ ~4 }! _" R+ o6 [( a  m# d
Text #20, y- Q6 o/ G3 C! G. _  s( Z, X
ID                                       : 31
( c# R  _2 H3 J! d: xID in the original source medium         : 4784 (0x12B0)
, P' B. j$ C  {8 WFormat                                   : PGS" C- C8 q* r6 l. T# S
Muxing mode                              : zlib2 k$ t) p9 U$ Z; h! B. ~
Codec ID                                 : S_HDMV/PGS
) d0 C9 b3 w1 B8 v% w* h* W  RCodec ID/Info                            : Picture based subtitle format used on BDs/HD-DVDs6 }! `& q( x1 n
Duration                                 : 2 h 4 min  l0 c5 _) _% D; Z+ a( u6 A
Bit rate                                 : 265 b/s
. d" Z5 g, B: d8 i9 WCount of elements                        : 35
: Q+ w7 Z# y0 o; T4 M2 V9 ]9 EStream size                              : 243 KiB (0%)
! N  G+ a+ j( r/ FTitle                                    : FORCED
4 j( j3 T" V( r( v0 W+ Z) n# ^Language                                 : Japanese1 E1 F. S. e; t5 ]8 R
Default                                  : No8 E  a% |0 F" O  X
Forced                                   : No5 |, t. ^9 |: p
Original source medium                   : Blu-ray
( c  D5 D) L: v; j7 s' z( G4 ^- A/ T! B' o0 w( ?2 h
Menu0 b: i2 H0 W: C# \
00:00:00.000                             : en:Chapter 01
* l& j) V% r4 E& L00:03:51.022                             : en:Chapter 02
( L6 v5 S% u. Q0 o00:08:26.506                             : en:Chapter 03
3 m! m/ A: d6 D" o00:14:19.441                             : en:Chapter 04
) u( [3 H  {9 Y# ]9 m- c$ T00:18:22.684                             : en:Chapter 05
/ K& f2 \6 U9 M; l* u6 |/ c+ P00:24:37.559                             : en:Chapter 06
/ A# Z/ L* R4 X00:37:58.067                             : en:Chapter 07' J9 z% H8 p, G/ K6 T) `4 d
00:47:15.457                             : en:Chapter 08' V! J+ b2 ]0 m7 g# ?
00:50:03.542                             : en:Chapter 09. y; p  K" o7 ?/ T  S/ c
00:55:50.930                             : en:Chapter 107 H& _2 y; S# G
00:59:46.332                             : en:Chapter 11
9 _: S* q) x2 ^9 }1 S2 B* Y" H* R01:02:19.652                             : en:Chapter 12& X9 l/ m: S! k& ~
01:05:18.289                             : en:Chapter 13
. M/ F9 }, _: W3 o2 i8 c3 j; q' b01:07:20.786                             : en:Chapter 14  L) l7 W  x. p) K* ]
01:15:03.582                             : en:Chapter 15
1 o8 M  u4 d2 a6 m01:17:01.533                             : en:Chapter 16
' i+ s+ c3 |( w* Z01:19:18.044                             : en:Chapter 17
" B+ g1 T$ Q) U6 I/ ^01:23:29.337                             : en:Chapter 18
. q: B: V7 Y. q01:26:33.813                             : en:Chapter 199 F+ d' \9 Q3 L
01:28:51.200                             : en:Chapter 20* R5 y0 i2 x7 A( D$ P
01:34:47.264                             : en:Chapter 216 X. Z6 ~4 ]9 G2 U; t( Z
01:37:38.644                             : en:Chapter 22+ d7 M$ ^& V. z- Y0 _1 Q! Q. W* ^& l
01:41:27.289                             : en:Chapter 23, G4 Y; m9 I% T/ F6 O
01:51:03.281                             : en:Chapter 24' s3 q0 l1 i4 z
01:53:26.466                             : en:Chapter 25
- v6 ?% `4 z6 ?; F2 M' u01:55:38.848                             : en:Chapter 26
7 V8 s9 h  X3 ^& O! Q! a& w- f/ z01:56:32.026                             : en:Chapter 27
2 h, z, E% j8 C5 |/ d01:58:48.246                             : en:Chapter 28* s) d) v9 w9 E. K! C- D1 @
01:59:26.659                             : en:Chapter 290 ?' k3 d/ T2 R

2 `9 ^; Z& z. n8 I) c1 W! Q1 RVideo: 1080p bluray Audio: 2160p UHD bluray
Doctor.Strange.in.the.Multiverse.of.Madness.2022.1080p.BluRaycd.REMUX.AVC.DTS-HD.MA.7.1-FGT
3 z. P; G3 Y+ e/ B  w+ T$ Z9 b& k0 `) }5 g
Video
, i* _. b) T+ G, c% |+ }( A; [8 A8 QID                                       : 1. h+ l. ?* j$ n" T  Y0 B$ M+ e& }7 I
ID in the original source medium         : 4113 (0x1011)' Y" F" `7 w: h! n& Q5 k+ T
Format                                   : AVC$ k6 o# o+ T; Z
Format/Info                              : Advanced Video Codec
1 `) g- X( z$ ~+ }0 H$ {4 SFormat profile                           : [email protected]  M0 d5 b* v+ I% T. C& ]
Format settings                          : CABAC / 4 Ref Frames
$ k- g6 R5 o9 E5 Q7 vFormat settings, CABAC                   : Yes' w0 W6 V: B& J0 A6 l
Format settings, Reference frames        : 4 frames
& V, Z- O* I" P+ T  J+ d" s( ~6 @Codec ID                                 : V_MPEG4/ISO/AVC
/ ]4 G, c7 l/ I8 A1 D. BDuration                                 : 2 h 6 min* U8 E' m4 ^' X9 m3 R
Bit rate mode                            : Variable
5 q% c; b0 W: P6 J4 C3 x. g6 @Bit rate                                 : 33.3 Mb/s
. ~* `- G) D% \) p* h( A. }Maximum bit rate                         : 36.3 Mb/s* p5 K/ d3 ?; G5 {
Width                                    : 1 920 pixels* }$ \7 c8 z3 K5 o! b+ O
Height                                   : 1 080 pixels$ T( o0 W8 m4 z4 [& F+ @
Display aspect ratio                     : 16:9( A1 T# I$ n/ q- u3 E% j! ^
Frame rate mode                          : Constant
  L+ A  Y7 X6 S7 b4 d" a3 wFrame rate                               : 23.976 (24000/1001/189150) FPS
) V+ j" v  D9 T. L- |. aColor space                              : YUV
- ~2 \7 ~  G/ d9 U0 ~/ T) xChroma subsampling                       : 4:2:0  C+ p  G7 K4 }' {) U$ S
Bit depth                                : 8 bits: t* f' `& S/ O' b* L$ D
Scan type                                : Progressive% `8 `- _& R3 T
Bits/(Pixel*Frame)                       : 0.6697 R: `, B; A& R
Stream size                              : 29.4 GiB (81%)4 }7 a  I1 f& A& c
Language                                 : English; v. h& }% j/ O' G
Default                                  : No) T5 Y* O# v" g, [
Forced                                   : No
- K3 j2 s- v- q7 j6 N8 o' x2 iOriginal source medium                   : Blu-ray  R9 A& p4 U3 q. E7 a, j
+ l4 G. S6 O+ \
Audio #1
& P, I/ {9 u4 OID                                       : 2
, c: X" Z- ~- v# X& a" @( {9 y( z+ wID in the original source medium         : 4352 (0x1100)) q! _" h, y: F. u7 L
Format                                   : DTS XLL
" ]2 Z9 j% M- ]4 S) w1 tFormat/Info                              : Digital Theater Systems6 f! u6 f1 Q% C; T) l1 `" R
Commercial name                          : DTS-HD Master Audio
; z- K: x9 L1 g/ I5 @2 H- R: a- F% zCodec ID                                 : A_DTS
$ m, t' }/ h* R1 u0 SDuration                                 : 2 h 6 min
7 R7 S( r: F# u+ u0 z1 v# VBit rate mode                            : Variable6 U+ j. d! |# ^. l7 o$ q2 t8 v
Bit rate                                 : 4 923 kb/s  C% S& J5 V+ @( ^' X* ^
Channel(s)                               : 8 channels
0 U9 L, u* e& M8 VChannel layout                           : C L R LFE Lb Rb Lss Rss4 k# i) t+ D( ?* [! B) I
Sampling rate                            : 48.0 kHz
1 q. a/ x# Z3 Q6 JFrame rate                               : 93.750 FPS (512 SPF)
4 D# V8 [% {4 {  N5 g( u8 ^+ rBit depth                                : 24 bits
) p, |/ H: r2 C5 ?' ^/ a7 ]Compression mode                         : Lossless0 c/ Y4 p0 L0 I; l- C3 h6 Z! ~1 ^
Stream size                              : 4.35 GiB (12%)
* i7 l  w/ O' R  [; W7 _Title                                    : DTS-HD MA 7.1. S6 c) b: {$ H# o0 H
Language                                 : English
. |/ W# w* b) K$ O* q( o: N+ N3 ?Default                                  : Yes
+ X& G# ~1 U/ b/ aForced                                   : No0 m  J2 `2 j8 m: N  g7 j% R
Original source medium                   : Blu-ray: U( q1 _0 z* Q! a, l! ]
: _, E+ f0 u  L1 X
Audio #29 u; Y, Q, T# {! Y$ b: w, K
ID                                       : 3
' @' F9 ?0 k# D# f+ p; x8 `: L& mID in the original source medium         : 4353 (0x1101)8 @2 j; K6 U, p, ], i
Format                                   : AC-3
6 x4 o+ W- ~, h/ @% h" e5 P3 ]Format/Info                              : Audio Coding 3+ n: H& A' f' q4 {" e6 H$ E
Commercial name                          : Dolby Digital
: C: a: c; {& `2 C$ t0 L# }Codec ID                                 : A_AC3
( P  z7 D, U  M. @% W$ _( ^0 rDuration                                 : 2 h 6 min
. K1 o1 h% n+ r- ^8 A  U8 M/ h7 kBit rate mode                            : Constant
- o" \2 m9 X' x2 t6 GBit rate                                 : 320 kb/s
9 p2 T2 P3 G% ]+ _  x  n  MChannel(s)                               : 2 channels
) N/ m3 r; U1 p* [' N0 aChannel layout                           : L R
& b$ g0 q% l8 l. C7 {2 P& RSampling rate                            : 48.0 kHz/ \7 w+ Z& M( w! t- x, R* [
Frame rate                               : 31.250 FPS (1536 SPF)( p- a6 a* `, F6 X6 `9 s* t
Compression mode                         : Lossy& x5 }' Z' h4 a2 E
Stream size                              : 290 MiB (1%)4 D) _% w) H- A& S# s
Title                                    : DD 2.0
: I! g4 ^/ [7 [5 u- m4 p1 h' A; oLanguage                                 : English3 l3 Z$ m6 k8 E8 T6 r7 j! ]/ J; _
Service kind                             : Complete Main
& f5 e9 \  q: }3 u5 E" {8 z6 k/ bDefault                                  : No
6 N( ?" H. d- b1 k3 zForced                                   : No* ^5 o  A3 b. w# D& u% E. N3 A$ V* I
Original source medium                   : Blu-ray
- ?: x& R1 s5 ^& C
4 [0 |" s( Z$ h4 j( xAudio #3
# t( P7 Q9 `% n; bID                                       : 45 J+ z* q  j$ P$ ^! [& I4 O
Format                                   : E-AC-33 _: \' X# b1 ^6 @
Format/Info                              : Enhanced AC-3
2 v3 B* m4 D2 d) hCommercial name                          : Dolby Digital Plus
9 E* X* {" W: g- d" ZFormat profile                           : Blu-ray Disc8 H5 w. ?2 U* W3 N
Codec ID                                 : A_EAC3
4 s; k4 @5 m1 g  L  uDuration                                 : 2 h 6 min
7 P' B* e# E; k, d7 i6 o1 CBit rate mode                            : Constant
: d' f2 k" y  x+ b  vBit rate                                 : 896 kb/s. W- }5 j% F3 b" X0 h
Channel(s)                               : 8 channels% _% a, i0 ~- b( e" t  G
Channel layout                           : L R C LFE Ls Rs Lb Rb$ D9 s7 I* a  f8 {* O3 V( Q
Sampling rate                            : 48.0 kHz1 }. y, n/ m  t3 ?9 O0 e
Frame rate                               : 31.250 FPS (1536 SPF)) [# o6 J- u  l, e1 K9 v
Compression mode                         : Lossy
% D! U; N  |3 n& S9 e6 FStream size                              : 811 MiB (2%)
0 r" R7 E3 i1 i0 c( U' P$ @* Z2 OTitle                                    : DDP 7.1
- H# F2 x1 C+ u; v# a% B/ q2 ~6 FLanguage                                 : French
7 ?$ l' h. s/ i+ o: xService kind                             : Complete Main% C4 ^% p1 _* w* z5 A" w
Default                                  : No' k0 T4 h) u" |2 n
Forced                                   : No6 X1 C4 \' ?! {+ I, }

% R! t/ O( |  Y4 a# pAudio #4
$ [! G) H* N% J3 \; |: _8 |) xID                                       : 5
9 |4 [( c6 R: c6 j; t5 BID in the original source medium         : 4354 (0x1102)
1 m, Q, q& Z; s9 `% l7 m3 tFormat                                   : AC-3' h$ ?+ }: e1 z0 i7 B0 L4 R# Z
Format/Info                              : Audio Coding 3
/ H0 I* g; S- k" `' dCommercial name                          : Dolby Digital
+ m# Y  Y3 q$ ]2 f0 U: bCodec ID                                 : A_AC3
: n( W3 r" z9 K' ~- x8 w9 _5 UDuration                                 : 2 h 6 min! I1 B/ D7 S  e0 U, b
Bit rate mode                            : Constant7 m5 a+ L) B0 F3 s+ p
Bit rate                                 : 512 kb/s+ H5 r1 ]9 F3 _# g/ G! [$ N8 l5 k
Channel(s)                               : 6 channels6 w# Z( w' p4 [3 P3 D: J
Channel layout                           : L R C LFE Ls Rs
- M& W) i6 U6 b: I" W7 [/ h. a5 s& OSampling rate                            : 48.0 kHz# H+ O9 R# F; n  s) a
Frame rate                               : 31.250 FPS (1536 SPF)
+ b+ W& t3 \" h0 ?Compression mode                         : Lossy% h$ D' z; c$ A; v* }
Stream size                              : 463 MiB (1%)
+ c1 v$ q$ N, ]" t' l/ {) TTitle                                    : DD 5.1
! h) p* ~" I' H8 E( o; s1 D( ]Language                                 : French
' A( t' c; W8 r6 w! F% CService kind                             : Complete Main5 K& q$ C2 G+ {" N2 N* K* c& `( I
Default                                  : No! d. |! H! t8 z! N1 {
Forced                                   : No  a! v" P6 b0 M1 }, e
Original source medium                   : Blu-ray& J6 r& A1 G: Q, }, N$ t; D3 j
% t% N( m6 F; Y! N2 A9 t. R
Audio #5) y$ |# F. Z6 w4 u" K" F
ID                                       : 69 `% b1 P) e# a3 q9 v- Y) h
Format                                   : E-AC-33 _8 K* e, Y7 i7 \/ O  S
Format/Info                              : Enhanced AC-3
& o! d; R3 P! |8 D: eCommercial name                          : Dolby Digital Plus. z% z( m$ w; a  o( B
Format profile                           : Blu-ray Disc8 N4 A* [1 D5 A0 ~: ^
Codec ID                                 : A_EAC3, G3 q/ d% @6 Y* O7 _
Duration                                 : 2 h 6 min
2 M* t  Q* `% n: O  D2 {+ HBit rate mode                            : Constant* ]: J9 Q- @5 n7 v5 P
Bit rate                                 : 896 kb/s
, K8 N. R% F; }+ U5 [# d, vChannel(s)                               : 8 channels
. {( k( T5 X2 o( {4 nChannel layout                           : L R C LFE Ls Rs Lb Rb
) O: q3 ~3 J  x( ]2 QSampling rate                            : 48.0 kHz
. v* b$ U* _8 GFrame rate                               : 31.250 FPS (1536 SPF)* }1 S- ]- R8 X1 B1 w
Compression mode                         : Lossy
" B, {9 }: G: |5 ^Stream size                              : 811 MiB (2%)
. T4 W& _! l: l4 f1 v+ x( I- ]( KTitle                                    : DDP 7.1
$ v6 K4 z4 s3 Z  X9 e. J2 V9 j6 O& P' YLanguage                                 : German
$ \  z+ V8 e# ~" [( n, ?Service kind                             : Complete Main
  }+ \/ V+ b6 R' k+ X4 @Default                                  : No4 c5 `6 D; ]& e4 r9 T
Forced                                   : No
6 ~5 F, R! i+ Q( j+ n; t: @6 Y$ ^' l6 O2 L# ~/ c
Audio #6$ k- d# {/ l+ T: E7 k+ [( D. i
ID                                       : 7
- w$ V, c3 E/ e  x! c2 iID in the original source medium         : 4356 (0x1104)
% Q. H1 X7 j7 X1 W+ ~0 f( {* ^Format                                   : AC-3- p& o& Y: M: h) O; H
Format/Info                              : Audio Coding 3
2 J! B  J; s' y( oCommercial name                          : Dolby Digital+ ^1 V# B+ a5 Q2 }& k3 t+ r
Codec ID                                 : A_AC3+ n! T7 [' x+ `( @( @) x
Duration                                 : 2 h 6 min& X* t6 c$ L/ O. B6 _
Bit rate mode                            : Constant& ~1 l: L- P  @3 X
Bit rate                                 : 192 kb/s
: _5 v0 ^0 n! x% w" iChannel(s)                               : 2 channels
5 i% x% B, f/ ^Channel layout                           : L R
, P) ^) x5 y0 o) q0 YSampling rate                            : 48.0 kHz
/ y2 i. A# d( k: cFrame rate                               : 31.250 FPS (1536 SPF)% s" ?7 m, l3 o# l9 J8 Y. `
Compression mode                         : Lossy% ^5 o# l6 p8 h) x0 F' f. ]+ p
Stream size                              : 174 MiB (0%)
' {1 n) O2 I( z. |! N1 j2 S9 {Title                                    : DD 2.0# `( m1 U& {! \9 i: j
Language                                 : English4 K  K! Y; {" e1 ]6 Z2 F, I& q$ _4 I
Service kind                             : Complete Main: I1 U% i( x5 [" R7 y! Z% {* R
Default                                  : No
: l  U! w( o# i7 FForced                                   : No
% T7 G/ X5 Y# s: o$ `9 OOriginal source medium                   : Blu-ray! [" h+ X# ]; V, C: K- ?# ^

1 t& y/ F3 D8 X* pText #18 ^! |4 L5 e) z0 Q
ID                                       : 8" [+ C' R) H" |1 u5 u' p5 `
Format                                   : UTF-8
4 A0 p- m( \3 o" ^Codec ID                                 : S_TEXT/UTF8: j5 A# a' y1 a* a, m
Codec ID/Info                            : UTF-8 Plain Text
1 v: N. d. u# JDuration                                 : 25 min 9 s$ W( m% H- ?4 R- d
Bit rate                                 : 1 b/s
. j2 v8 b/ t) l1 s- UCount of elements                        : 9
! |! {  B" L* Q! JStream size                              : 265 Bytes (0%)
; S( t" M* I# A" E; CTitle                                    : FORCED
/ }% q1 R; t7 C$ j1 l4 uLanguage                                 : English4 y% u' ~+ T8 |
Default                                  : No5 j8 H* h# S$ u( C! f2 W
Forced                                   : Yes
( R' A' h% |9 q3 i! p
: h. V9 C/ X2 pText #2
: [9 ^& L# u2 p7 i- y! V+ ]3 IID                                       : 9* I# x7 R' p: {+ Q7 K& T
Format                                   : UTF-8- O8 U, T6 l" U' y
Codec ID                                 : S_TEXT/UTF8
8 E0 m( R( w- ?- a! p3 GCodec ID/Info                            : UTF-8 Plain Text" K  ^" x  U0 P9 r. [
Duration                                 : 2 h 5 min
9 @" G% `0 u$ z& YBit rate                                 : 38 b/s4 D3 Y& |# b) x8 z3 i; A
Count of elements                        : 1308( v! G# U! p8 s( ]$ n
Stream size                              : 35.6 KiB (0%)( d5 |* B5 L: p! A
Language                                 : English
' f# U5 d0 g0 f3 m" s4 ?2 \Default                                  : Yes
  y" [; t9 X6 g0 j+ B9 IForced                                   : No# R. Q; B. L) l  N6 E
; p6 D) M" H7 q8 P) i
Text #3) i  Z. B9 P; P" f1 R
ID                                       : 10  N5 @% Y' l7 N+ r) p0 Z" ~; q
Format                                   : UTF-80 s* p3 A. ~: w% E% y# T
Codec ID                                 : S_TEXT/UTF8
7 h# g- Y% b7 d7 p* p6 R4 dCodec ID/Info                            : UTF-8 Plain Text" I2 c6 W2 t) K6 K
Duration                                 : 2 h 5 min
1 l& J1 Y0 F: Y$ h! O5 jBit rate                                 : 50 b/s" V; H& i: p! \2 B+ E/ C
Count of elements                        : 1892# X; u: K; ]( t+ `
Stream size                              : 46.2 KiB (0%)( l* e4 P, `( X4 Z
Title                                    : SDH+ E7 ?* W5 f: {* @( r
Language                                 : English
5 Y8 W8 X7 a* y  }5 nDefault                                  : No
2 e) R( v$ p; v+ c5 o+ aForced                                   : No
" `: F% g" n; K- Y
3 R5 ]4 U, n. y. s' BText #4: U- m% C" v$ R) R
ID                                       : 11
; k- L2 x+ m' `' m- N& s. `; wID in the original source medium         : 4608 (0x1200)4 h6 Z% `" Q' k
Format                                   : PGS
0 T. E) [# s' W9 m& e5 S/ Y9 j5 sMuxing mode                              : zlib  `7 Y8 v$ K) W: ~7 N# M
Codec ID                                 : S_HDMV/PGS
6 r8 t$ k0 E: PCodec ID/Info                            : Picture based subtitle format used on BDs/HD-DVDs
# q! q3 }3 v! o$ [4 NDuration                                 : 2 h 5 min& e3 A5 l, W- D3 |
Bit rate                                 : 35.8 kb/s6 p0 @. e; C" ^( B3 H* }* v
Count of elements                        : 3812- p: n% Y; X6 w' [. Q/ a
Stream size                              : 32.2 MiB (0%)
- k9 n8 N2 F1 R, ]" VLanguage                                 : English$ S; A3 @& Z( v8 u- w% e
Default                                  : No
0 Z( B8 u4 S! [5 b) IForced                                   : No
; u' t* e' X2 X; e7 qOriginal source medium                   : Blu-ray+ Q: c* k: g  d) c+ R  z, S

  f. ]9 C0 u, o) T4 ?Text #58 ^! C, S7 D9 r' b8 t
ID                                       : 12* I6 Q) y1 j& X) T( }
ID in the original source medium         : 4609 (0x1201)- v; n, A: n+ x- O% T) b
Format                                   : PGS
, [8 X% O' }3 J) c" ~) uMuxing mode                              : zlib
4 @9 ~5 `9 D$ L, m( G- ]2 tCodec ID                                 : S_HDMV/PGS1 j6 J7 m; }- q
Codec ID/Info                            : Picture based subtitle format used on BDs/HD-DVDs8 R  c  r0 D+ j, }' e
Duration                                 : 2 h 5 min
9 _" d- y2 T$ {8 ^  rBit rate                                 : 20.6 kb/s
4 {6 A' a) Y; _Count of elements                        : 2330
  g. y' V$ u/ T8 b' rStream size                              : 18.5 MiB (0%)- H/ l4 E, b8 G  m) l- |& [% ?/ y4 s
Language                                 : French5 O: }; @. A# F! T4 c+ n
Default                                  : No
9 N/ Y: l7 K" s9 b3 u* y" OForced                                   : No1 h0 c1 L3 ?3 l; x4 b* _5 ]
Original source medium                   : Blu-ray
! `: D, I9 e6 s' o! D' @/ a1 f" Z& l. q
Text #6( x% @, m* O; V- g# m
ID                                       : 13( A4 F% |. m( \  ^% ]# E0 z. S
ID in the original source medium         : 4610 (0x1202). D* ^0 `; X5 f6 x: n
Format                                   : PGS
/ E( F" j9 \" wMuxing mode                              : zlib
" `) h0 h$ [# E  N4 FCodec ID                                 : S_HDMV/PGS6 r& q7 k; [. }7 k+ T1 p1 o$ t- r9 v
Codec ID/Info                            : Picture based subtitle format used on BDs/HD-DVDs% @/ k  o$ x' `$ ]
Duration                                 : 2 h 5 min
  B5 c" R' s5 s" a/ _' DBit rate                                 : 22.4 kb/s
/ |. {, b6 {; w, g+ OCount of elements                        : 2300" [1 N' u& t7 [3 D
Stream size                              : 20.1 MiB (0%)0 E( h( z" c7 m9 {6 M. B
Language                                 : German$ l- S6 d, J9 ^- p8 o8 w: A
Default                                  : No( y3 f6 q+ s4 t$ [
Forced                                   : No
" f% h* j6 P; [" GOriginal source medium                   : Blu-ray1 c5 l  C. s9 l& F

- k; A% V. b. w6 {/ e; {0 g7 z( @Text #78 E6 g- U# V/ |" }' g: d1 K$ p- c
ID                                       : 14! j( N3 h( X3 g0 J4 m) h
ID in the original source medium         : 4611 (0x1203)
. V! U4 P5 Q( r  qFormat                                   : PGS
5 n# D8 }' Y; n0 k( q4 d' YMuxing mode                              : zlib" ~' a/ U1 x) U+ @3 c/ ~
Codec ID                                 : S_HDMV/PGS
. L+ R7 G3 J( J0 @3 iCodec ID/Info                            : Picture based subtitle format used on BDs/HD-DVDs/ J' X# S! C( ]6 l3 B
Duration                                 : 2 h 5 min
" f0 E' e1 [) c8 }" SBit rate                                 : 22.9 kb/s8 C" ?1 @; F3 |, r0 M5 {6 Q! t8 @' ^7 J
Count of elements                        : 2022$ Y2 c9 I. x+ B; u; J# n. q7 q
Stream size                              : 20.5 MiB (0%)
" k* x1 @# o* C* x3 S! D, wLanguage                                 : Dutch/ r( _+ G7 a' u
Default                                  : No! V- `6 k, k4 w: P# W# E+ c
Forced                                   : No. w0 R: J7 F1 r
Original source medium                   : Blu-ray0 }# @9 X/ \: z1 G: p+ T5 X5 z
- _( n4 }* `8 z1 E+ K! c
Text #83 E- A1 [- ^# H( T* Z) H
ID                                       : 15+ \* W  W/ K5 z
ID in the original source medium         : 4612 (0x1204)7 m4 l0 X- W) t" h3 I  N0 G
Format                                   : PGS7 V0 [0 J( |) l3 r% n
Muxing mode                              : zlib5 ^1 O# q9 G7 _" ^/ @4 X. F) h
Codec ID                                 : S_HDMV/PGS
& z2 F' g/ D' S- R4 f+ fCodec ID/Info                            : Picture based subtitle format used on BDs/HD-DVDs5 M' C! V% e) j# U8 A" b! i
Duration                                 : 2 h 5 min9 P7 U  S0 m. f3 ~& f! n' b0 O- o
Bit rate                                 : 20.0 kb/s6 c$ u% b: [8 ?' I" N8 e
Count of elements                        : 16305 C) t( W) ]/ {& P) ^
Stream size                              : 17.9 MiB (0%)
; A2 f  Z4 w) ELanguage                                 : Danish  t+ x) h: H* }  e
Default                                  : No
( S5 O9 R" Y7 }# v: XForced                                   : No, C9 m; ^2 D/ e. E
Original source medium                   : Blu-ray
$ f- Q* f% f; P2 E
* u1 B: w- P3 p" jText #9; \4 b, K8 E5 W% w
ID                                       : 16
8 f' ~- d5 S' n8 BID in the original source medium         : 4613 (0x1205)
' }4 K, w+ D- e8 F7 O5 v) s5 u! EFormat                                   : PGS
3 W8 g. `* ]( H; Z% M8 tMuxing mode                              : zlib
/ m+ b; Y% u/ d5 [Codec ID                                 : S_HDMV/PGS
/ `4 q/ n' c5 T' p. c/ i6 ?Codec ID/Info                            : Picture based subtitle format used on BDs/HD-DVDs& |0 i( {1 O8 O
Duration                                 : 2 h 5 min6 w0 i/ E2 k8 W
Bit rate                                 : 24.0 kb/s+ V8 _; q5 r- J4 W" w
Count of elements                        : 2492# \; O" t/ M4 Z6 b  Y( m' y" R
Stream size                              : 21.5 MiB (0%), R) ^" s: d" _" c9 f. h5 C
Language                                 : Finnish% m5 c3 i$ }$ q1 a
Default                                  : No
* P3 U% z  [" Y$ ~; @* \5 ]Forced                                   : No2 `  T- [2 l5 j( |+ h8 K$ Z0 \
Original source medium                   : Blu-ray
. _5 E/ N1 ~+ |* l0 h  @8 U
% F) H  F/ V# `0 A/ MText #10
! q. k( ^% S( o2 A! _ID                                       : 17' u! h& p6 c# i+ X2 Q7 m- x
ID in the original source medium         : 4614 (0x1206)
5 e7 l  ~: {+ u7 Z4 [$ OFormat                                   : PGS* z9 X+ g3 s  @' d! d5 x2 f' x$ A
Muxing mode                              : zlib
7 d6 e' ?) C5 k1 L6 T5 LCodec ID                                 : S_HDMV/PGS" a' ^8 s  \2 g* |: S" S
Codec ID/Info                            : Picture based subtitle format used on BDs/HD-DVDs
( r6 p7 y7 @9 g1 e( V; GDuration                                 : 2 h 5 min& {! C" Y  S9 a1 U$ v
Bit rate                                 : 21.5 kb/s/ b" W. M- q" j7 G- {. i
Count of elements                        : 2522
: k# ]4 X, g; @$ DStream size                              : 19.2 MiB (0%)9 J" U" O+ X! O6 Y
Language                                 : Norwegian0 v9 x, h& f8 N5 j  W5 B( ?" N" ?
Default                                  : No
" I0 Q  O; t8 t2 S5 AForced                                   : No8 Z( Z- H  S! c$ R
Original source medium                   : Blu-ray( E- b7 y/ ], u4 N- J
+ v$ e3 ]3 w& V- X# i2 D6 q
Text #11
* }0 G! ]' ?# L, e+ B2 q6 h8 I/ WID                                       : 18
1 L% q6 W' k8 o5 `6 V9 h: ]ID in the original source medium         : 4615 (0x1207)
! B- U) B0 j' y9 g7 x" g2 n/ DFormat                                   : PGS
+ N' ?- v! \+ E% X2 [3 L* O- CMuxing mode                              : zlib
5 ]: ^% w9 R( o; w+ d/ B! WCodec ID                                 : S_HDMV/PGS
9 r8 }5 c+ U* p, L" V* m  Z6 xCodec ID/Info                            : Picture based subtitle format used on BDs/HD-DVDs) \" t, I7 j7 ?" d( h+ a3 f  c8 b
Duration                                 : 2 h 5 min
' P8 @6 z7 h: {- ?Bit rate                                 : 21.6 kb/s
# L5 V& @! _6 J' N# h, v- \& f* Z: Y7 yCount of elements                        : 1898: E7 V1 q: }; D! l: Y! x2 x
Stream size                              : 19.4 MiB (0%)
" v: U% W2 w2 a. d  wLanguage                                 : Swedish
7 G3 d. {9 P; r2 V: H' JDefault                                  : No
* u  a# m9 f% mForced                                   : No# v: i# v  ]. z: @1 n
Original source medium                   : Blu-ray
+ Z7 P8 h, m' d$ v% f% v$ v: E  o! n0 S) ]4 S6 U# V! y" \
Text #12* `) C4 P- X( ?1 Y3 u. `
ID                                       : 19
6 I$ D8 p: }+ D9 E2 f; r; ~ID in the original source medium         : 4616 (0x1208)
- ^0 h, E) D5 k; O4 _Format                                   : PGS% n/ v- |: K; k$ f7 Q. i7 D
Muxing mode                              : zlib
, {* ]5 B7 ^' C" [: g" fCodec ID                                 : S_HDMV/PGS- ]6 l8 ~# P8 b2 f" P
Codec ID/Info                            : Picture based subtitle format used on BDs/HD-DVDs# T2 q! p) p: E
Duration                                 : 2 h 6 min
9 a* Z9 O3 d0 h7 @Bit rate                                 : 68.1 kb/s$ U# i9 o5 e0 X% V$ G
Count of elements                        : 44445 v8 L( V& @, Q8 u
Stream size                              : 61.5 MiB (0%)4 |; M2 h# Z. c/ h
Title                                    : COMMENTARY
" g. }/ q8 V4 {; PLanguage                                 : English$ J3 b( w& d/ B  l1 T
Default                                  : No* D+ G3 r" Y, \
Forced                                   : No  B8 p" n. J" n0 U
Original source medium                   : Blu-ray
- M! N0 _# I6 x' P$ Q! n
2 P! h& o; m1 W6 ^6 T' J1 uText #13" u/ h4 U3 w/ z1 q# x
ID                                       : 20) _5 e: k( a6 S6 k" R& G
ID in the original source medium         : 4617 (0x1209)
( e, w, m( u6 C% Z& y$ R- ?3 kFormat                                   : PGS
, w/ v; Z2 v& o1 mMuxing mode                              : zlib
; j, P, ]! c9 p6 M- uCodec ID                                 : S_HDMV/PGS- O9 o) |/ Y0 s6 w5 B- F, N
Codec ID/Info                            : Picture based subtitle format used on BDs/HD-DVDs. _! X7 E* C# l- W
Duration                                 : 2 h 6 min
2 O# N4 h# C) b' [Bit rate                                 : 53.7 kb/s
$ }6 Q2 {2 w( o8 Z* }/ x+ aCount of elements                        : 4096- ]; i6 Q2 T  V" u. V7 I$ K) b3 ]
Stream size                              : 48.4 MiB (0%)' N/ R" N; F% e+ O! Q% {
Title                                    : COMMENTARY$ O/ ?6 W- ]* e' e) R6 ?7 y
Language                                 : French
2 K  p6 t, L( @5 w0 H. RDefault                                  : No+ }9 E8 ^" f+ c
Forced                                   : No
+ r) |3 f( a6 F8 i8 J4 wOriginal source medium                   : Blu-ray
% w' Q; H+ c2 n  T" k
0 s/ r; b  D5 `# E( IText #14
6 b9 X8 A3 E: F2 e8 b* [ID                                       : 21- Q4 b7 \9 u2 f7 p9 u  Y
ID in the original source medium         : 4618 (0x120A)* K; ]" r. t: p5 L+ G
Format                                   : PGS
' }+ r0 @' T6 jMuxing mode                              : zlib
4 s9 Z7 ?1 j- {8 [9 r# c9 L; C  QCodec ID                                 : S_HDMV/PGS
  N9 a0 F6 s  x4 v' {; a  F! a/ SCodec ID/Info                            : Picture based subtitle format used on BDs/HD-DVDs, P: o* j! D+ _. }4 H! _
Duration                                 : 2 h 6 min
, o8 P  z4 Y7 oBit rate                                 : 65.5 kb/s; C' B2 ?4 G! ^8 m; F3 ?$ N9 x- S+ A
Count of elements                        : 4116- H$ Y( X  d2 C% }+ u) v
Stream size                              : 59.1 MiB (0%)+ @" v8 v/ P3 m4 C1 K: ~( ?, P1 ~
Title                                    : COMMENTARY
# Z& f2 A' W: y( {; t' bLanguage                                 : German8 P. l* k1 T- V
Default                                  : No& A& `. q7 W* ~5 b& k4 [
Forced                                   : No
: `9 `" d' v. w; J: s' FOriginal source medium                   : Blu-ray& m# V- u' f! a1 t6 V1 J
8 p" Q8 `6 j( f( ~
Text #15
1 k3 p7 ~5 N7 a( K. dID                                       : 220 _7 Q7 z# F# ~% H% d
ID in the original source medium         : 4619 (0x120B)8 P. Y+ ^, g, j5 ], G/ r4 m
Format                                   : PGS  e7 O" k9 r0 ~* O9 ?( {* x4 O$ n
Muxing mode                              : zlib
# o( b0 X  m2 a: n8 JCodec ID                                 : S_HDMV/PGS; F& c1 Y+ J# S0 |: k# I& H. s, C
Codec ID/Info                            : Picture based subtitle format used on BDs/HD-DVDs
4 Y2 [5 g  I# DDuration                                 : 2 h 6 min
" Y: g7 w+ s$ V. Q7 sBit rate                                 : 49.7 kb/s
4 `8 B' }& y% e& @. ?Count of elements                        : 3366# G+ y2 V' t; f4 ^2 r2 q
Stream size                              : 44.8 MiB (0%)3 u9 t) X, N7 m5 G/ J
Title                                    : COMMENTARY
6 I* [+ F& b% Y, t( k" z5 ]Language                                 : Dutch
7 R' p. V/ s  Z% J/ W1 HDefault                                  : No
+ |( s: R1 y/ z* ]/ \Forced                                   : No
& ~8 ~$ [: U; p# v7 ?9 ]. tOriginal source medium                   : Blu-ray
8 {. }3 i! A( z; X& B
2 d5 t8 \& N8 A; iText #16
! z1 L8 ~& h, \ID                                       : 23( V$ [7 j2 y$ i# R' _
ID in the original source medium         : 4620 (0x120C)3 P2 J9 k7 ^' m
Format                                   : PGS# _; f. s* S7 D  o; [0 X
Muxing mode                              : zlib
2 P4 c( y+ T) q2 f5 z3 C* D# G; uCodec ID                                 : S_HDMV/PGS- ~6 T/ M. b6 J& a- C# E. Y
Codec ID/Info                            : Picture based subtitle format used on BDs/HD-DVDs
+ ]$ |$ z8 g+ }1 ODuration                                 : 25 min 8 s3 s  _7 Z; g9 s
Bit rate                                 : 903 b/s
, T8 V% x, j0 YCount of elements                        : 20: h8 s) ~$ Y' @$ ?8 G% P
Stream size                              : 166 KiB (0%)8 L% x, F# K; ^0 I* @
Title                                    : FORCED- U7 |. {( w# @) e# h7 P) ^
Language                                 : English
* H  y. w; }" o4 \Default                                  : No( ?' B7 d) ]3 t+ j1 A+ h" y( b
Forced                                   : No
9 M8 P; P0 c2 Z& FOriginal source medium                   : Blu-ray
& K4 H' S$ Z; |8 ~9 |! C
0 V3 b1 G1 N) C, F$ ~Text #17
4 Y+ j; m/ m6 `$ z0 z- a0 |ID                                       : 24
4 Y) m' u1 |# b! i! a2 ^1 S4 |ID in the original source medium         : 4621 (0x120D)
' A+ W8 y/ M# v2 u$ m* e" P2 a* D4 WFormat                                   : PGS
; |1 x; a) G$ W9 X7 TMuxing mode                              : zlib5 s1 B) f2 N! @* R& N- U" l* p
Codec ID                                 : S_HDMV/PGS
. B2 e# T. A5 x2 R/ q% pCodec ID/Info                            : Picture based subtitle format used on BDs/HD-DVDs
, I, I: y- {, N1 q( HDuration                                 : 2 h 4 min
4 G0 a4 H& e- D, p/ g0 F5 IBit rate                                 : 295 b/s0 U8 {) n; Q, h6 D- o0 [- @' A
Count of elements                        : 24
* ^2 @7 d7 p1 F( e0 b& w: CStream size                              : 270 KiB (0%); F4 M# S1 k8 n2 v
Title                                    : FORCED; Q  H: c# j# H$ W% B, ~) m
Language                                 : French
3 k4 z1 }4 n1 mDefault                                  : No
; k- q: F5 u4 vForced                                   : No
+ g  f7 z  [" w4 O* C$ S% xOriginal source medium                   : Blu-ray
9 O: Q) \7 V3 {
% C, A1 ?& N6 _  M8 AText #18
) X+ X- |/ J( }* S& yID                                       : 25
, |' o8 a, s' b7 k. C2 RID in the original source medium         : 4622 (0x120E)' o: u1 b3 `4 \" ]* Y
Format                                   : PGS( N! N; a: i/ P- Y9 a* e0 a
Muxing mode                              : zlib
- \9 v+ {+ R) ^) M8 F* {Codec ID                                 : S_HDMV/PGS, ]! j8 v6 R% w4 b! N9 X; B6 i  l+ _
Codec ID/Info                            : Picture based subtitle format used on BDs/HD-DVDs+ \0 E! j) r: D0 U' _) Z
Duration                                 : 2 h 4 min
0 N; R& Q: f, EBit rate                                 : 249 b/s
% }; d* X" p9 {: x6 }$ W  U2 NCount of elements                        : 22
+ q: R( m7 A" @/ s/ [) NStream size                              : 228 KiB (0%)8 ~: z) [9 \  T; V! z
Title                                    : FORCED
: `2 g9 ~8 |8 b1 wLanguage                                 : German' |4 }' [5 r( v2 S8 A4 K/ L( H
Default                                  : No
8 z8 C* O& _  D- p# d0 V/ nForced                                   : No
3 @1 q9 H/ f6 m. ]- n% ]* ?0 OOriginal source medium                   : Blu-ray
8 ^, x* g& g  N# j% J4 N; ^; O5 X6 A, q& t" \
Menu4 b. I8 \) u! X8 \) A! _7 |
00:00:00.000                             : en:Chapter 01, ~+ ^* w" A5 G& N
00:03:51.397                             : en:Chapter 02$ \  z6 g4 t! y7 ?" k5 o0 e7 z
00:08:26.506                             : en:Chapter 03# m9 t3 Y/ H" u6 T0 c
00:14:19.441                             : en:Chapter 04
" r" M* @5 K0 w8 t0 ^+ k7 i! ]$ \00:18:23.018                             : en:Chapter 05+ o. M& n) d1 i/ c. E  @8 A
00:24:37.559                             : en:Chapter 06
0 _  j% j+ Q  w00:37:58.150                             : en:Chapter 07) Y  _- \, X3 ]  f2 V
00:47:15.457                             : en:Chapter 08& \0 o  [" o# W( H
00:50:03.542                             : en:Chapter 09
/ z; m$ X; P9 i" l00:55:51.056                             : en:Chapter 10
. e; V% R) Q1 B+ U( [00:59:46.332                             : en:Chapter 113 V6 w, Z; q% B4 _( V& {
01:02:19.652                             : en:Chapter 12
3 N2 l8 @/ z+ L# p& N01:05:18.414                             : en:Chapter 13- Q, w& n. C" b  q6 f
01:07:20.786                             : en:Chapter 14
$ E/ i. ?5 M8 G) U  t01:15:03.582                             : en:Chapter 15
' r  \8 C# B2 o8 V2 {+ x01:17:01.867                             : en:Chapter 16
% C3 y: y' M& V1 K01:19:18.378                             : en:Chapter 175 f$ j% L$ a6 A, e- j
01:23:29.337                             : en:Chapter 18
4 j5 l. i! _- |; e: p* C4 z' k01:26:34.189                             : en:Chapter 19# N% b. u6 L: e% x
01:28:51.200                             : en:Chapter 209 w  G% [$ f4 k" g; ^, U' f2 P! T
01:34:47.264                             : en:Chapter 21
6 E: E# V7 t2 J' x1 m01:37:38.644                             : en:Chapter 221 D( A: c* R* v6 L* W
01:41:27.623                             : en:Chapter 23
! L* i8 n7 [( V# S+ \$ B4 y. S& L01:51:03.281                             : en:Chapter 24
+ G# V+ a* k$ d2 N* @* B$ L01:53:26.466                             : en:Chapter 253 I7 p4 s8 t- `8 Q+ F  h
01:55:38.848                             : en:Chapter 26
# t2 P8 ^4 C! A8 q! r1 m01:56:32.068                             : en:Chapter 27
3 Y; T& r8 V3 l01:58:48.371                             : en:Chapter 28
( y; F$ u2 g; V/ w2 c. p01:59:26.742                             : en:Chapter 29

6 c$ I* b0 Q7 o# `% |( |
游客,查看本帖隐藏内容请回复 | 加入VIP可免积分免回复 了解详情 | 还不是会员:点击获取邀请码 Invitation Code

31

主题

2259

帖子

1万

积分

Sponsor

金币
1593 枚
体力
6232 点
QQ
shiji1973 发表于 2022-7-25 09:43:32 | 显示全部楼层
每天都来蓝光论坛看看,我爱蓝光电影。0 ^8 n9 N* U/ u7 b; s
至少是现在,我一天没有访问蓝光电影论坛就不爽!At least now, my day did not visit the Blu-ray Film Forum on unhappy!
) j8 l7 P0 M, W) i

0

主题

155

帖子

828

积分

Sponsor

金币
33 枚
体力
490 点
matrix 发表于 2022-7-9 17:08:42 | 显示全部楼层
Bluraycd又有新电影发布了,激动中……!; u' M, @# T, t2 t; i
The decisive Replies sink is I get the sinking feeling great sense of accomplishment!
  F8 h, A6 T1 Y7 Y$ C3 l5 [

2

主题

441

帖子

1897

积分

Sponsor

金币
460 枚
体力
627 点
211 发表于 2022-7-6 07:33:10 | 显示全部楼层
楼主发贴辛苦了,I*老*虎*U!, R  I, X( [6 B! L# R% b
The decisive Replies sink is I get the sinking feeling great sense of accomplishment!, B4 ~& [$ r. P- j4 j

0

主题

43

帖子

513

积分

Sponsor

金币
79 枚
体力
334 点
po64221376 发表于 2022-7-7 12:37:12 | 显示全部楼层
谢谢楼主分享

0

主题

117

帖子

707

积分

Sponsor

金币
52 枚
体力
385 点
kccylhh 发表于 2022-7-10 01:50:30 | 显示全部楼层
( S8 Q0 T( M- _8 x) }; v% S
楼主发贴辛苦了,I*老*虎*U!:

0

主题

97

帖子

680

积分

Sponsor

金币
92 枚
体力
322 点
quicken 发表于 2022-7-10 10:14:26 | 显示全部楼层
终于等到了,必须点赞!!!

0

主题

27

帖子

190

积分

Sponsor

金币
7 枚
体力
80 点
wyfwyf112 发表于 2022-7-10 13:51:29 | 显示全部楼层
大片必须赞,谢谢楼主!

1

主题

557

帖子

2207

积分

Sponsor

金币
14 枚
体力
1095 点
firendzhon 发表于 2022-7-12 15:10:56 | 显示全部楼层
奇异博士2   谢谢分享
2020第一天 ...

0

主题

149

帖子

1103

积分

Sponsor

金币
211 枚
体力
595 点
aacq 发表于 2022-7-14 21:45:30 | 显示全部楼层
好片,谢谢楼主分享精彩片子

31

主题

2259

帖子

1万

积分

Sponsor

金币
1593 枚
体力
6232 点
QQ
shiji1973 发表于 2022-7-18 10:22:08 | 显示全部楼层
这么好的帖子不回对不起自己!
4 z# [6 c2 D5 \  Y' q3 eThank you for sharing such a good resource polite reply, very sorry for myself!
* q7 R* k7 B4 A& L" X% _

本版积分规则

小黑屋|Archiver|蓝光电影资源网

GMT+8, 2022-8-15 05:34

Copyright © Tencent Cloud.

快速回复 返回顶部 返回列表