BluRayCD Forum

 找回密码
 立即注册【分享大片】
查看: 9|回复: 1
收起左侧

[蓝光原盘] 反馈/致命电台 [REMUX无损版] Feedback 2019 1080p BluRaycd REMUX AVC DTS-HD MA 5.1-FGT 13.49GB

[复制链接]

8900

主题

9094

帖子

7万

积分

Forum Moderator

金币
13276 枚
体力
12345 点

卓越贡献勋章

24小时 发表于 2022-7-5 19:41:53 | 显示全部楼层 |阅读模式
01.jpg
- V! A1 m: w1 ^. z$ K) l6 S5 h; \- o% i+ ?7 b0 U
◎译  名 反馈/致命电台. H& n! E6 |  c
◎片  名 Feedback' Z) C7 J) Z3 u' l9 ^8 k
◎年  代 2019
1 J- `6 A3 b$ t" L◎产  地 西班牙
& R. C. q- o2 X% u  R  W6 t◎类  别 惊悚/恐怖9 c; A' E9 _4 L: `+ Z- p, D
◎语  言 英语1 P( H1 c* B" N# B' T
◎上映日期 2019-03-01(西班牙)" v$ B2 j' n5 [  x# }. U
◎IMDb评分  5.5/10 from 2,293 users
% N& f4 i$ g3 Y' a: B% N◎IMDb链接  https://www.imdb.com/title/tt7857374/& \3 h  v2 b! m1 X$ w
◎豆瓣评分 5.6/10 from 246 users
2 A2 b. F: j3 y& @5 A◎豆瓣链接 https://movie.douban.com/subject/30274864/
+ G7 O+ I& R3 O6 M- i- U◎文件格式 x264 + DTS  ) T" e8 Y7 K+ f- y
◎视频尺寸 1920 x 1080- o& Q0 r' ?7 F, Y$ F
◎文件大小 1DVD 13.49 GiB( ]( f! s+ g. ^
◎片  长 1 h 37 min
. `, P2 k+ K# `( ?, Y! c& X◎导  演 佩德罗·阿隆索 Pedro Alonso; p" u# n( E* O  ^
◎编  剧 佩德罗·阿隆索 Pedro Alonso
+ C1 r7 b' V2 H! O1 T       阿尔贝托·马里尼 Alberto Marini9 m, i* O) H+ F8 A/ Y7 F
◎主  演 埃迪·马森 Eddie Marsan
, ]) z; Y9 F; k% r& T       保罗·安德森 Paul Anderson
# X) q1 [) a7 y9 z0 D/ F) t       伊万娜·巴克罗 Ivana Baquero& c9 s) K# ]- M, h
       奥利弗·库珀史密斯 Oliver Coopersmith
1 o. G  Q. g0 Z! g/ _4 R2 b       Alexis Rodney
6 P% ^8 f& n/ S4 [' p# K! c       安东尼·海德 Anthony Head
* o6 Y; X# ]. r       Alana Boden
6 W' t$ H  Q/ C/ u4 @       Nacho Aldeguer; S- P+ i: e! n6 T( w+ d
       理查德·布雷克 Richard Brake) W+ U& }* @2 M7 Z- F6 I, s& R
5 e% U3 r7 I# l0 j8 V. B2 ^
◎标  签 西班牙 | 惊悚 | 英國 | 电影 | PedroCAlonso. q& M3 ~% N; D' X7 J0 U
" C+ h4 V) l- ]3 c# F
◎简  介   
) W1 @) h8 r# b& f% T0 l: D7 y2 F& p: ?  N: t# |
  A radio star experiences the worst night of his life when stalkers assault the radio station where he's working.
. C' i! E# l! z" g9 X/ u9 c0 H
Video
3 o- ?1 T7 e; y* s, U  t8 U5 o# a2 P  OID                                       : 1: T  z. f) H& I7 T- q; v2 M
Format                                   : AVC
' s$ Q+ k! H  \0 e- qFormat/Info                              : Advanced Video Codec
5 I$ ~1 [' V) P# `# S- `  W! pFormat profile                           : High@L4  K+ {( a1 a% T  w* H  S
Format settings                          : CABAC / 4 Ref Frames
+ d, K0 ~6 }) V& b4 a3 j  xFormat settings, CABAC                   : Yes
8 x7 ^& h8 K3 _Format settings, Reference frames        : 4 frames
/ v4 b/ U0 T* Y# P0 R5 b4 hCodec ID                                 : V_MPEG4/ISO/AVC2 v# U% o( r0 m8 L
Duration                                 : 1 h 37 min8 w9 E- T7 P4 l) ~
Bit rate mode                            : Variable
+ Y) b  b8 x& B; B2 ]Bit rate                                 : 18.0 Mb/s
2 A6 l2 i0 O- |Maximum bit rate                         : 30.0 Mb/s
8 |% \, x( C7 {( c# CWidth                                    : 1 920 pixels
. v$ `. \+ r* ^: ?# z+ I( ?Height                                   : 1 080 pixels; n3 R4 k) A* i( `$ M: D
Display aspect ratio                     : 16:9
. W% l5 {& B! y. m4 s4 T6 A% w. }Frame rate mode                          : Constant0 f0 d  c: S9 M! g# @
Frame rate                               : 24.000 FPS. Q7 {; C; I2 {" A8 j+ f
Standard                                 : Component, [8 z) m( z! l7 [' r, P& }( ?( X
Color space                              : YUV: j8 n# @5 m7 t2 q- m
Chroma subsampling                       : 4:2:0
) [: i9 D- u! PBit depth                                : 8 bits% P- r" ~1 E. P) E5 _% J' B+ O
Scan type                                : Progressive1 v% B) z0 e. o
Bits/(Pixel*Frame)                       : 0.3625 c; z  Y$ @7 k/ F: N- Z! k% t9 ^
Stream size                              : 12.2 GiB (91%); d9 \; M) q# g* d( F1 O/ b" ]; ~
Title                                    : Feedback.2019.1080p.BluRayCD.REMUX.AVC.DTS-HD.MA.5.1-FGT
. c  v" I/ M3 C4 zWriting library                          : x264 core 148
' z3 `$ B- t; w% zEncoding settings                        : cabac=1 / ref=4 / deblock=1:0:0 / analyse=0x3:0x133 / me=umh / subme=9 / psy=1 / psy_rd=1.00:0.00 / mixed_ref=1 / me_range=24 / chroma_me=1 / trellis=2 / 8x8dct=1 / cqm=1 / deadzone=21,11 / fast_pskip=1 / chroma_qp_offset=-2 / threads=34 / lookahead_threads=2 / sliced_threads=0 / slices=4 / nr=0 / decimate=1 / interlaced=0 / minigop=1 / stitchable=1 / constrained_intra=0 / bframes=2 / b_pyramid=0 / b_adapt=2 / b_bias=0 / direct=3 / weightb=1 / open_gop=1 / weightp=1 / keyint=24 / keyint_min=1 / scenecut=40 / intra_refresh=0 / rc_lookahead=24 / rc=2pass / mbtree=1 / bitrate=18000 / ratetol=1.0 / qcomp=0.60 / qpmin=3 / qpmax=69 / qpstep=4 / cplxblur=20.0 / qblur=0.5 / vbv_maxrate=30000 / vbv_bufsize=30000 / nal_hrd=vbr / filler=0 / ip_ratio=1.40 / aq=1:1.00' a1 F. s" ~) }, d, u* z$ l
Language                                 : English
+ b( p0 f' N& N0 G) NDefault                                  : No" W- m6 ?- H: m2 D
Forced                                   : No
' ~( z1 S( j: B3 m5 D& r3 ~Color range                              : Limited0 k( Y" T! I  z& v7 r# G8 G
Color primaries                          : BT.709
) U8 Z" K) h, h" l$ fTransfer characteristics                 : BT.709# N. g' U) r4 K6 W: ^
Matrix coefficients                      : BT.709
# ^# d& L0 x3 u6 u, P# b% J, o
. l2 ^7 H2 l. Q+ N4 t" iAudio% E5 n9 z; U; V/ H0 c
ID                                       : 2% d0 k, F$ A) W2 l6 a; S
Format                                   : DTS XLL1 o7 |  Y! Y+ Q/ h4 f
Format/Info                              : Digital Theater Systems
: Y+ v' O$ T& I, H4 h3 ICommercial name                          : DTS-HD Master Audio
9 I, o* _( b: w  E8 P  PCodec ID                                 : A_DTS
; r" x. [+ j2 r; Y  w4 O8 zDuration                                 : 1 h 37 min( u4 F, m- l4 n, ]( ^+ S* J$ ^
Bit rate mode                            : Variable
/ I' K( Y% w( ~, `- dBit rate                                 : 1 821 kb/s- H4 W! G1 G, [: k+ j
Channel(s)                               : 6 channels( C6 b' \) m# k6 t
Channel layout                           : C L R Ls Rs LFE1 B0 V* e7 ]2 _4 W. C) n6 [
Sampling rate                            : 48.0 kHz% Y# Z, H9 |0 Z5 @. I, K! C6 t- v/ @
Frame rate                               : 93.750 FPS (512 SPF)
) K, \8 e" X3 p9 t3 c, C" Z' `! ^Bit depth                                : 16 bits
. I2 l. ]& {( L+ U4 U$ CCompression mode                         : Lossless/ h6 r! U' s' E+ m. o
Stream size                              : 1.24 GiB (9%)
6 ~0 ]% r% ?3 yTitle                                    : Feedback.2019.1080p.BluRaycd.REMUX.AVC.DTS-HD.MA.5.1-FGT
* L: S) x3 c/ a$ L. `' K: O8 {) A, WLanguage                                 : English5 ]9 K1 L0 |0 c2 D5 O( B
Default                                  : Yes6 t( n6 j7 {5 B; O) t* y& M# m- m
Forced                                   : No
* d7 C9 n5 I0 w
% Q( l/ C" F$ s( Y* y+ J. YText #1% |) P# e+ E$ y: r4 @) R
ID                                       : 3
4 Y& j3 g2 \  @* m% PFormat                                   : UTF-8$ c5 {( k& D) w( T+ E" k8 y8 x9 l4 k
Codec ID                                 : S_TEXT/UTF8
' x* M4 k& W1 ^( xCodec ID/Info                            : UTF-8 Plain Text8 T3 E  H) [/ z& e2 U. {
Duration                                 : 1 h 30 min  O. H/ H" h  C' l1 B- R4 n; }
Bit rate                                 : 66 b/s
1 z& v4 k$ ^) `. Z, H' uCount of elements                        : 12010 s2 k: K$ X. B# r7 U
Stream size                              : 43.6 KiB (0%)
; H7 ]4 ~, x" s4 @Title                                    : English-SRT
# I0 F0 `: C2 [- @- _6 `Language                                 : English
. p7 d. p( ?) A8 |Default                                  : Yes
; b2 H4 S( Y( }, a$ HForced                                   : No
' E2 e  Q9 {* A/ [* ~' s: z' h/ F$ ?7 c
Text #2
( O  V6 }( J& P0 WID                                       : 4' t& Z: {# J( b' r) E2 ^5 R1 M
Format                                   : PGS
, Q; h  u( Z% w" ^  r* d8 z% y6 pMuxing mode                              : zlib
# `, E" _* z3 c* TCodec ID                                 : S_HDMV/PGS
( ^+ b* U7 t& f& s2 u! WCodec ID/Info                            : Picture based subtitle format used on BDs/HD-DVDs; @$ G2 h0 q6 N: r$ U
Duration                                 : 1 h 30 min
( l5 a  |' W; l4 c3 x- {- @5 YBit rate                                 : 31.2 kb/s
( Q' J- e6 F5 N) `Count of elements                        : 1914
8 l- z- x/ h7 `. \2 CStream size                              : 20.1 MiB (0%)4 s2 W! y2 |0 d( }8 Y
Title                                    : English-PGS( G* M  T+ f- `3 K# G, J
Language                                 : English2 T5 |/ }8 k5 M! ?+ v" S& M- j
Default                                  : No3 t0 L. N' b" j+ O! |* i# t2 ^
Forced                                   : No) l9 ]' T$ R8 C9 z

6 B# j: P$ O2 F& X9 a6 QMenu
+ E; G$ e! A3 r0 G, d00:00:00.000                             : en:Chapter 011 T4 n, `0 Y3 q' p6 A7 S
00:09:04.958                             : en:Chapter 02
' v, y+ ?7 S4 P2 N" c( _( [00:15:59.541                             : en:Chapter 03
" Y: V( x8 k1 W% o( c% `00:23:20.875                             : en:Chapter 042 u# f& ]" Z  a: v! S- q. G
00:32:24.333                             : en:Chapter 05! G+ E" m, G+ k  e% }* u7 T$ s
00:44:50.791                             : en:Chapter 06! t' y- c# n' ^; d  K% l. k
00:50:41.708                             : en:Chapter 07
8 u/ |  ~1 A* t& O01:00:24.291                             : en:Chapter 08
0 ^! ]  C5 |% t' M01:06:36.208                             : en:Chapter 09
1 Z% A* d4 x3 Q01:13:53.833                             : en:Chapter 10! F7 c4 Y+ G# U. f
01:21:12.083                             : en:Chapter 11
) x" `- r+ v) g: }8 X01:31:32.458                             : en:Chapter 12
4 T( l5 y; N; G, M
游客,查看本帖隐藏内容请回复 | 加入VIP可免积分免回复 了解详情 | 还不是会员:点击获取邀请码 Invitation Code

0

主题

810

帖子

3222

积分

Sponsor

金币
176 枚
体力
1408 点
zzk980220 发表于 2022-7-5 20:56:51 | 显示全部楼层
每天都来蓝光论坛看看,我爱蓝光电影。
5 e7 s; Z; D2 R/ v. D, d5 `) {After reading the posts have nothing to do I Amoy posts!
6 `  b7 x% ^$ H5 T- l% h7 q

本版积分规则

小黑屋|Archiver|蓝光电影资源网

GMT+8, 2022-8-10 00:14

Copyright © Tencent Cloud.

快速回复 返回顶部 返回列表