BluRayCD Forum

 找回密码
 立即注册【分享大片】
查看: 8|回复: 1
收起左侧

[蓝光原盘] 囚徒/私法争锋/罪迷宫 [REMUX无损版] Prisoners 2013 1080p BluRaycd REMUX AVC DTS-HD MA 5.1-FGT 24.84GB

[复制链接]

8900

主题

9094

帖子

7万

积分

Forum Moderator

金币
13276 枚
体力
12345 点

卓越贡献勋章

24小时 发表于 2022-7-5 19:58:08 | 显示全部楼层 |阅读模式
A father is facing every parent's worst nightmare. His six-year-old daughter is missing. As minutes turn to hours, panic sets in.
. }+ A; g+ j0 |1 R' Q7 M3 h7 L+ M0 ]2 [1 d4 A
01.jpg * g3 b- H/ r" x8 m& j
" s5 J/ l1 L8 T. \9 @6 W8 N9 p( u
◎译  名 囚徒/私法争锋(台)/罪迷宫(港)
! H' ^  c% k: s3 k, r3 }◎片  名 Prisoners ' R5 R. U2 c# k8 [/ F
◎年  代 2013: `' }1 g+ q/ }, ~7 W9 V
◎产  地 美国
" R7 ^! @1 i" D$ _$ ^◎类  别 剧情/悬疑/犯罪; D0 i( [  O. Y5 w$ [' I) h9 x5 N6 P
◎语  言 英语
8 d2 ^# C8 c, @  X◎上映日期 2013-08-30(特柳赖德电影节)/2013-09-20(美国), z, x$ @* H! d' h: L5 g, p6 O: h
◎IMDb评分  8.1/10 from 686,867 users; R/ I$ G1 O: J2 C
◎IMDb链接  https://www.imdb.com/title/tt1392214/, c$ C  T8 `* i0 N# m. C  w
◎豆瓣评分 8.1/10 from 105,873 users( o3 B* p3 ~9 ^
◎豆瓣链接 https://movie.douban.com/subject/3592859/) H# e  i4 C1 V# {. C3 q0 J2 _
◎文件格式 x264 + DTS  8 e6 j! e5 S6 Q- F& s! R
◎视频尺寸 1920 x 1080) b. K8 l. x& e9 w' ~/ V
◎文件大小 1DVD 24.84 GiB
( c9 J  H- o! I, S◎片  长 2 h 33 min
! H3 l6 S0 k5 {3 m◎导  演 丹尼斯·维伦纽瓦 Denis Villeneuve1 ^7 A* h, o) s. D
◎编  剧 亚伦·格兹考斯基 Aaron Guzikowski
& M2 T( t/ b5 k) e8 Z7 u' r◎演  员 休·杰克曼 Hugh Jackman* u: e; W# k' R, `  Q2 F" Z
       杰克·吉伦哈尔 Jake Gyllenhaal1 ]+ x2 c& ]; n
       维奥拉·戴维斯 Viola Davis
2 W$ a$ d7 \: z4 g6 D       玛丽亚·贝罗 Maria Bello
$ k! N* }7 p0 d( X       泰伦斯·霍华德 Terrence Howard
/ V* {1 v& ~2 b$ x4 B5 x       梅丽莎·里奥 Melissa Leo" s" r5 U  @: B  {0 O
       保罗·达诺 Paul Dano
6 j( |3 |; ?* m& f& A; Y7 d       迪兰·明奈特 Dylan Minnette; X# g3 P* t# ~$ ^
       艾琳·格拉西莫维奇 Erin Gerasimovich
) T; o- g# Y0 f       韦恩·杜瓦尔 Wayne Duvall
& t, f# O% \4 K- Y7 ~8 L' |       兰·卡琉 Len Cariou
, Q" l2 I* R" L" x' x& X$ p" Y       大卫·达斯马齐连 David Dastmalchian4 Y) J1 p8 v* O% C: b
       布拉德·詹姆斯 Brad James
4 m5 V! `" G2 D& N3 D- [       安东尼·雷诺兹 Anthony Reynolds( U! k5 d. o3 i5 t% I# h$ i4 f9 c
       J·奥马尔·卡斯特罗 J. Omar Castro
0 ^2 ^5 ^3 K2 r$ F9 k* V  f       简·麦克尼尔 Jane McNeill
5 B6 \; t& n3 G$ d. \2 o1 d       桑德拉·埃利斯·拉弗蒂 Sandra Ellis Lafferty
9 A4 Q2 V8 H8 J
( l" l- `) H# e' \' p& r% ^! F◎标  签 悬疑 | 犯罪 | 美国 | 剧情 | 惊悚 | 人性 | 2013 | JakeGyllenhaal, p& c# d6 ~2 |/ @1 I
/ T2 }" P$ O& o! z' U: u/ ]
◎简  介   ' o7 [% t4 K) `, G7 _

  C8 t1 u) t, ~, X& _$ l  凯勒(休·杰克曼 Hugh Jackman 饰)是一名木匠,一次意外中,他的女儿安娜(艾琳·格拉西莫维奇 Erin Gerasimovich 饰)同小伙伴乔伊(凯拉·德鲁·西蒙斯 Kyla Drew Simmons 饰)一起莫名失踪。对于女儿遭遇的不测,心急如焚的凯勒向警方寻求帮助,很快,案件的负责人洛基(杰克·吉伦哈尔 Jake Gyllenhaal 饰)就将目标锁定在了一位名叫艾利克斯(保罗·达诺 Paul Dano 饰)的男子身上。
$ v: x3 Z- {3 B- j% Z- r$ D! L5 U1 J1 M) E1 f2 q9 ^9 {
  不幸的是,由于证据不足,警方不得不在四十八小时之后释放了艾利克斯,对警方失望透顶的凯勒决定靠自己的力量寻找女儿的踪迹。经验丰富的凯勒亲手捉住了艾利克斯,他希望能够通过武力获取关于女儿的讯息。安娜和乔伊最终能够获救吗?坚称自己无辜的艾利克斯又是否真的就是罪魁祸首呢?6 Q, ~- p* ?+ l) n

7 v6 n8 q/ C, l. e  When Keller Dover's daughter and her friend go missing, he takes matters into his own hands as the police pursue multiple leads and the pressure mounts.
- P  u# t4 o, ~  z9 [
Prisoners.2013.1080p.BluRayCD.REMUX.AVC.DTS-HD.MA.5.1-FGT# n% J# Z& Z# W
( H' y# Z: H( ~- v5 c: p
Video3 C5 q& `. S4 w9 u) _3 v" y
ID                                       : 1
4 x: o; e& C. F) P+ I" g, }ID in the original source medium         : 4113 (0x1011)
, k! G. D/ o! \' M+ f) ~7 vFormat                                   : AVC
- H; i5 N* [; D% @Format/Info                              : Advanced Video Codec
  N3 Y7 s8 I8 Y3 ^: t; m4 e4 |$ {Format profile                           : [email protected]
; x6 G/ @) V9 _$ ]Format settings                          : CABAC / 2 Ref Frames, k& x& y( }: j. F. p, ]' q
Format settings, CABAC                   : Yes
) r* }) y4 f! @; dFormat settings, Reference frames        : 2 frames* ?. W: i; z: c2 J. }
Format settings, GOP                     : M=1, N=101 _8 m+ z. Y: @0 J. b  r7 M
Codec ID                                 : V_MPEG4/ISO/AVC* O- a' n; X: o0 k# W& h. L
Duration                                 : 2 h 33 min; n* B  D# i  c& w0 n/ g6 b0 `8 O
Bit rate mode                            : Variable! ~1 ^. u# l4 f- l# \* n2 w/ i
Bit rate                                 : 19.9 Mb/s+ ]! B  P* L  y" n7 e
Width                                    : 1 920 pixels
: |7 `! J$ T5 d; [) G% h0 EHeight                                   : 1 080 pixels
! X. E5 \" Y4 z! S& M- a0 @, ]Display aspect ratio                     : 16:9
" H. c( j- o) U& _Frame rate mode                          : Constant
' o9 b' M4 p9 G7 m4 y1 p) MFrame rate                               : 23.976 (24000/1001/189150) FPS
- a/ N4 U& ], e3 h  G( k! x* pColor space                              : YUV
& n# I5 [% J0 e  p0 w1 nChroma subsampling                       : 4:2:0% J- e5 S  I6 S2 x2 ^& Z8 S8 ~
Bit depth                                : 8 bits
2 t. h+ s$ y) ^, `Scan type                                : Progressive  Q5 G% q/ k7 O$ l) u
Bits/(Pixel*Frame)                       : 0.400
2 C7 F* n( B; z9 `6 \Stream size                              : 21.3 GiB (86%)0 N4 S" [. A* F+ b" L' b
Language                                 : English2 k; d- G4 g! f( W' }
Default                                  : No
: ?( T: E6 i1 a9 T- L  kForced                                   : No
2 Y) L6 P$ q; y  Y& W( N0 lOriginal source medium                   : Blu-ray
; f( s* C4 {% `- L+ B* @1 B% _" d9 C' m" t& x
Audio
2 J* u* l  R. m) cID                                       : 2
+ J$ m+ v' z, R- p3 gID in the original source medium         : 4352 (0x1100)
" S% s2 Q2 h0 \8 B7 kFormat                                   : DTS XLL& _" [4 X$ E6 d7 U5 L* N; K
Format/Info                              : Digital Theater Systems, v% R6 _  |' m! p% N
Commercial name                          : DTS-HD Master Audio* G2 v9 Z' v9 }* }; t
Codec ID                                 : A_DTS: D1 e; C/ b" N; [& \
Duration                                 : 2 h 33 min% S+ @* P& R# S+ \! U0 C8 V* N
Bit rate mode                            : Variable
( F2 N$ [; K* Q/ \3 NBit rate                                 : 3 332 kb/s
2 E/ ~1 p# F, PChannel(s)                               : 6 channels+ M( `2 v- d' M- r: m
Channel layout                           : C L R Ls Rs LFE
- U) K3 `0 I: @9 Z# t/ o- j: fSampling rate                            : 48.0 kHz
% @) V' X# {8 m$ JFrame rate                               : 93.750 FPS (512 SPF)
2 d* O8 w& z; F" v8 ZBit depth                                : 24 bits
. P* V* r! m  F& l& o0 i/ rCompression mode                         : Lossless
& M& T7 h' Z- x# w7 k7 NStream size                              : 3.57 GiB (14%)7 Z: ^) N# ^4 _+ d) C
Title                                    : DTS-HD MA 5.1  Z& b& z1 [. h8 L6 W
Language                                 : English2 M% Y7 w( d5 V7 o- T2 P
Default                                  : Yes! Q1 \7 G8 f! \& |* F( O) U) E
Forced                                   : No
& W* Y7 @& ?6 m3 u9 I) x5 GOriginal source medium                   : Blu-ray9 Z5 ]* }2 H/ g! s; u

5 {; a$ ?9 |' t5 K# \$ \Text #1# j+ G/ V; ^% ~: Y- i$ y
ID                                       : 3
9 z7 j! J: D! {/ b' x  I, p7 OFormat                                   : UTF-8
: o, n8 c/ O1 h4 }- ~2 ?Codec ID                                 : S_TEXT/UTF8: _2 Z0 Q8 H- P% |( t4 G
Codec ID/Info                            : UTF-8 Plain Text6 Y" z# q5 B- r: ]3 r  u! b
Duration                                 : 2 h 23 min
% u7 H; T/ q+ \& P' X3 Q+ rBit rate                                 : 44 b/s
! a; V& O$ a- u' A+ ]' Q1 A* N: RCount of elements                        : 1273
$ J0 ]' V4 C6 @. K2 sStream size                              : 47.3 KiB (0%)
. v1 m. f- S2 W/ h2 {: U4 |8 j% c3 ILanguage                                 : English
* s% q- w2 q6 ^, h! {2 EDefault                                  : Yes
. O' ?1 n0 Q5 _& A. O2 r  X$ @Forced                                   : No. Y( u- |# V3 z* K* e
2 d; ]6 `' o  _- y/ |) r
Text #2
- o6 Q8 V  y: m- B9 @ID                                       : 4
  N% [3 O, l6 V4 MFormat                                   : UTF-8, h) F( L% O; j( F1 k& e
Codec ID                                 : S_TEXT/UTF8' m1 m- ]; S2 x; i* c% r
Codec ID/Info                            : UTF-8 Plain Text
$ l# e  S: z0 D- m3 B1 K; u! {! qDuration                                 : 2 h 32 min9 R1 W! M4 J. S* F$ ]1 m  @; G& X% F
Bit rate                                 : 45 b/s8 i5 N4 q2 @" X, {
Count of elements                        : 1451
/ {7 W/ l4 H- d9 RStream size                              : 50.7 KiB (0%)
: g! y$ [4 b; jTitle                                    : SDH
3 O( C: @- a, gLanguage                                 : English( r5 Y) h6 W' W8 M
Default                                  : No
% Z* d5 g" C: m5 c4 y* c" dForced                                   : No
+ f) l6 }# S/ k. d6 ~3 Y
7 f$ c3 `7 u. o" J8 RText #3
5 J; P- g# W( Q$ s7 _  F$ PID                                       : 5+ R: h* |5 d% @6 }
ID in the original source medium         : 4608 (0x1200)
/ T! {) a! T4 p( ~Format                                   : PGS
( s4 n  H- P/ a2 L) ?Muxing mode                              : zlib
6 E3 X  a+ F0 V# W' r( D- QCodec ID                                 : S_HDMV/PGS
' v6 S1 P& Q4 |" o! TCodec ID/Info                            : Picture based subtitle format used on BDs/HD-DVDs
/ m  |: b7 p% BDuration                                 : 2 h 32 min
2 y7 B/ @0 R2 q7 j( X4 `% jBit rate                                 : 25.5 kb/s
* s9 _* M! h( s; S7 j% i& sCount of elements                        : 3062
0 W. c! b0 ]4 F2 G( R( TStream size                              : 27.8 MiB (0%)3 k4 B# d" s0 S/ Y& B
Language                                 : English
- G* b2 `  W- \- Y% y4 \& dDefault                                  : No
9 Y4 x: t6 ~% I3 v" f8 k* sForced                                   : No" N2 {. u3 g+ _! [! ~
Original source medium                   : Blu-ray
2 m' A; C4 i7 y
9 O1 h, o" k% J( {* mMenu
1 J, ]4 }& L% I9 a' W3 x# a$ L00:00:00.000                             : en:Chapter 01
/ x3 ?: T7 A2 X7 k3 G4 i00:08:50.696                             : en:Chapter 020 ]' }8 N* M9 I# ^
00:19:52.107                             : en:Chapter 03  y. X1 i% B8 ]+ f
00:30:18.817                             : en:Chapter 04
4 O7 ?( D; A6 g8 n3 }- r) U' m2 L00:40:23.796                             : en:Chapter 05+ z# L# ?9 x3 ?+ |3 P
00:49:36.932                             : en:Chapter 06+ m& ~$ t# ]% J- ]
00:59:27.855                             : en:Chapter 07$ T. U/ ^: R$ g8 |# M+ q7 {
01:08:24.683                             : en:Chapter 088 V! a% H7 d" R2 }8 u0 |
01:17:28.894                             : en:Chapter 091 P; B5 K  }" z2 ~$ g- D
01:29:17.310                             : en:Chapter 10' Y# k" M. ^) ?8 [9 @* g0 H& O6 {* G6 Z
01:41:34.755                             : en:Chapter 11$ L6 [; ?& u! r2 u6 h" s- n
01:51:36.773                             : en:Chapter 12
" `6 I$ j" m) d8 b& G01:59:39.213                             : en:Chapter 13  Z# g. C& v8 R5 ]8 c
02:11:46.607                             : en:Chapter 14
# }% B  L: g+ v1 u: x02:19:50.548                             : en:Chapter 15
/ A# ]5 Y7 e, _  f. Z7 @02:25:54.287                             : en:Chapter 16
- k2 U* G% g) t5 N3 p: w$ i
游客,查看本帖隐藏内容请回复 | 加入VIP可免积分免回复 了解详情 | 还不是会员:点击获取邀请码 Invitation Code

2

主题

424

帖子

1831

积分

Sponsor

金币
450 枚
体力
603 点
211 发表于 2022-7-6 07:34:52 | 显示全部楼层
这么好的帖子不回对不起自己!1 R) Q: Q. A! ~& ?4 v# B- {7 F
Blu-ray movies Community: my favorite!0 H4 L* ^+ n- f0 d0 K' G

本版积分规则

小黑屋|Archiver|蓝光电影资源网

GMT+8, 2022-8-10 01:51

Copyright © Tencent Cloud.

快速回复 返回顶部 返回列表