BluRayCD Forum

 找回密码
 立即注册【分享大片】
查看: 19|回复: 0
收起左侧

[动漫动画] 狼的孩子雨和雪/狼之子雨与雪 Wolf Children 2012 JAPANESE 1080p BluRaycd x264.DTS-FGT 11.88GB

[复制链接]

1万

主题

386

回帖

10万

积分

Post Share

金币
394 枚
体力
27013 点

卓越贡献勋章VIP蓝光勋章诚信会员勋章

mvods 发表于 2022-7-18 06:15:21 | 显示全部楼层 |阅读模式
1 Y. T* t/ ^. r- |# ^1 F7 @

' k' u9 B* \3 s◎译  名 狼的孩子雨和雪/狼之子雨与雪 - R- ~0 d6 f/ _; x* A
◎片  名 おおかみこどもの雨と雪 / Okami kodomo no ame to yuki / The Wolf Children Ame and Yuki
' w+ q' T: Z6 d7 ~! v) p2 R◎年  代 2012. Y; j9 D4 w+ X# ]
◎产  地 日本, o& f* E$ w/ R8 m
◎类  别 剧情/动画/家庭/奇幻. d" P: h9 w* p; `
◎语  言 日语5 Q( R  F7 p! w# U# ^% d
◎上映日期 2012-07-21(日本), v/ P0 c! S, g0 O
◎IMDb评分  8.1/10 from 44,357 users
* b# a, R8 f* w$ w0 ~◎IMDb链接  https://www.imdb.com/title/tt2140203/! d% k  Q7 G' _+ T# J8 ~9 A
◎豆瓣评分 8.7/10 from 121,105 users
' {5 G! N4 F- u$ o- X- r* d◎豆瓣链接 https://movie.douban.com/subject/7064681/
  v0 r( T& N& P2 [: N" s7 N# E+ L◎片  长 1 h 57 min
; c" Y7 _% s7 }5 D) q◎导  演 细田守 Mamoru Hosoda  J8 S) X3 C  v" |& ?
◎编  剧 奥寺佐渡子 Satoko Okudera$ H) ]" p! ?4 G8 y3 n' T
       细田守 Mamoru Hosoda
( p5 }$ V3 ?! q◎演  员 宫崎葵 Aoi Miyazaki) G% G& L* N) r& p% b; p$ D) |
       大泽隆夫 Takao Ôsawa8 v, U: i5 b# V8 ^6 L* i( y
       黑木华 Haru Kuroki
) M" L9 R, S* U& {9 P       西井幸人 Yukito Nishii
7 d: T  h6 J. y       大野百花 Momoka Ohno
7 c/ O, m$ [, k4 S5 c, `7 O       加部亚门 Amon Kabe7 U5 z% }. J6 |5 D2 s
       平冈拓真 Takuma Hiraoka4 a& P) ~0 C- d. z' \7 L
       林原惠美 Megumi Hayashibara
/ b) s9 l$ u6 d  c1 F       中村正 Tadashi Nakamura' l! x; F1 B  ?* X
       大木民夫 Tamio Ôki
6 I; m' L: I( a% z       片冈富枝 Tomie Kataoka& N, o8 Y# z$ m, u: j& r5 T7 y3 T
       小林隆 Takashi Kobayashi
& p) t' [6 t( D: b       井上肇 Hajime Inoue
8 G' V( W0 f  F! ~/ n3 l/ L* e       染谷将太 Shôta Sometani! b8 Y( d2 H2 n
       桝太一 Taichi Masu! a: R7 O6 a8 Y' n, l4 t. F3 G
       碓井将大 Usui Masahiro4 V" ?! I; q9 ]2 Y
       多田野曜平 Tadano Youhei  X' Z2 V1 y( y: d9 g
       桥本一郎 Ichiro Hashimoto
& Z! L, L) }# g9 T9 d8 g       池上幸平 Kôhei Ikegami
1 T& m8 [- P+ \7 i! j       竹内太郎 Tarô Takeuchi
. ], h& j4 M$ U3 @1 }9 M) [% A       津田英三 Tsuda Eizou8 O0 b0 v, {" {
       今井麻美 Asami Imai
9 _4 ?) z( N1 }       德本英一郎 Tokumoto Eiichirou+ m0 ]% N; B- O6 `. J
       上白石萌音 Mone Kamishiraishi
& W+ `) b; s) W$ r       荒川知佳 荒川ちか
/ ^, A# H' Q, n9 K) e6 P9 T$ _' h       小林里乃 Rino Kobayashi
- j  ?: B9 G* M       春名风花 Fuuka Haruna
% W; T: F- y- B; ]       佐藤瑠生亮 Ruiki Sato
+ L! \0 }# c" D       田中奏生 Tanaka Kanau) X1 p: D# G9 s, [7 K' r: G
       小西舞优 Mau Konishi
2 ?2 L; o: M9 _. t* r       谷村美月 Mitsuki Tanimura
+ {, \; G7 i8 f; F4 o       麻生久美子 Kumiko Aso" Z" a( I" W" r+ `* s) h
       菅原文太 Bunta Sugawara( S) z0 ]+ ?* A3 T
       望月步 Mochizuki Ayumu% _: v; ^2 A+ p! ]  ^  W5 ^* N1 V
       奥田诚治 Seiji Okuda
. u7 W0 u/ p/ ~       斋藤优一郎 Yûichirô Saitô/ Z# q8 {+ F7 K
       丸山正雄 Masao Maruyama( M& q* a* p. I# w* S
       川村元气 Genki Kawamura9 ^8 W- o+ a2 u- J4 K
       高木正胜 Masakatsu Takagi* k$ S/ Z9 J$ k
       贞本义行 Yoshiyuki Sadamoto
* y# q- j9 H! u: I3 Q! F       今野康之 Konno Yasuyuki
5 g0 {8 H- ~' `       大杉宜弘 Oosugi Yoshihiro' P6 z- n8 t: l$ f' [

+ J5 ?$ n* ?: @* P◎简  介   7 g9 m& m) t7 L; m/ h

# Q7 V1 e6 J3 f# ]  在某国立大学念书的花(宫崎葵 配音)与偶然来校旁听的男子(大泽隆夫 配音)坠入爱河,即使对方是一名狼人,她也义无反顾投入对方怀抱。此后的岁月里,花先后生下女儿小雪和儿子小雨。谁知厄运突然降临,温柔的丈夫撒手人寰。柔弱而坚强的花竭尽全力抚养两个孩子长大,吃穿用度,衣食住行 ,无一不牵扯她的心思。而子女狼人的身份也迫使他们离开繁华大都市,前往宁静的山野乡村求生。他们在一栋古旧的民房内落脚,小雪顽劣张扬,小雨纤细内敛,姐弟俩以狼的身姿穿行于深山密林,享受着前所未有的快乐与自由。在此期间,以韭崎爷爷(菅原文太 配音)为代表的村民也给花一家带来无微不至的关怀。小雪和小雨渐渐长大,他们也终于迎来决定身份和前路的重要时刻……- @/ H- R% b, _; G5 o! u

* A+ U* q1 y& D  本片荣获第34届横滨电影节评委会特别奖和第36届日本电影学院奖最佳动画电影奖。1 {# U. O; R6 b( H" ~& e

0 O, H3 f& ]2 U: i  After her werewolf lover unexpectedly dies in an accident while hunting for food for their children, a young woman must find ways to raise the werewolf son and daughter that she had with him while keeping their trait hidden from society., @) `/ g, B5 n0 I, u, B
Wolf.Children.2012.JAPANESE.1080p.BluRayCD.x264.DTS-FGT 11.88 GB' z  \( Y) s+ B
. ^" h1 \' g6 ~) E& S* R
Video' Z* M% k% |* I$ U: ~/ H# P5 p2 U
ID                                       : 1
8 ?: ]: d: e! Z1 ^9 a. A& ]Format                                   : AVC
' _, A2 I8 ]: Z7 w& s( [, ?Format/Info                              : Advanced Video Codec/ y( P+ d, C& H% Q  |7 i; U
Format profile                           : [email protected]
/ d: v) n2 L" l  j" c5 |" dFormat settings                          : CABAC / 4 Ref Frames3 T* v! y' z4 M- r) v# _
Format settings, CABAC                   : Yes
) t: G# Q' g! `0 C: R) U9 bFormat settings, Reference frames        : 4 frames9 f  C- q4 z* l# q5 V6 m5 w+ _( {
Codec ID                                 : V_MPEG4/ISO/AVC! U6 s9 F+ H: _( p  H# ]! u# V
Duration                                 : 1 h 57 min
$ z7 n0 P& Z$ o2 @Bit rate                                 : 11.5 Mb/s
! O* S- e9 K; t! Q% Y7 jWidth                                    : 1 920 pixels9 G4 q8 n* p6 a
Height                                   : 1 080 pixels! u& {/ c% A" s1 a3 Z5 f
Display aspect ratio                     : 16:9
4 e& T2 L% X% k9 lFrame rate mode                          : Constant
8 Y6 S5 G& l- R- _  v; z% s3 uFrame rate                               : 23.976 (24000/1001/189150) FPS8 m) k$ X, H" @
Color space                              : YUV
# v2 I, G* g7 p& G' V* k/ _Chroma subsampling                       : 4:2:0  ]0 z& T; W4 _+ L) o
Bit depth                                : 8 bits- }7 k# x7 c, Y$ o* }$ T
Scan type                                : Progressive
+ w: [% A- J3 A8 Q8 s! g$ {: e1 GBits/(Pixel*Frame)                       : 0.231
# R- q% {% Y: K8 @- ]* eStream size                              : 9.41 GiB (79%)
7 w+ B9 m6 e; rWriting library                          : x264 core 148 r2795M aaa9aa8
* ?  s- x- O4 X$ B$ @1 k1 rEncoding settings                        : cabac=1 / ref=4 / deblock=1:1:1 / analyse=0x3:0x113 / me=umh / subme=8 / psy=1 / psy_rd=0.50:0.00 / mixed_ref=1 / me_range=32 / chroma_me=1 / trellis=2 / 8x8dct=1 / cqm=0 / deadzone=21,11 / fast_pskip=1 / chroma_qp_offset=-2 / threads=34 / lookahead_threads=3 / sliced_threads=0 / nr=0 / decimate=1 / interlaced=0 / bluray_compat=0 / constrained_intra=0 / bframes=3 / b_pyramid=2 / b_adapt=1 / b_bias=0 / direct=3 / weightb=1 / open_gop=0 / weightp=2 / keyint=240 / keyint_min=24 / scenecut=40 / intra_refresh=0 / rc_lookahead=50 / rc=2pass / mbtree=1 / bitrate=11500 / ratetol=1.0 / qcomp=0.60 / qpmin=0 / qpmax=69 / qpstep=4 / cplxblur=20.0 / qblur=0.5 / vbv_maxrate=31250 / vbv_bufsize=31250 / nal_hrd=none / filler=0 / ip_ratio=1.40 / aq=3:0.60
- M! `5 F' a8 h" PLanguage                                 : English
. j- o$ o# X: x  @/ ZDefault                                  : Yes
% n" J2 [+ t7 @5 T; p9 i4 o- \# dForced                                   : No
* i: `) q8 L$ n- y* H( z2 g; V! ?& j3 P& t. o* [& V
Audio #1
, T% G! E# S0 B& x1 {2 ]ID                                       : 2! B: w- o" H7 _; R, J6 _
Format                                   : DTS, v6 }3 i. H6 @1 c
Format/Info                              : Digital Theater Systems
, ^9 p0 {: L7 Q5 V7 H/ p% n& KCodec ID                                 : A_DTS
% q# O& j5 j7 r  R# t4 ~& S( dDuration                                 : 1 h 57 min
( F8 T  ~+ d8 z1 |# |0 _+ QBit rate mode                            : Constant
+ N0 ], F5 j$ J2 V( d& FBit rate                                 : 1 509 kb/s" i1 y) f7 y: N% `
Channel(s)                               : 6 channels% H3 v4 O4 ]  r
Channel layout                           : C L R Ls Rs LFE
# R! z: x6 |9 f% `! P( t) PSampling rate                            : 48.0 kHz
* x* t2 E/ ]4 c% H' bFrame rate                               : 93.750 FPS (512 SPF)$ x8 J& ~. y& n+ j& d4 w0 g1 M
Bit depth                                : 16 bits1 x9 Q/ {4 _" w( O2 x6 y
Compression mode                         : Lossy, S/ ?) e$ ^+ x4 B
Stream size                              : 1.24 GiB (10%)6 }+ Z% S6 B; Y# F- o
Language                                 : Japanese! D9 y+ o: ]- e# O. v
Default                                  : Yes
* N/ W( H$ m- Y. h! W( ~- a& \" AForced                                   : No
; M. U, p: L1 Q/ B1 `: T& p0 b: T! j4 q7 x' h& j
Audio #2. Q. a! `: W3 I7 m' i
ID                                       : 3# C6 m6 o% P; J; V
Format                                   : DTS
5 ~8 Y* u0 o/ e! OFormat/Info                              : Digital Theater Systems
1 C5 P' S8 u5 }2 R, e4 W2 ]. uCodec ID                                 : A_DTS  V( |9 Z9 w6 V0 L5 f6 _
Duration                                 : 1 h 57 min! R8 G) H  f7 T8 N  _) ~/ k
Bit rate mode                            : Constant
, k  y0 _! G1 R. T9 d3 l! aBit rate                                 : 1 509 kb/s7 d, @: k  A/ w
Channel(s)                               : 6 channels
" |" e+ e, c' V5 L5 a; z' HChannel layout                           : C L R Ls Rs LFE- M% G2 `$ h3 l; p3 u5 J" X. A
Sampling rate                            : 48.0 kHz
$ _% c( ^5 j/ b  j' D0 ?1 B; eFrame rate                               : 93.750 FPS (512 SPF)
) c( U6 C+ L+ D, dBit depth                                : 16 bits
, T: E& k5 |/ o) K4 @$ |. ^: JCompression mode                         : Lossy) G+ _2 s9 y1 n
Stream size                              : 1.24 GiB (10%)) c, `! Q+ {; C6 r- Y7 U
Language                                 : English; y: g$ v( X$ ~/ q) g5 m
Default                                  : Yes" F9 i% x& J% d+ E' C; ?/ J
Forced                                   : No2 c6 G5 Y* d& w$ l4 h) ^7 {& y, F* o
. b0 K5 E( D% O" D5 }- g* I9 F
Text #1
& n9 ^# i% {% Z/ W/ y3 IID                                       : 4$ @# A( @4 Q) H; S1 Z5 T/ z& `1 I
Format                                   : UTF-8: T4 _3 A  T" ]: y
Codec ID                                 : S_TEXT/UTF8; j* J: U5 M% G8 t* d
Codec ID/Info                            : UTF-8 Plain Text- s! n3 [; c1 t/ C4 t3 Z& j( G
Duration                                 : 1 h 52 min
  S3 y0 i8 H( B9 E; O' I* gBit rate                                 : 2 b/s
+ z0 q; B/ z; g& I; s' jFrame rate                               : 0.012 FPS
% n/ s  p/ N) [- pCount of elements                        : 78! ?! o9 G/ w& U, V! m# p
Stream size                              : 2.41 KiB (0%)4 c$ i/ S; O* E0 f6 W; s- p( }
Language                                 : English
' N+ v/ ]0 Z- j* b1 Y$ ~Default                                  : No* W% b5 R" t( A5 {" x6 c: d/ d  I8 P1 k
Forced                                   : Yes* }) |6 k# s; E
0 [, b' F/ d  R
Text #2
! i9 w' [* V  W1 cID                                       : 5! u8 U3 u" {/ t. R
Format                                   : UTF-8
4 q- ~* Z0 t0 q- l3 c9 L3 O" cCodec ID                                 : S_TEXT/UTF8
; R3 i% r  f. KCodec ID/Info                            : UTF-8 Plain Text
0 L7 [$ L1 W& Y2 i0 XDuration                                 : 1 h 55 min" x4 R: k/ A! t' v7 E$ x
Bit rate                                 : 45 b/s
0 j. ^' a+ F4 G9 U# nFrame rate                               : 0.185 FPS
$ L) g: Y) F) a) Z- wCount of elements                        : 12906 [# d9 O$ x1 ^+ t1 w  O+ k1 W. X
Stream size                              : 38.8 KiB (0%)
' d. o7 Z1 X* h) |7 ~5 w  G, G2 wLanguage                                 : English
0 L( `/ I$ U% t& z5 UDefault                                  : Yes
" h8 }& P7 V, X1 EForced                                   : No
8 _% D$ q* X# d4 D- N  x& L2 x3 [3 b  g6 h) p# ^" ?" w
Menu
- i9 ]6 j% _; e7 N& J, z00:00:00.000                             : en:Chapter 013 C# Z% x' o2 B& _9 `( V: R
00:04:31.020                             : en:Chapter 02/ |1 D+ Q0 ]6 O% U& n- D
00:09:41.414                             : en:Chapter 03
5 ^* q  o. y% x0 i00:14:00.589                             : en:Chapter 04
* k* L) |# k% D9 l$ O! H% b00:18:29.108                             : en:Chapter 05: Q  g7 U+ }& k7 ?. \3 Q3 g
00:22:21.757                             : en:Chapter 06
+ P& ?( ^9 d3 m4 D00:28:47.976                             : en:Chapter 07& E6 D/ F; b: O
00:35:47.145                             : en:Chapter 081 L. A& L( z6 [2 N' v' @5 [1 C2 N
00:41:01.834                             : en:Chapter 09
, M: }6 m* e( E3 U( m! ^0 X6 O% S00:46:40.631                             : en:Chapter 10
$ `4 S, |- w* n& {$ {0 \# ~/ y00:53:35.212                             : en:Chapter 11( R* j! J  S5 `- V- d: G! t
00:58:42.185                             : en:Chapter 12
5 d# b4 Y' F4 Z01:02:23.948                             : en:Chapter 13
& Q9 [8 K5 Q4 R2 a4 \5 t0 o% Q01:06:17.848                             : en:Chapter 14
* p* c8 [3 e. `8 i7 U* H8 q5 P( A2 C01:10:47.576                             : en:Chapter 15
0 o3 x4 \( u. n# c$ f01:17:55.587                             : en:Chapter 16  I5 \' s+ _( N& D, X* I
01:25:09.854                             : en:Chapter 17$ d2 P( [- b2 }
01:28:39.105                             : en:Chapter 18
! r" t; o8 b' R+ c: `% }  J01:35:43.612                             : en:Chapter 19! B/ _; \: M$ [
01:44:34.810                             : en:Chapter 20' X7 X$ {7 w8 B) V4 L! ?
01:51:48.201                             : en:Chapter 21
3 Y* {( L1 b1 _. C01:57:02.890                             : en:Chapter 22
0 u: L  r/ }8 U2 a$ m+ L; y
游客,查看本帖隐藏内容请回复 | 加入VIP可免积分免回复 了解详情 | 还不是会员:点击获取邀请码 Invitation Code

本版积分规则

小黑屋|Archiver|4K蓝光论坛

GMT+8, 2023-2-9 14:40

Copyright © 2001-2021, Gadaddy Cloud.

快速回复 返回顶部 返回列表