BluRayCD Forum

 找回密码
 立即注册【分享大片】
查看: 97|回复: 6
收起左侧

[喜剧爱情] 蜜桃女孩 [内封中字] Peach Girl 2017 JAPANESE 1080p BluRaycd x264 DTS-iKiW 9.75GB

[复制链接]

1万

主题

1万

帖子

13万

积分

Post Share

金币
24903 枚
体力
26239 点

卓越贡献勋章

mvods 发表于 2022-7-21 21:28:05 | 显示全部楼层 |阅读模式

  Y7 Q) U* h9 B. M* t
; L- k' D1 U; A, ]◎译  名 蜜桃女孩
8 r" B5 |$ X2 }: Y5 J◎片  名 ピーチガール / Peach Girl
5 W/ d' r+ s# w3 i6 X, y& {◎年  代 20175 d; N5 }! m) K; A; z
◎产  地 日本
+ M+ M3 u5 m, F! ~; z( V$ g( R◎类  别 剧情/喜剧/爱情- K+ o* T# i1 N- N8 _, `2 t
◎语  言 日语# s8 a, E9 B& b8 o; A  ~4 v
◎上映日期 2017-05-20(日本)
2 S1 g/ s8 M# d8 A! p◎IMDb评分  5.9/10 from 567 users9 f2 O5 k1 A) t6 l$ m
◎IMDb链接  https://www.imdb.com/title/tt5593416/8 ?: @- j+ K. U/ T* I
◎豆瓣评分 4.6/10 from 3,302 users* K" y/ k+ A/ y) j# o- c
◎豆瓣链接 https://movie.douban.com/subject/26761228/
. v" p5 n) D3 y* A◎片  长 1 h 56 min
/ V6 W; c3 N% w* r◎导  演 神徳幸治 Koji Shintoku& J: X/ m- T  t# U6 p2 Y
◎编  剧 高田美和 Miwa Takada
: q; S) w5 l5 Z' X- o       山冈润平 Junpei Yamaoka- S1 Y8 Y! T- P3 `! c* a* k" ]. R. L& q* K
◎主  演 山本美月 Mizuki Yamamoto6 C7 A6 C. ^% A  l* u! D' e
       伊野尾慧 Kei Inoo
* e0 x' ]+ G$ Q, x7 Y7 n       真剑佑 Mackenyu
9 e" B3 r( _9 b9 k4 n) R7 m9 u       永野芽郁 Mei Nagano
' b& {, s. D$ `* v+ |& Y- S9 a       森田想 Kokoro Morita- j( h7 d* |7 K6 X4 W4 U

3 S% ?8 q' k8 O( W5 ^◎标  签 日本 | 日本电影 | 爱情 | 2017 | 漫改 | 日影 | 伊野尾慧 | 山本美月) ?7 ?1 S4 c+ u# x% b, ]& `0 N5 F4 [

2 j7 x6 ], s% ?$ k# ]◎简  介2 x: R  a, |3 x. J# `
& |; E  j& s4 K& o
  安达桃(山本美月 饰)虽然有着一副不良少女的外表,但内心里却是一个传统而又天真的好姑娘。柏木沙绘(永野芽郁 饰)是小桃青梅竹马的玩伴,从小打到,只要是小桃喜欢的东西,沙绘总是要横刀夺爱,对于沙绘的霸道和自私,善良的小桃总是选择容忍和谦让,这让沙绘的行为愈发张狂起来。
. f5 y( r/ l9 G5 E; @: z# r: N! E" g, ~% W7 ^# ]4 L; F
  小桃一直默默的喜欢着同级生东寺森一矢(真剑佑 饰),但是她选择将这份感情默默埋藏在心底,一是觉得一矢绝对不会喜欢像自己一样的女生,二是害怕沙绘知道自己的心思。冈安浬(伊野尾慧 饰)是学校里大受女生欢迎的校草级人物,奇怪的是,他却独独对小桃产生了兴趣。2 j6 s$ a' V" ^  Z( O! N

. [' m8 l5 b) u  Momo Adachi is a female high school student. She appears to be a wild girl due to her tan skin and dyed hair, but she is a actually naive and sweet student. Since her days in middle school, Momo Adachi has secretly held feelings for classmate Toji. Meanwhile, the most popular male student, Kairi Okayasu, becomes interested in her. Her friend Sae is jealous of her and tries to block Toji from Momo. Momo is conflicted with Toji and Kairi, but she has to make a decision.5 U7 i1 D0 h! b' O2 W7 C
Peach.Girl.2017.JAPANESE.1080p.BluRayCD.x264.DTS-iKiW 9.75 GB
) f" [# K, n$ t- l9 T. q1 g, M# j+ D7 S" x( b/ a
Video
3 U& Q3 ~& [  D: qID                                       : 1' v7 m, w. j* I* a
Format                                   : AVC
4 d- m. r% V' c! R" i/ MFormat/Info                              : Advanced Video Codec' J8 q  T- C& S. J6 }9 W4 M0 J* ]
Format profile                           : High@L4
' `5 [' Y0 p9 u5 V+ q# q! iFormat settings                          : CABAC / 4 Ref Frames5 r, I) ~* N+ ~9 r
Format settings, CABAC                   : Yes3 [9 u& a: \/ o( [* c+ L& b6 @
Format settings, Reference frames        : 4 frames! O& N. p$ B* G. n5 ?6 }8 D6 W
Codec ID                                 : V_MPEG4/ISO/AVC9 e6 _7 M4 w: F% H8 N7 y7 O
Duration                                 : 1 h 56 min* n* w2 u7 m/ k' H+ R# Z& t% J
Bit rate                                 : 10.5 Mb/s
& u5 y/ j( R9 Q3 v* AWidth                                    : 1 920 pixels# ~& W- P6 J1 E* @" l& h$ `
Height                                   : 1 036 pixels$ I$ G- }9 z: E7 f
Display aspect ratio                     : 1.85:1
/ m2 Z9 r: P6 pFrame rate mode                          : Constant# y6 a. D0 `: f0 j* W0 k( q
Frame rate                               : 23.976 (24000/1001) FPS# H/ ~$ T) s+ F+ r
Color space                              : YUV
; ^7 q" s- p; l- t: z2 l7 ?Chroma subsampling                       : 4:2:07 W8 v' f3 M4 @: @! G  n1 P
Bit depth                                : 8 bits6 v: S6 _- k! }7 K- q! j/ `2 F
Scan type                                : Progressive
# Z3 R) t7 _. q6 pBits/(Pixel*Frame)                       : 0.219
5 [. ~: n2 C' zStream size                              : 8.51 GiB (87%), {) N0 e  J4 z: B
Writing library                          : x264 core 129 r2245+704+36 8e61944 tMod+MixAQ [High@L4:2:0 X86_64]
; n5 [- v; m8 L+ L# zEncoding settings                        : cabac=1 / ref=4 / deblock=1:-3:-3 / analyse=0x3:0x133 / me=umh / subme=11 / psy=1 / fade_compensate=0.00 / psy_rd=1.05:0.10 / mixed_ref=1 / me_range=64 / chroma_me=1 / trellis=2 / 8x8dct=1 / cqm=0 / deadzone=21,11 / fast_pskip=0 / chroma_qp_offset=-3 / threads=18 / lookahead_threads=3 / sliced_threads=0 / nr=0 / decimate=0 / interlaced=0 / bluray_compat=0 / constrained_intra=0 / fgo=0 / bframes=10 / b_pyramid=2 / b_adapt=2 / b_bias=0 / direct=3 / weightb=1 / open_gop=0 / weightp=2 / keyint=250 / keyint_min=23 / scenecut=40 / intra_refresh=0 / rc=2pass / mbtree=0 / bitrate=10468 / ratetol=1.0 / qcomp=0.70 / qpmin=0 / qpmax=69 / qpstep=4 / cplxblur=20.0 / qblur=0.5 / ip_ratio=1.40 / pb_ratio=1.30 / aq=1 / aq-strength=0.90 / aq-sensitivity=10.00 / aq-ifactor=1.00 / aq-pfactor=1.00 / aq-bfactor=1.00 / aq2=04 N' y+ O+ Y' Y. X. l" x: d
Language                                 : Japanese) i; l' ]( B; d5 F7 `
Default                                  : Yes
0 J4 @( `4 C& u. y# \1 aForced                                   : No/ K, h% b. L) |" n7 l" o  @: ?8 T
0 x1 ?3 J8 i- w8 P  }) i. e
Audio
: D4 b2 V2 w: A6 e- tID                                       : 2
6 o* b& B8 _; K. S* q9 IFormat                                   : DTS
! N- ?' z- H2 }( EFormat/Info                              : Digital Theater Systems0 n' M% G+ `; J+ t8 @
Codec ID                                 : A_DTS
' Q: P; p/ T5 T* N6 g* Q* {1 ^& N# GDuration                                 : 1 h 56 min5 V# U) X' {' s
Bit rate mode                            : Constant) [# }* g6 R3 C, \8 t
Bit rate                                 : 1 509 kb/s
+ T1 J( H* J  q+ f4 M" e5 ^Channel(s)                               : 6 channels9 s% o% B- g  ~: ]7 l+ B$ F
Channel layout                           : C L R Ls Rs LFE
8 n3 z: y! F" N  Y# fSampling rate                            : 48.0 kHz
' U" \, J, m* @7 MFrame rate                               : 93.750 FPS (512 SPF)$ _  o/ F% o7 o4 T/ e& N# p
Bit depth                                : 16 bits
/ K$ U$ c6 k# ?Compression mode                         : Lossy
% b* ~5 N2 I4 e4 T1 }! K& OStream size                              : 1.23 GiB (13%)
6 n4 J. T- ^, v( ]" S. C( {& ILanguage                                 : Japanese
& e# b5 V8 B  X" _  {0 KDefault                                  : Yes
: _$ R$ s9 R3 `' \* s% i9 ?; g" DForced                                   : No' m3 d6 l* N( h9 Q
3 I& o0 G6 J3 Z% [# O; P
Text #1' N& ~* `# J% C  y- E# B! {
ID                                       : 34 O: l0 ~  A$ c
Format                                   : UTF-8! T, |' W/ u3 n, ~7 U9 O
Codec ID                                 : S_TEXT/UTF8
( d0 ]8 \# x5 s+ |1 ECodec ID/Info                            : UTF-8 Plain Text
2 [" Z2 [6 Y, U4 ADuration                                 : 1 h 55 min$ c. ?3 G5 H- ~- y" L0 U
Bit rate                                 : 41 b/s
, m; Y3 R% G) [6 i/ |, YCount of elements                        : 1358
& h: ?3 m* `8 A" r" l! C3 p  ]Stream size                              : 35.2 KiB (0%)
9 p/ R  u8 I# b9 z, Q4 jLanguage                                 : English" h7 l1 c8 i# T3 Y/ S! n
Default                                  : Yes2 _* H8 ]" v" ^  S, ?' i
Forced                                   : No
% c5 m0 i! V. g9 z- v( _% W4 L; [# J
Text #2! b  ~" w5 K# T5 e6 d
ID                                       : 4
. O/ V6 L# u6 f5 hFormat                                   : ASS
% v' q2 b2 G6 i) ^2 dCodec ID                                 : S_TEXT/ASS
" v5 T6 z6 D+ p& w; b4 MCodec ID/Info                            : Advanced Sub Station Alpha
' P. i) I/ O9 m/ o! K. H/ O7 A  ^  eDuration                                 : 1 h 56 min) ^( D- j0 ]1 Y  X5 _. x( V
Bit rate                                 : 73 b/s
: x# b3 J+ U5 I4 gCount of elements                        : 1327. q" c# t4 z' x1 ~
Compression mode                         : Lossless
7 _# Z1 M, K* E: d  QStream size                              : 62.3 KiB (0%)
/ z0 K7 c) p6 H, L6 U6 cLanguage                                 : Chinese
1 x3 r! Y% R; V; v6 ~) u+ l! TDefault                                  : No) D4 Y. e2 {+ g5 e4 k& D+ [, M
Forced                                   : No
$ t! X4 u9 e) C  O2 @
& D2 |! \) b+ X) G* M' U2 Q, ^Menu% q: t4 }/ l3 y0 ]$ ]( o; ?
00:00:00.000                             : en:00:00:00.000( y; J0 v6 C; z  O2 _
00:12:59.695                             : en:00:12:59.695  ^) `; m2 y  c/ W' \  p6 f
00:33:35.304                             : en:00:33:35.304; t1 G# \5 g3 c" W( T
00:48:54.056                             : en:00:48:54.056% [. S) \5 Y4 ^0 f0 E9 g, ]
00:59:17.512                             : en:00:59:17.512
4 H3 p/ ^$ {. o3 C8 p. \& B" h01:16:25.664                             : en:01:16:25.6646 y5 y+ J% o9 D% Q
01:28:43.609                             : en:01:28:43.609  {# X( L. ~+ p* i5 Y
01:38:55.054                             : en:01:38:55.054
0 p* \0 i+ z( @% e0 F01:56:24.644                             : en:01:56:24.644
6 k0 F- j: o6 N) P  c2 b
游客,查看本帖隐藏内容请回复 | 加入VIP可免积分免回复 了解详情 | 还不是会员:点击获取邀请码 Invitation Code

0

主题

119

帖子

719

积分

Sponsor

金币
49 枚
体力
396 点
kccylhh 发表于 2022-7-21 21:54:11 | 显示全部楼层
- c; }( Q, U& L; c6 S+ ]2 x
这么好的帖子不回对不起自己!

3

主题

164

帖子

681

积分

Sponsor

金币
7 枚
体力
338 点
2360090999 发表于 2022-7-27 22:22:37 | 显示全部楼层
啥也不说了,楼主就是给力!
又有新片了 ...

0

主题

715

帖子

2840

积分

Sponsor

金币
242 枚
体力
1139 点
lfvvzc 发表于 2022-7-28 14:49:51 | 显示全部楼层
膜拜神人,后来者请保持队列……!- Q1 U6 y- r! T/ h, Z1 ^9 I
Not see, I am a novice, the inadequacies of the first Please bear with me!$ b  Y8 t; i) |) _  d/ c

0

主题

979

帖子

3824

积分

Sponsor

金币
237 枚
体力
1633 点
zzk980220 发表于 2022-7-28 21:46:49 | 显示全部楼层
啥也不说了,楼主就是给力!
4 r0 a: f4 _. V  H: K8 Dbluraycd forum, a lot of Blu-ray movies!
  o3 E: ]* ^: M; z& ?; A7 q

1

主题

78

帖子

755

积分

Sponsor

金币
190 枚
体力
398 点
wuyan7734 发表于 2022-7-29 21:29:54 | 显示全部楼层
哥顶的不是帖子,是孤独!, F! F5 R' q& A3 `  h
Thank you for sharing such a good resource polite reply, very sorry for myself!
7 F( n$ j1 @, V2 Z% y/ A

31

主题

2391

帖子

1万

积分

Sponsor

金币
1708 枚
体力
6497 点
QQ
shiji1973 发表于 2022-8-15 18:00:09 | 显示全部楼层
每天都来蓝光论坛看看,我爱蓝光电影。9 w: v) W$ N) }! I
After reading the posts have nothing to do I Amoy posts!
/ W. Z3 L% _; Q

本版积分规则

小黑屋|Archiver|蓝光电影资源网

GMT+8, 2022-10-1 07:18

Copyright © Tencent Cloud.

快速回复 返回顶部 返回列表