BluRayCD Forum

 找回密码
 立即注册【分享大片】
查看: 32|回复: 1
收起左侧

[动漫动画] 我的英雄学院:世界英雄任务/我的英雄学院剧场版3 My Hero Academia World Heroes Mission 2021 JAPANESE 1080p BluRaycd x264 DD5.1-HANDJOB 8.98GB

[复制链接]

1万

主题

386

回帖

10万

积分

Post Share

金币
394 枚
体力
27013 点

卓越贡献勋章VIP蓝光勋章诚信会员勋章

mvods 发表于 2022-7-25 23:10:57 | 显示全部楼层 |阅读模式

$ N8 n+ ]9 h8 k# n2 T
7 p- W- D3 x/ S+ w◎译  名 我的英雄学院:世界英雄任务/我的英雄学院剧场版3
$ A6 B( e' @9 }  x◎片  名 僕のヒーローアカデミア THE MOVIE ワールド ヒーローズ ミッション / 僕のヒーローアカデミア THE MOVIE / Boku no Hero Academia the Movie 3 / Boku no Hero Academia: World Heroes Mission / My Hero Academia: World Heroes' Mission9 C1 \& C- ^1 N- {
◎年  代 2021& ?( R- z5 S4 F- y
◎产  地 日本
6 f) S) x  K0 N◎类  别 动画/冒险/科幻
/ ~5 \" o' t) o9 C1 h. X: \◎语  言 日语( @+ N* t; L+ l" @) O/ P5 O6 p
◎上映日期 2021-08-06(日本)- ^' M+ D- Y" Y1 c; l
◎IMDb评分  7.1/10 from 3,516 users
0 e0 {; n1 U* f8 b8 v/ g4 {◎IMDb链接  https://www.imdb.com/title/tt13544716/* S) X3 v: K: M) ]
◎豆瓣评分 5.7/10 from 753 users
* i$ D, T& Y, L8 d7 E; D" N- Z! @5 i◎豆瓣链接 https://movie.douban.com/subject/35277296/
7 Q' f$ _' q, w◎片  长 1 h 44 min
+ q$ p2 c* S7 T7 l' I- B◎导  演 长崎健司 Kenji Nagasaki( Q% U; H, P  S) S4 V7 s
◎编  剧 黑田洋介 Yôsuke Kuroda9 y+ X8 B2 ], W
       堀越耕平 Kohei Horikoshi
2 e& L- ^# f* j! A8 R◎演  员 山下大辉 Daiki Yamashita6 x2 L# S, g5 w
       冈本信彦 Nobuhiko Okamoto
" r1 B- h. V0 k7 Z       梶裕贵 Yûki Kaji( m- O- p$ [" i2 U' o
       稻田彻 Tetsu Inada: |, E" W. T9 K& a. q( q
       中村悠一 Yuuichi Nakamura
8 y* N5 L; R+ h9 ?2 w# t$ K& ~       三宅健太 Kenta Miyake+ I; d) _6 Q& j0 ]1 `$ w
       吉泽亮 Yoshizawa Ryo! D9 `  l5 @( E1 f! X  O" t* t8 n5 @
       林原惠美 Megumi Hayashibara7 H" N8 G3 _7 v8 i/ b3 A. u
       中井和哉 Kazuya Nakai) X4 m2 j5 d, b$ v1 l8 S9 x) _
       伊濑茉莉也 Mariya Ise
/ {* |: b3 c; }* w4 f1 D$ U! G5 K       榎木淳弥 Junya Enoki
& ^, u: X5 V/ K% a7 `7 \3 i       梅原裕一郎 Yuichiro Umehara, @6 f% f" h, u! ?2 k0 W+ x
       坂田将吾: a8 `7 z" V5 y! v2 @
       野岛裕史 Hirofumi Nojima5 O& T3 l' v; p8 P4 l2 W, H
       林友树 林ゆうき
* c, n; D& z7 E/ e6 X
/ u) {5 |- g- u& z9 w# D8 g; d◎简  介   
8 Z1 U8 v; q$ V! Q0 d2 N% F
/ o% N4 \% C" I& E- G  一个叫Humarize的神秘团体坚信怪癖奇点末日理论,该理论认为,当怪癖与后代进一步融合时,这种力量将带来人类的终结。为了拯救每一个人,世界各地的职业英雄们要求训练中的UA学院英雄们协助他们,组成一支世界经典的英雄选拔队伍。在我的英雄学院发生的最危险的危机中,拯救世界和英雄的未来取决于英雄们。2 q$ E, Z9 {9 v5 ?  _! c

$ i9 b" J! M# k: q) L  When a cult of terrorists ruins a city by releasing a toxin that causes people's abilities to spiral out of control, Japan's greatest heroes spread around the world in an attempt to track down the mastermind and put him to justice.
2 R+ _/ t! e( z+ G0 i, z
My.Hero.Academia.World.Heroes.Mission.2021.JAPANESE.1080p.BluRayCD.x264.DD5.1-HANDJOB 8.98 GB. Y/ i6 B7 z/ _+ \3 A
/ V; f& n: M3 @4 S* m: ?& c
Video$ M. m' y; [" D& K7 F
ID                                       : 1
6 Z. G1 \3 l, @+ k% X7 E+ ]Format                                   : AVC& N& o1 c; I6 r+ C( z: R2 z
Format/Info                              : Advanced Video Codec
) [% r2 k# f" XFormat profile                           : [email protected]) E* g' Z, Y; \
Format settings                          : CABAC / 4 Ref Frames3 i8 J$ H' u  b$ d
Format settings, CABAC                   : Yes
/ Q* D, z( X, |' ]Format settings, Reference frames        : 4 frames
1 T, z* I4 e" ^$ KCodec ID                                 : V_MPEG4/ISO/AVC
. b. h8 U& i- D7 P( m$ @4 I" ODuration                                 : 1 h 44 min$ `, ]7 Z% o5 z- F6 T9 @
Bit rate                                 : 11.6 Mb/s
6 [+ Y$ `& C+ O& n  fWidth                                    : 1 920 pixels
- R( e: L/ z/ H) H5 [0 u  k" Y) oHeight                                   : 1 080 pixels) ^. g  x. c6 e9 N9 X( b
Display aspect ratio                     : 16:9
+ v' r4 g& Z+ }0 S) W  pFrame rate mode                          : Constant
7 N" m4 L# j' {Frame rate                               : 23.976 (24000/1001/189150) FPS
  M( ]* m# [$ l- [Color space                              : YUV  X8 P" l" j9 n* |" b6 v
Chroma subsampling                       : 4:2:0( H$ U, A. \) s6 \- n6 N
Bit depth                                : 8 bits; {- \; s; Z. Z
Scan type                                : Progressive/ H5 L+ I9 c# l2 Q- u) D2 o$ N# }* ]
Bits/(Pixel*Frame)                       : 0.233
% x" R7 J4 I. {Stream size                              : 8.47 GiB (94%)
, i- k! h( o5 Q. W9 aWriting library                          : x264 core 164 r3065 ae03d92: V1 P/ z& y" {* r9 }
Encoding settings                        : cabac=1 / ref=4 / deblock=1:-3:-3 / analyse=0x3:0x133 / me=umh / subme=10 / psy=1 / psy_rd=1.00:0.00 / mixed_ref=1 / me_range=32 / chroma_me=1 / trellis=2 / 8x8dct=1 / cqm=0 / deadzone=21,11 / fast_pskip=0 / chroma_qp_offset=-2 / threads=34 / lookahead_threads=8 / sliced_threads=0 / nr=0 / decimate=0 / interlaced=0 / bluray_compat=0 / constrained_intra=0 / bframes=16 / b_pyramid=2 / b_adapt=2 / b_bias=0 / direct=3 / weightb=1 / open_gop=0 / weightp=2 / keyint=240 / keyint_min=24 / scenecut=40 / intra_refresh=0 / rc_lookahead=60 / rc=crf / mbtree=0 / crf=14.0 / qcomp=0.60 / qpmin=0 / qpmax=69 / qpstep=4 / vbv_maxrate=62500 / vbv_bufsize=78125 / crf_max=0.0 / nal_hrd=none / filler=0 / ip_ratio=1.40 / pb_ratio=1.30 / aq=2:1.00$ w( O, C4 f) p
Default                                  : Yes
2 b, a9 s! M  cForced                                   : No
# N' T, Y; D" p' C1 CColor range                              : Limited( A1 M- t: u8 D5 W$ l- n: S  {" }2 o) }
Color primaries                          : BT.709
, {( S3 H0 t( h5 W) L- P8 gTransfer characteristics                 : BT.7095 x2 I5 v- G/ v0 }" b
Matrix coefficients                      : BT.709
% {( C8 B: v. s* @6 [1 Q  q) _1 @+ Y3 X! [
Audio
1 a& W, `8 F! b1 d- z( dID                                       : 2
5 }8 ?0 [+ _8 r$ S. X* QFormat                                   : AC-3! D! w, a" `6 P0 X5 l
Format/Info                              : Audio Coding 3( H9 K0 u% i: Q0 `* y$ o7 k. u3 Y
Commercial name                          : Dolby Digital# i& h$ J1 ~( P. f+ `+ p4 l1 s
Codec ID                                 : A_AC3
3 r  v. _8 s/ Z1 B. gDuration                                 : 1 h 44 min- P2 @+ p" z, c- B5 j2 ^/ Q
Bit rate mode                            : Constant
& t9 |, ]0 M( O( e( A# j/ I% rBit rate                                 : 640 kb/s
! D* y2 D) Y3 k/ Z, eChannel(s)                               : 6 channels
; t0 Y9 E+ z! [* R/ \( a2 EChannel layout                           : L R C LFE Ls Rs
& r) s% L! P: n" E5 K( B4 g) P2 J' DSampling rate                            : 48.0 kHz5 i4 ^% l( g8 o2 F8 p
Frame rate                               : 31.250 FPS (1536 SPF)+ f9 y$ R; S: @1 p3 {
Compression mode                         : Lossy
2 B# i4 x% s5 k0 [( [Stream size                              : 478 MiB (5%)& G/ c) e; S2 [
Language                                 : Japanese$ \, f- x1 x' V* C
Service kind                             : Complete Main
' y1 f1 d, @& rDefault                                  : Yes
9 d: c+ I1 k( ], ~- N$ L3 ^Forced                                   : No8 C% W. b1 [1 Y) |7 V
: x* e! ~0 L3 x. W0 `9 }. U
Text #1
8 e5 `) l0 B0 ~3 _" W% r5 xID                                       : 36 U) K, [" c8 Q0 B4 Y  r0 j" U+ l! ?
Format                                   : UTF-8, Y$ J3 j# }( |" d3 Q+ I& h' C
Codec ID                                 : S_TEXT/UTF8
' k" x7 |1 _( O' U' N0 T$ _Codec ID/Info                            : UTF-8 Plain Text9 x5 I- H0 h" H  V
Duration                                 : 1 h 43 min
  m: [4 |9 _# ?) P) _! h2 v; y, s' v9 tBit rate                                 : 53 b/s
. X' C3 n$ o; |. Q1 `Frame rate                               : 0.215 FPS7 e. C! W; z, X1 t% {6 |
Count of elements                        : 1335
% r2 {: p2 i; M: _1 \( TStream size                              : 40.4 KiB (0%)
, p% {1 H" Z8 X# X+ SLanguage                                 : English
! a: ^  z& Q( A% O/ s8 |1 ]3 n: MDefault                                  : Yes- x2 ]- j" a- D! x0 a
Forced                                   : No2 c, N  _" H" q6 P$ a* J. }

4 L5 g* W' b) l8 E5 H8 b! ~Text #2# f; N: e  W  H" n3 [& u
ID                                       : 4
, N( @/ c: C! }' q- _3 eFormat                                   : PGS
, a1 l9 J4 Q# c5 l- h* qMuxing mode                              : zlib
8 i8 e% v& p, f* I' Z8 [Codec ID                                 : S_HDMV/PGS
7 r2 F3 e" M4 q4 _/ Z% `1 }Codec ID/Info                            : Picture based subtitle format used on BDs/HD-DVDs
! ^1 Y* z" M% |  F9 t! R3 l) TDuration                                 : 1 h 39 min' }/ R( o" s7 ]  T
Bit rate                                 : 40.6 kb/s
2 Q. `7 e) u* \) JFrame rate                               : 0.400 FPS
1 w$ @" N* p2 u8 Y  T7 ]6 Y4 eCount of elements                        : 24013 E: G% H% ?2 @; E& i: ~
Stream size                              : 29.0 MiB (0%)
1 S4 ]* [: R4 Z4 P; @* ?& vLanguage                                 : Italian8 V) F4 P; m2 E6 O4 m/ A" x  i# n
Default                                  : No, q" @$ p! Q; x8 J7 |& ^
Forced                                   : No& L! v0 B% t5 {7 y* e# X

8 I* g/ D+ O3 Y" P$ \Text #3# \# Z3 }) [- |8 D( x" F+ l
ID                                       : 52 D; B: G2 B$ }/ H
Format                                   : PGS
: x' l( `2 H+ }2 m" |Muxing mode                              : zlib3 |& q% J1 i  b5 [% ^7 n
Codec ID                                 : S_HDMV/PGS
4 r1 y- P7 v/ U* j) o$ RCodec ID/Info                            : Picture based subtitle format used on BDs/HD-DVDs
8 ^8 ]  u: Q* O3 RDuration                                 : 1 h 43 min
  l( @6 s; K  J4 rBit rate                                 : 76.1 kb/s
" Z6 u3 K% U" r1 L( X& b' PFrame rate                               : 0.774 FPS
* ^# R/ a- _# h: |8 }7 eCount of elements                        : 4806- `* P9 s' y* x8 X' \  R
Stream size                              : 56.3 MiB (1%)- H6 ?, \$ [; v' L
Language                                 : Japanese
0 k' U( Z" ^( `& V; X' IDefault                                  : No
' j0 n& B* U+ J* u/ e2 X% h% \% TForced                                   : No
0 b9 c$ k# k4 ]
  H0 y0 B- ^4 W, E1 L, U& xMenu
+ L4 \: f" v- H' \! D00:00:00.000                             : en:Chapter 1
4 `- f. s  _1 W. ?: H4 R00:07:59.938                             : en:Chapter 2$ u) O) N7 ~& w5 L( E/ F
00:09:30.028                             : en:Chapter 3& d5 ?2 O# V; ]! z- A( ^3 T
00:18:40.453                             : en:Chapter 4
5 h3 K( A& \: g& h3 b4 I9 ^$ L00:28:17.321                             : en:Chapter 5. H& q8 x4 s! n( C
00:46:20.194                             : en:Chapter 6! w# d$ S, T- D: e2 T% d0 f: ]+ q
01:03:16.626                             : en:Chapter 7
* E3 C3 F2 D& p( P& c* [; G01:26:16.088                             : en:Chapter 8
8 z: I/ Y6 |. g2 D1 N! _( n/ B5 y01:37:49.072                             : en:Chapter 9
, C" F2 [+ z# {01:40:36.614                             : en:Chapter 10
6 l! q% I& t+ b6 E
游客,查看本帖隐藏内容请回复 | 加入VIP可免积分免回复 了解详情 | 还不是会员:点击获取邀请码 Invitation Code

7

主题

608

回帖

2674

积分

Sponsor

金币
597 枚
体力
919 点

VIP蓝光勋章

211 发表于 2022-7-26 13:39:50 | 显示全部楼层
楼主发贴辛苦了,I*老*虎*U!
% T8 M; h% f$ I: G+ q" qAfter reading the posts have nothing to do I Amoy posts!
1 e) M1 ~; E2 e4 b3 A

本版积分规则

小黑屋|Archiver|4K蓝光论坛

GMT+8, 2023-2-9 13:10

Copyright © 2001-2021, Gadaddy Cloud.

快速回复 返回顶部 返回列表