BluRayCD Forum

 找回密码
 立即注册【分享大片】
查看: 11|回复: 0
收起左侧

[动漫动画] 小顽童/小捣蛋/小捣蛋 Bebes Kids 1992 1080p BluRaycd x264 DD5.1-HANDJOB 5.27GB

[复制链接]

1万

主题

1万

帖子

10万

积分

Post Share

金币
171 枚
体力
26702 点

卓越贡献勋章VIP黄金勋章诚信会员勋章

mvods 发表于 2022-7-29 14:42:50 | 显示全部楼层 |阅读模式
- e# p" m' W2 n, x% a4 |

5 D! i8 V" `" g+ v! `◎译  名 小顽童/小捣蛋/小捣蛋. F0 _2 ]7 \  q. J& l; Z
◎片  名 Bébé's Kids / Дети Биби
, e1 J9 j0 o; a- C# |◎年  代 1992% z. }) l/ i- o! y- D
◎产  地 美国/英国/加拿大/台湾( H4 E" t( `' f& }, P6 {" \
◎类  别 喜剧/动画/歌舞/奇幻* U" M) Y& f7 ?5 F1 B4 p- X
◎语  言 英语+ R1 T$ ~- A9 m5 x
◎上映日期 1992-07-31(美国)
2 R4 o' q: X  ?◎IMDb评分  5.8/10 from 5,200 users
4 v3 @# ^. M. [◎IMDb链接  https://www.imdb.com/title/tt0103783/8 M( g  y& c% Q2 q
◎豆瓣评分 8.5/10 from 134 users
: h& G" f0 ]& K; p◎豆瓣链接 https://movie.douban.com/subject/1302676/
0 {3 T0 n* C( O/ J+ k2 T/ u◎片  长 1 h 12 min% L5 S7 ]! V6 T1 P" R3 h- G; W
◎导  演 布鲁斯·W·史密斯 Bruce W. Smith. }( C/ ?8 z* Z  p  O8 \& {$ H
◎编  剧 罗宾·哈里斯 Robin Harris3 k. n1 i- m! g3 {5 M' P/ V% |
       雷吉纳·哈德林 Reginald Hudlin
% e9 h5 |7 x8 z" h◎演  员 罗宾·哈里斯 Robin Harris
) y  g9 g+ k; X. s& g1 m- }       费松·拉夫 Faizon Love2 X  W1 O3 j' `) b
       瓦妮莎·贝尔·卡洛威 Vanessa Bell Calloway
4 u5 r9 t9 O& P7 w- L8 U       马克泽·休斯顿 Marques Houston
* B( D. u/ m5 ?2 N9 d       托恩·洛茨 Tone Loc  i1 r# G9 ?, x
       Nell Carter # L5 N3 S" t+ G( F- l* C' v
       约翰·威瑟斯朋 John Witherspoon
) r& ?( ~% W+ U' w& I& f$ a; K# D' ]; W       Chino 'Fats' Williams $ |$ \8 m0 r$ q& U1 `
       Rodney Winfield 4 R% Z$ Q& Q/ ], S- N
       乔治·华莱士 George Wallace2 r% X; p+ R  B* a" \. b
       苏珊·锡洛 Susan Silo3 a+ `! e3 f( d) i3 \
       彼得·雷纳迪 Peter Renaday8 V% o. `/ {( x
       Michelle Davison
8 T# ^# M# U$ x% k3 u  C       Arvie Lowe Jr. . T& N7 ], S# e
       Kerrigan Mahan ! S$ k; M4 X3 K# L6 \; D/ z% j
       菲利普·格拉瑟 Phillip Glasser
# M- M6 N5 [+ O8 {7 `0 p       Daamen J. Krall ) ^1 z2 z0 N/ R& c# ?# t
       瑞奇·雷托 Rich Little$ ?. x0 S( P$ i, n# B
       路易·安德森 Louie Anderson% x+ o6 z1 I0 D/ e+ f
       Greg Finley . b! n1 o7 }6 v4 R9 T" y
       汤姆·埃沃雷特 Tom Everett* b) b8 |2 i  O5 ]
       J.D. Hall J.D. Hall. v9 U: k5 C5 [: a
2 P9 b6 c7 U5 |" [4 R* A
◎标  签 喜剧 | 美国 | 小顽童 | 搞笑 | 动画 | 儿童 | 老片子 | 小捣蛋# u7 J' l4 e1 K6 \* O

1 y( u2 a1 y$ L5 J5 H; u- y◎简  介   
/ O( q3 C6 Q4 d. I8 y! h9 K1 P& P$ C* s; Q
  当Robin遇上了可爱的Jamika他感到自己到了天堂。但是当他遇上了她的朋友BeBe的孩子,他知道他跌到地狱了。BeBe的孩子十分令人讨厌,是他见过的所有孩子里最令他痛苦的.....# _) ]  g( t# {3 a' c) e- R0 [
: i! {- U" {, N1 Y
  To impress his new girlfriend, a man agrees to look after her friend's kids, only to find that they are uncontrollably rambunctious.
0 s" c% S6 N4 D! `5 t$ w
Video  {6 j* {, S( \! j) u% `; v7 A
ID                                       : 1
9 q0 A2 p* t# \# N( [3 _2 t+ eFormat                                   : AVC% o) [! I/ }8 B6 I3 Q; P5 O4 Q& |! q
Format/Info                              : Advanced Video Codec6 p# l( i1 j2 i# X4 j( `2 u. C
Format profile                           : [email protected]
/ Y( r' P! X8 G( r. h4 [Format settings                          : CABAC / 4 Ref Frames
; \) }1 Z" A3 M* ~& y, |) }+ wFormat settings, CABAC                   : Yes
( w% X* x/ r6 ^: bFormat settings, Reference frames        : 4 frames
- J: D* [2 @1 b  l: pCodec ID                                 : V_MPEG4/ISO/AVC/ u) b4 H7 z$ q7 ]2 S
Duration                                 : 1 h 12 min
) s" C5 @, W9 t8 n( o* _Bit rate                                 : 9 735 kb/s
; K3 N) O8 T' @2 R7 iWidth                                    : 1 918 pixels& u) y1 }: T2 b
Height                                   : 1 078 pixels
+ L% E- u. W3 G. S& l0 |9 Y8 w2 kDisplay aspect ratio                     : 16:98 _5 k' I! s  S; M$ R
Frame rate mode                          : Constant
9 A- \% y6 J( h2 h# \# {Frame rate                               : 23.976 (24000/1001/189150) FPS$ ]5 u/ q7 c1 T$ }, F. o* R5 ]
Color space                              : YUV- b9 {! ]" O8 ]8 N7 y/ v
Chroma subsampling                       : 4:2:0
5 |: |5 ]' p0 b( b; FBit depth                                : 8 bits
1 P& N" x. p% F( M# N3 XScan type                                : Progressive2 p) Y3 l; B& w* Q& B
Bits/(Pixel*Frame)                       : 0.196- {/ [# }( g! V
Stream size                              : 4.94 GiB (94%)
! \! f; P% I( o3 R5 t/ N5 p9 pWriting library                          : x264 core 164 r3065 ae03d92# o: z: G4 G* ]  K& L
Encoding settings                        : cabac=1 / ref=4 / deblock=1:-3:-3 / analyse=0x3:0x133 / me=umh / subme=10 / psy=1 / psy_rd=1.00:0.00 / mixed_ref=1 / me_range=32 / chroma_me=1 / trellis=2 / 8x8dct=1 / cqm=0 / deadzone=21,11 / fast_pskip=0 / chroma_qp_offset=-2 / threads=34 / lookahead_threads=8 / sliced_threads=0 / nr=0 / decimate=0 / interlaced=0 / bluray_compat=0 / constrained_intra=0 / bframes=16 / b_pyramid=2 / b_adapt=2 / b_bias=0 / direct=3 / weightb=1 / open_gop=0 / weightp=2 / keyint=240 / keyint_min=24 / scenecut=40 / intra_refresh=0 / rc_lookahead=60 / rc=crf / mbtree=0 / crf=23.0 / qcomp=0.60 / qpmin=0 / qpmax=69 / qpstep=4 / vbv_maxrate=62500 / vbv_bufsize=78125 / crf_max=0.0 / nal_hrd=none / filler=0 / ip_ratio=1.40 / pb_ratio=1.30 / aq=2:0.80
; H# x) {. ]( ~3 {2 ]( A% e4 \Default                                  : Yes
+ s0 h" _# h! w% }0 c( Y% Q$ lForced                                   : No  k$ I; ]2 l' _+ |* x7 a
Color range                              : Limited0 z* v# I9 ?! X# [7 e9 ^' O$ J
Color primaries                          : BT.709
1 u& K8 |6 E$ i2 [& TTransfer characteristics                 : BT.709# |! |, ?% q( p: O  A3 X
Matrix coefficients                      : BT.709
) [+ s6 i  D0 k' d7 D" B: a6 h& h( f% k3 C) \4 P6 H, R  r; ?
Audio
& K2 ~2 t, [" k" C. x: aID                                       : 24 ^4 U1 k8 h) E4 ?0 v
Format                                   : AC-3, l) I! S5 `/ A8 h
Format/Info                              : Audio Coding 33 b; M7 i5 [- q: ^8 x
Commercial name                          : Dolby Digital
- w+ x  s  _$ x' s" c7 _Codec ID                                 : A_AC38 [* ]2 f" D- q8 A9 ^
Duration                                 : 1 h 12 min
6 ?. D: e) s" S2 D1 ~7 lBit rate mode                            : Constant
4 j, g9 c/ [! f0 q7 PBit rate                                 : 640 kb/s
! }* V# e4 a+ D3 a7 N9 @Channel(s)                               : 6 channels/ o' z: f/ X; ?# C
Channel layout                           : L R C LFE Ls Rs4 o1 |  d8 H# o  b4 O/ \& ]+ p
Sampling rate                            : 48.0 kHz
6 ^0 P8 Z* I  Z0 [3 UFrame rate                               : 31.250 FPS (1536 SPF)
( E, E2 H4 |( C! _  \( LCompression mode                         : Lossy
* _. [+ W1 Y: b/ m( IStream size                              : 333 MiB (6%)4 d* [! x( X) O( i: _8 }: ]
Language                                 : English0 f* o6 V5 |, q# `8 ]
Service kind                             : Complete Main
8 x+ i: l0 z' \Default                                  : Yes
, V) _8 V# ?) K$ OForced                                   : No4 g0 W8 H8 a4 f  P3 _

$ _: S: i9 z. k1 ^9 c4 u" WText  C* K7 Z' s0 s1 \
ID                                       : 3
0 y& j. Q: w& j1 U/ Y7 uFormat                                   : UTF-8
$ r; b0 g+ M3 \5 w9 n7 E; X" q4 WCodec ID                                 : S_TEXT/UTF8
+ O0 \, e% C" @/ ~# X% V. [- WCodec ID/Info                            : UTF-8 Plain Text
$ `  O  o. |  W2 A, n2 VDuration                                 : 1 h 12 min
  W( @$ ^9 Q" o' ?; {Bit rate                                 : 77 b/s; T" C0 u6 |: D) U* I) E
Frame rate                               : 0.290 FPS
0 z3 c+ E% ?& b: O  Y/ p: }Count of elements                        : 1261' g( ?$ N  A/ S
Stream size                              : 41.0 KiB (0%)
/ A) N: w( V0 U  ?  X; MLanguage                                 : English
$ e2 ~7 j& X' S: MDefault                                  : No
. m, N9 w- s) w+ H- C6 PForced                                   : No3 t) p5 i# R) ]1 X
5 U9 t: a) P: ~/ k% L5 }( K
Menu
5 o5 u8 T6 X9 A/ f00:00:00.000                             : en:Chapter 1
; M8 t# {$ n2 A' q00:03:19.866                             : en:Chapter 2
3 N/ }! Z% C( `9 C00:07:41.836                             : en:Chapter 33 v/ D0 T7 L" K8 X
00:14:49.972                             : en:Chapter 46 F, E( p+ o: k( A1 u
00:17:51.779                             : en:Chapter 5& ], r* l& }' _6 j
00:21:53.312                             : en:Chapter 6- F. P" u' N5 A4 X0 l4 ~
00:26:09.151                             : en:Chapter 7) ^4 Y0 u7 B3 I1 B
00:32:58.018                             : en:Chapter 8
8 ~" e9 M( p& B: M/ U( L) ~00:36:47.205                             : en:Chapter 9* k# p. Y2 e& ~$ V) e9 U
00:42:01.602                             : en:Chapter 10
% f" T2 z& G+ r& q3 m% B; }" t, C00:51:19.159                             : en:Chapter 110 a# O0 V5 _) S2 Y& N7 B; @) @
00:57:43.794                             : en:Chapter 12
! ]& D6 N/ b) K) I  g4 F/ l+ Q01:01:00.699                             : en:Chapter 13
) ~- V6 q9 l7 S& E01:06:26.274                             : en:Chapter 14

) F* V' m% w- I4 Q" F1 |
游客,查看本帖隐藏内容请回复 | 加入VIP可免积分免回复 了解详情 | 还不是会员:点击获取邀请码 Invitation Code

本版积分规则

小黑屋|Archiver|4K蓝光论坛

GMT+8, 2022-11-27 00:19

Copyright © Tencent Cloud.

快速回复 返回顶部 返回列表