BluRayCD Forum

 找回密码
 立即注册【分享大片】
查看: 21|回复: 0
收起左侧

[动漫动画] 小顽童/小捣蛋/小捣蛋 Bebes Kids 1992 1080p BluRaycd x264 DD5.1-HANDJOB 5.27GB

[复制链接]

1万

主题

387

回帖

12万

积分

Post Share

金币
3947 枚
体力
32369 点

卓越贡献勋章VIP蓝光勋章诚信会员勋章

mvods 发表于 2022-7-29 14:42:50 | 显示全部楼层 |阅读模式
: V  n' F) y8 R# T# \. T- R0 U
$ B- N, t/ L. b& s
◎译  名 小顽童/小捣蛋/小捣蛋7 L% t5 y% a! F% P: T
◎片  名 Bébé's Kids / Дети Биби4 Q3 ?( }! q! Z. Z" \. Q6 N* R
◎年  代 1992
) @8 _) H- i# Z1 T0 y◎产  地 美国/英国/加拿大/台湾8 P* f4 k2 E5 l% K5 h# ^
◎类  别 喜剧/动画/歌舞/奇幻
3 Z6 a3 l/ n7 C& g  Y- L◎语  言 英语
6 @* V- d" H1 V% K) U◎上映日期 1992-07-31(美国)6 _8 X* H) Q. B  ^3 u" B
◎IMDb评分  5.8/10 from 5,200 users
: R2 L8 K  k' x6 W" a( i$ l* G◎IMDb链接  https://www.imdb.com/title/tt0103783/
: Q4 k$ j' `8 f% }( e3 v: M◎豆瓣评分 8.5/10 from 134 users
( ~- [; }/ X, A8 {$ g  H◎豆瓣链接 https://movie.douban.com/subject/1302676/% j) s+ y# D# l
◎片  长 1 h 12 min$ R' P* q4 w) r, z; u( c% f
◎导  演 布鲁斯·W·史密斯 Bruce W. Smith
8 b8 D: f( B! a8 Z. U. r5 {, W' e" C◎编  剧 罗宾·哈里斯 Robin Harris
2 O7 ^0 P1 f+ z4 y" Q$ N       雷吉纳·哈德林 Reginald Hudlin! c, s+ w  l0 v  @; P% ^& K- V; {" d
◎演  员 罗宾·哈里斯 Robin Harris
$ O3 r; Z- p1 _* j/ q       费松·拉夫 Faizon Love
3 L5 o: f( K5 N. G4 m& Y) Z1 y       瓦妮莎·贝尔·卡洛威 Vanessa Bell Calloway
1 g# N$ U7 e  {% Y2 ~# o       马克泽·休斯顿 Marques Houston
( }+ F+ v0 |) C0 y# M0 f6 [       托恩·洛茨 Tone Loc( V) p$ \8 }& P1 ?
       Nell Carter 7 [0 n# _" A2 ~" ^9 j7 [
       约翰·威瑟斯朋 John Witherspoon2 S* v; u9 k# \7 v9 R$ s
       Chino 'Fats' Williams ) S$ b, q. P4 v% o
       Rodney Winfield
8 U2 i0 I( f  T: i$ |6 h       乔治·华莱士 George Wallace
! D$ M% f7 c7 k$ b4 i+ ]       苏珊·锡洛 Susan Silo
  J2 ?& k: W% F' t: y       彼得·雷纳迪 Peter Renaday4 U6 \# k! L/ C
       Michelle Davison % f% A8 R( i! ?$ A+ a
       Arvie Lowe Jr. $ @; I7 g8 i, d; a) e  o0 D
       Kerrigan Mahan 2 i0 O- e* M5 [  b0 R  Z  j
       菲利普·格拉瑟 Phillip Glasser
# |% r# L! X! X0 y1 r5 w4 ~: X! E& R       Daamen J. Krall 1 i0 D( g! l0 z8 ~7 j7 z
       瑞奇·雷托 Rich Little- b7 @  G& _( h7 h& b& {+ X% x; W
       路易·安德森 Louie Anderson
8 s' q- y" @. y: b  c       Greg Finley
: q0 J; @7 ^: q5 {, q$ V       汤姆·埃沃雷特 Tom Everett
. ^3 C: I* Q- A( l" _' Q       J.D. Hall J.D. Hall5 V' D7 Y* X$ N7 \6 `5 E. P& n5 ~2 ?
! S1 Y2 B' e* G2 s" F3 \
◎标  签 喜剧 | 美国 | 小顽童 | 搞笑 | 动画 | 儿童 | 老片子 | 小捣蛋
' R6 z( b8 b7 {
) b: M5 h6 N" [9 c/ a4 _6 ~◎简  介   
: @# E! Q2 @1 Y% d# C3 M# M( o( z3 G5 ]' ?9 _/ g$ e8 e
  当Robin遇上了可爱的Jamika他感到自己到了天堂。但是当他遇上了她的朋友BeBe的孩子,他知道他跌到地狱了。BeBe的孩子十分令人讨厌,是他见过的所有孩子里最令他痛苦的.....
, p, Q5 L( B/ y  a
4 I5 k8 w* D  N7 {  To impress his new girlfriend, a man agrees to look after her friend's kids, only to find that they are uncontrollably rambunctious./ v- c  q' M) T
Video
4 H0 j$ `. r2 E7 b: LID                                       : 1  W  s: a7 g) F9 K9 z6 W
Format                                   : AVC
) H! E9 D, F( s( c1 cFormat/Info                              : Advanced Video Codec3 i/ m- H5 F4 J" b
Format profile                           : [email protected]% Q  d/ Y; ?! J; J/ K/ p% L
Format settings                          : CABAC / 4 Ref Frames
) x8 ?) I# E/ |7 T6 \Format settings, CABAC                   : Yes
4 h; o/ E# Q( B' C9 o4 zFormat settings, Reference frames        : 4 frames: A; P: [/ `. X! H
Codec ID                                 : V_MPEG4/ISO/AVC
9 `% V) Q9 Q$ b8 X# j* o9 G9 nDuration                                 : 1 h 12 min
' J3 A" @* C; M1 ]8 ^2 UBit rate                                 : 9 735 kb/s
% G( K9 N) B4 _2 vWidth                                    : 1 918 pixels/ w1 X% e5 J/ O0 r, A: L( T0 o
Height                                   : 1 078 pixels
+ B" h; t5 U, {% m# M6 \3 ADisplay aspect ratio                     : 16:9
( o/ c% [: z, y/ _" GFrame rate mode                          : Constant
1 |" a/ P$ y% pFrame rate                               : 23.976 (24000/1001/189150) FPS
+ s$ F5 f" V2 Z( JColor space                              : YUV# l, l) x% I* @2 r) u& D
Chroma subsampling                       : 4:2:0$ @+ T' T( j8 i2 h: `9 I5 [
Bit depth                                : 8 bits1 M! K& `, @, p; Y" W/ r
Scan type                                : Progressive
9 I0 a& O, D# b- c9 k( b% OBits/(Pixel*Frame)                       : 0.1968 z, t) @5 d* p" |6 r4 l# ]
Stream size                              : 4.94 GiB (94%); M- c* O! T, V! I
Writing library                          : x264 core 164 r3065 ae03d92
% y8 X5 P6 p5 z7 C8 d' BEncoding settings                        : cabac=1 / ref=4 / deblock=1:-3:-3 / analyse=0x3:0x133 / me=umh / subme=10 / psy=1 / psy_rd=1.00:0.00 / mixed_ref=1 / me_range=32 / chroma_me=1 / trellis=2 / 8x8dct=1 / cqm=0 / deadzone=21,11 / fast_pskip=0 / chroma_qp_offset=-2 / threads=34 / lookahead_threads=8 / sliced_threads=0 / nr=0 / decimate=0 / interlaced=0 / bluray_compat=0 / constrained_intra=0 / bframes=16 / b_pyramid=2 / b_adapt=2 / b_bias=0 / direct=3 / weightb=1 / open_gop=0 / weightp=2 / keyint=240 / keyint_min=24 / scenecut=40 / intra_refresh=0 / rc_lookahead=60 / rc=crf / mbtree=0 / crf=23.0 / qcomp=0.60 / qpmin=0 / qpmax=69 / qpstep=4 / vbv_maxrate=62500 / vbv_bufsize=78125 / crf_max=0.0 / nal_hrd=none / filler=0 / ip_ratio=1.40 / pb_ratio=1.30 / aq=2:0.80# j, ?7 Q" [& b! h
Default                                  : Yes0 P; S8 Y. o9 n3 f+ p9 g
Forced                                   : No
5 e# ~0 Q/ Z( OColor range                              : Limited" e) k$ S6 W- l5 k0 ], C
Color primaries                          : BT.709* y% x" F& M& x( l2 L  z- J" R
Transfer characteristics                 : BT.709
( s1 m2 J9 P  eMatrix coefficients                      : BT.709
7 }% O& X3 \, q: M  h0 B6 V
+ U# M& s; S! \% l. n9 QAudio7 _/ O$ }8 w$ v5 o
ID                                       : 2* ^& {$ J0 J- N3 g6 N( h
Format                                   : AC-3
. f  O3 ?' C% O- GFormat/Info                              : Audio Coding 3& ]9 ?) {0 X6 y/ B* a. {
Commercial name                          : Dolby Digital. G6 G, E$ q! g  r; j) T4 D# M; P
Codec ID                                 : A_AC3
% o( ?$ [6 Q& i$ w2 d' Q) DDuration                                 : 1 h 12 min
. L* F3 W. a4 p4 T: ~5 KBit rate mode                            : Constant, w. n. W7 q$ X3 l2 v& {4 ^, D
Bit rate                                 : 640 kb/s1 D2 e/ ], m: B5 q
Channel(s)                               : 6 channels+ m7 A7 T8 D& P9 ^! Y
Channel layout                           : L R C LFE Ls Rs
. _; C  R5 E/ m4 U# x% ?7 o' XSampling rate                            : 48.0 kHz
4 r4 q0 D+ N( e! b) a0 DFrame rate                               : 31.250 FPS (1536 SPF)
- c  d# L# b# hCompression mode                         : Lossy
! `/ I0 W; B, Z( _/ OStream size                              : 333 MiB (6%)
( ]$ }% Q3 P9 E) V+ L) cLanguage                                 : English" u+ O, D$ U% o( |( n
Service kind                             : Complete Main
6 ~. x  q5 i) Z  x9 G% S$ O* B) SDefault                                  : Yes
  j; _$ N3 ^/ e; JForced                                   : No9 K  M5 H4 w! S; \

, I/ f# V. a" Z  W. v3 I: zText; N" `% [( i4 c
ID                                       : 33 H. j# K" G! S
Format                                   : UTF-8
/ n4 @9 j: t; J$ D1 _Codec ID                                 : S_TEXT/UTF8+ R9 x6 J) T( D( s1 z* X: w
Codec ID/Info                            : UTF-8 Plain Text
# ^6 N# e" P% G8 L( XDuration                                 : 1 h 12 min' }8 y1 H, L" u, y- P% j; ~
Bit rate                                 : 77 b/s
0 m: W1 i' a1 @6 b( E4 X' \Frame rate                               : 0.290 FPS; y: l2 l- j( d" I" w) G
Count of elements                        : 12619 q0 G$ ]6 \3 z6 K* [) r
Stream size                              : 41.0 KiB (0%)' V# M. \  |3 L2 u& R; x
Language                                 : English
* z# z8 ~2 p* ^; M! l  qDefault                                  : No# ]6 D* C. w; J" Y# u- M
Forced                                   : No0 M, u# @6 ?# x4 z7 y( ~

; n/ l& K, ]) `; U* `Menu$ Y: M; {+ s7 t$ Q/ d! F
00:00:00.000                             : en:Chapter 16 u- T7 y& o' y4 q# j
00:03:19.866                             : en:Chapter 2
2 v& H8 j& c/ W. U0 i* F$ Q2 w00:07:41.836                             : en:Chapter 31 X3 T3 J. C6 K. [. m3 \3 R$ Z
00:14:49.972                             : en:Chapter 4
: L9 A/ o! I" K  T; A0 Q& x00:17:51.779                             : en:Chapter 56 D& ]2 Z; X4 w
00:21:53.312                             : en:Chapter 6
5 q" Y3 U7 D' x& T9 r# s. R  D! c00:26:09.151                             : en:Chapter 7+ ^. A, O# v) W, K+ R. c7 ?: ^7 T) Q* D
00:32:58.018                             : en:Chapter 8" R% v# X& Y& n
00:36:47.205                             : en:Chapter 9/ ~$ ^* D! K, _- ?6 q4 I& O
00:42:01.602                             : en:Chapter 10
( [0 H9 ?! d/ L6 ]6 a00:51:19.159                             : en:Chapter 11
0 _- c8 B2 n* B0 |' \2 @: Q00:57:43.794                             : en:Chapter 12
* w, ^0 C. n# N* J) X7 N* T01:01:00.699                             : en:Chapter 136 S" a- M6 i7 n( |. v- r5 L: g
01:06:26.274                             : en:Chapter 14
1 [/ F: y: E0 z+ p4 L
游客,查看本帖隐藏内容请回复 | 加入VIP可免积分免回复 了解详情 | 还不是会员:点击获取邀请码 Invitation Code

本版积分规则

小黑屋|手机版|Archiver|4K蓝光论坛

GMT+8, 2024-3-5 06:02

Copyright © 2001-2021, Gadaddy Cloud.

快速回复 返回顶部 返回列表