BluRayCD Forum

 找回密码
 立即注册【分享大片】
查看: 26|回复: 3
收起左侧

[蓝光原盘] 致命困境/破局/炸弹陷阱 [REMUX无损版] Hot Seat 2022 1080p BluRaycd REMUX AVC DTS-HD MA 5.1-FGT 20.11GB

[复制链接]

8923

主题

9117

帖子

7万

积分

Forum Moderator

金币
13305 枚
体力
12412 点

卓越贡献勋章

24小时 发表于 2022-8-6 23:49:43 | 显示全部楼层 |阅读模式
( ~* G) }5 t+ w# n3 o( g; n
: G1 t  s! V8 |: [: V# s& y
◎译  名 致命困境/破局/炸弹陷阱8 Y5 Z& S  P+ m) T" W
◎片  名 Hot Seat) A1 l  |# a# E
◎年  代 2022
6 u: ]0 E/ E  d2 ~2 f! u◎产  地 美国( e4 t5 \' J: B
◎类  别 动作/惊悚
; f' o4 z; C/ V# l6 `/ }6 g◎语  言 英语3 K0 `+ Y/ Y' q' Q! s' U+ h
◎上映日期 2022-07-01(美国)
8 ^3 T6 U& B% d$ m; Z# X◎IMDb评分  4.5/10 from 1,613 users; j  @1 ~% ]- ~5 R7 o( o
◎IMDb链接  https://www.imdb.com/title/tt15690300/
/ h: a: `6 x: i6 n7 b3 i) E1 }, T4 l◎豆瓣评分 0/10 from 0 users/ p) x  G1 V7 |# \* K" l
◎豆瓣链接 https://movie.douban.com/subject/35629884/  h* r3 X8 m/ |) F: _8 g
◎文件格式 x264 + DTS  
% N* T' z& e9 Z3 P3 x5 C◎视频尺寸 1920 x 1080
6 r; Y8 B' _. x: }/ R9 B  \9 _. G◎文件大小 1DVD 20.11 GiB
: U# P* R$ q6 H/ ^. M* ?◎片  长 1 h 38 min
, W# S) u* P9 }/ ]+ b$ f7 ~8 G! f◎导  演 詹姆斯·库伦·布雷萨克 James Cullen Bressack
8 p  q; t' Z, }/ G9 Y1 I, Z: C, I◎编  剧 Leon Langford / Collin Watts3 y2 m+ \; `* `* l8 I1 c5 w* @, R
◎演  员 梅尔·吉布森 Mel Gibson
* n( L9 \# \4 B       莎侬·多赫提 Shannen Doherty5 ~& D/ Y1 f3 k2 C* I
       Sam Asghari$ g: D; K# ^3 v& O
       迈克·韦尔奇 Michael Welch
" j+ u' m. a9 t1 Z" ^3 m; B       凯文·狄龙 Kevin Dillon, {( @9 ?1 ~+ _+ Y% h* L1 }
       埃迪·斯蒂普斯 Eddie Steeples2 J) E) Z/ t( q: R5 r0 R- t
       丽迪雅·赫尔 Lydia Hull5 G& r! g; `( ]8 ?
       凯特‧卡茨曼 Kate Katzman) F$ |3 m; y- U
       基思·雅各 Keith Jardine. d7 d, i" V2 J; m" L& J
       安娜·哈尔 Anna Harr# Q5 c7 H+ U# y, A! G8 t: B
       Jonathan Stoddard6 b. E9 [  X. y. G
       迪伦·弗拉施纳 Dylan Flashner3 X/ u% T  _: Q" w
       詹姆斯·库伦·布雷萨克 James Cullen Bressack
; g7 }2 \& Z3 O/ g* f, z$ C       Lester G. Reynolds
2 t) M' p  A& N       查德·迈克尔·墨瑞 Chad Michael Murray* [1 w) m" U& V2 A0 i' m

% n& n: q- S8 D2 r4 ?◎简  介   
, Q% f2 E# \$ W3 N+ R" |. L9 b2 a, V1 ~# Y, f  ^% l
  一名前黑客被迫闯入高级银行机构,另一名男子必须试图穿透诱杀装置的建筑,才能将这名年轻人从困境中解救出来。4 ^. H7 [7 U5 d/ Q7 W
  h4 X7 Q9 M2 y  k( B* Q& s
  An ex-hacker is forced to break into high-level banking institutions, another man must try to penetrate the booby trapped building to get the young man off the hot seat.
( d) \' b3 }- w; `" e& J
Hot.Seat.2022.1080p.BluRayCD.REMUX.AVC.DTS-HD.MA.5.1-FGT
% O! |# q( L% _1 _! J: x; O& r
1 ~8 K; W& u6 B& a: mVideo9 [' x- F( c7 _. d
ID                                       : 17 x+ {* t% S+ F$ Q
ID in the original source medium         : 4113 (0x1011)
! V/ \' P; S/ r+ @: }Format                                   : AVC% {7 `( T6 Z9 s# C9 c" V
Format/Info                              : Advanced Video Codec
8 o+ ?2 x: t6 ?( ~" R. u8 k1 gFormat profile                           : [email protected]1 R' g" ]% i& B
Format settings                          : CABAC / 4 Ref Frames
" p7 E5 ?( |$ V5 _' Y* V3 NFormat settings, CABAC                   : Yes& q' s$ A/ h" _/ O
Format settings, Reference frames        : 4 frames# A8 a# \1 P& t: g
Codec ID                                 : V_MPEG4/ISO/AVC
; d9 |0 D2 g( a& @4 H1 F6 _Duration                                 : 1 h 38 min
/ ]0 ~2 K( z; J9 CBit rate mode                            : Variable6 `( r) V2 _) F( }& ^
Bit rate                                 : 25.0 Mb/s5 H0 ]) I5 V5 j$ M* I. N& U
Maximum bit rate                         : 35.0 Mb/s6 g1 ]& `. ^( h8 D
Width                                    : 1 920 pixels5 \& m9 e" R! Q& k* ?5 ]5 a
Height                                   : 1 080 pixels
6 S: s, t! k, }+ J3 `: J9 q, _% rDisplay aspect ratio                     : 16:9
- c; R, R# |# f( }% o9 {8 `Frame rate mode                          : Constant
4 ?' p8 p4 K) E4 q5 _+ FFrame rate                               : 23.976 (24000/1001/189150) FPS
* g+ K/ F3 o' r, m3 o4 BStandard                                 : NTSC8 g6 {* d0 _: |, O! H
Color space                              : YUV; p! |8 ^0 [; Q8 b7 e* L% X# y
Chroma subsampling                       : 4:2:0
) n" \5 ~3 }  v0 {! @( p8 M* s' ?Bit depth                                : 8 bits
! g- z! b  x9 bScan type                                : Progressive& U& ]/ u, l/ D# ^
Bits/(Pixel*Frame)                       : 0.503
1 f5 e/ i0 d) m8 fStream size                              : 17.3 GiB (86%)6 G, S6 Y* p' M0 C3 A3 l
Language                                 : English
0 d- l! n! o# l/ ]9 U8 c2 x6 `Default                                  : No
  T  h. M0 R2 N2 y. c4 l8 Z, iForced                                   : No
9 Y) R. G# N4 v, p( {- K8 k. gColor range                              : Limited- i/ A# `8 j) Z
Color primaries                          : BT.709- ~# ?0 b* X8 p1 a6 y0 Y0 o
Transfer characteristics                 : BT.7093 H& ]+ O2 m- i
Matrix coefficients                      : BT.7092 z  {3 }" s3 U" e2 a2 G$ h% Y
Original source medium                   : Blu-ray
! W' k0 u" L- g- `: E( d! h) r6 c% h5 h7 z4 a
Audio #1
! b  b0 P3 A1 ^8 X: w" AID                                       : 2" M3 G( Y5 T8 l, A' f8 f' G
ID in the original source medium         : 4352 (0x1100)( l$ _/ d% g7 Y% X1 _( k
Format                                   : DTS XLL$ ^- K" |+ Y! T# J2 m+ Q
Format/Info                              : Digital Theater Systems
' S; j' m* ~' j4 x6 h5 x9 S9 oCommercial name                          : DTS-HD Master Audio( o5 r* Q' c3 `
Codec ID                                 : A_DTS
2 h4 [0 K; G" H" F% t0 nDuration                                 : 1 h 38 min
  L) ~+ f/ L8 n0 |4 HBit rate mode                            : Variable
+ B8 `* R0 [# [/ X2 k5 Z1 _Bit rate                                 : 3 570 kb/s
; y% q- w$ {* i" K( M! o; XChannel(s)                               : 6 channels6 X1 {, m9 P! B/ `
Channel layout                           : C L R Ls Rs LFE1 v. b# a4 L! o
Sampling rate                            : 48.0 kHz: O) ^( N! B, {& q: _- k
Frame rate                               : 93.750 FPS (512 SPF)
1 |8 A9 C2 R4 D+ y8 `6 VBit depth                                : 24 bits
6 @' Q% b9 }9 c; U- m5 Z9 MCompression mode                         : Lossless
: |3 C; Y/ ~( P" ^& y+ e9 U5 WStream size                              : 2.47 GiB (12%)0 b& Y, [, j" @" Z( l6 D9 Z( t  \* G
Title                                    : DTS-HD MA 5.19 R+ R! m$ x- z
Language                                 : English
! n( j, O) ^4 n' |0 dDefault                                  : Yes" U0 q9 I( X5 e; u5 D( A
Forced                                   : No! |8 g* ]' V4 Q
Original source medium                   : Blu-ray
$ g6 J3 a/ _2 r1 G. ?, Q
# z$ f5 j. Z% R* C* [% @6 BAudio #2
2 o: z. X7 {0 J8 |' ~ID                                       : 3( {, C( _1 f3 E7 M
ID in the original source medium         : 4353 (0x1101)
, c9 T: h& L. w. E3 ]( i2 c" \Format                                   : AC-3
& _( _8 w5 r6 s! s) RFormat/Info                              : Audio Coding 3) ~8 L, X8 V( x1 ?- j3 Z
Commercial name                          : Dolby Digital& e& B$ }2 b# P# _6 ~
Codec ID                                 : A_AC3
% B2 O: N' H7 {3 y* VDuration                                 : 1 h 38 min
6 o: M. `% u; p$ bBit rate mode                            : Constant* o$ L+ K+ h" k, N% N: v* U& y
Bit rate                                 : 448 kb/s
6 r+ }+ b( z3 V. O2 g) P" VChannel(s)                               : 6 channels
8 P  c, J$ a; y( Z- u# kChannel layout                           : L R C LFE Ls Rs9 G  W$ I: _2 K9 o
Sampling rate                            : 48.0 kHz6 I1 d* e; B* v8 `+ d
Frame rate                               : 31.250 FPS (1536 SPF)
, ^5 S& a. w' Y3 w9 \Compression mode                         : Lossy
( ?; H$ I' ]% I7 fStream size                              : 317 MiB (2%)- d; J. m5 n( i* ~
Title                                    : DD 5.14 r4 h1 K: u/ i7 Q) {' M
Language                                 : Spanish
4 d  Y3 s! C% w$ I, i$ t* XService kind                             : Complete Main, K2 A. C9 h  z! U1 f6 d
Default                                  : No8 M* _! o) R8 Q8 O0 Y
Forced                                   : No
1 q+ }' T9 {# ], V* z/ ^3 xOriginal source medium                   : Blu-ray
( V& @3 a2 S- z, o  K
- K4 h, {- k8 k$ Q( HText #1( b# u; K! l" r! q( @) z! z
ID                                       : 4( z0 L  p  u2 @+ t, J
Format                                   : UTF-8+ q% X. V2 n3 V0 {4 d' }& R% E
Codec ID                                 : S_TEXT/UTF8. {2 u1 M6 K" y, \* ~
Codec ID/Info                            : UTF-8 Plain Text$ @7 Z! L5 _7 M2 Y( U. [* f
Duration                                 : 1 h 30 min7 K/ q2 r( @; a5 c0 E1 q
Bit rate                                 : 65 b/s
8 s3 L$ `9 d6 Y& q1 f, v3 }% dFrame rate                               : 0.239 FPS. W! M5 G1 H6 O# ^
Count of elements                        : 1300
" g, G; Q8 Y3 u, HStream size                              : 43.2 KiB (0%)
1 G( d5 o4 t: g1 tLanguage                                 : English0 O. X0 z4 m* Y( P- ?4 U
Default                                  : Yes
. D% ]- v( [4 l5 TForced                                   : No0 @, v" B  z0 E1 C2 u

& F0 v/ r( K% J4 ?; L; h7 t7 JText #2
* ]7 B# W# s7 W" w$ b. X- x6 sID                                       : 5
, h% D: e& d, |. ^Format                                   : UTF-8: B- v1 t! A4 Z, P2 D& h
Codec ID                                 : S_TEXT/UTF8# e+ a$ k) Z. x# F& w  I
Codec ID/Info                            : UTF-8 Plain Text
- B' D4 E& O7 g- q& i; `; _Duration                                 : 1 h 35 min. f  J  s9 q, Z7 W
Bit rate                                 : 66 b/s
, }- p! l! ?# \3 U6 w, B/ fFrame rate                               : 0.253 FPS
2 \* {2 b; K- U6 ?1 w! kCount of elements                        : 14482 ^& R5 a& ~0 p5 M* P: w
Stream size                              : 46.8 KiB (0%)2 P& I' u* Q0 g' \2 O' g8 Z2 _8 W$ {
Title                                    : SDH1 Z1 }5 s# r: m4 U0 |
Language                                 : English  `8 P: }( P# v' y. ^; q& d0 j) {% b9 P0 H- I
Default                                  : No
3 @& I# j+ B% k, g- W. F, YForced                                   : No
; }1 ^; k3 ^  R, w; w
( C: I" a3 \' `7 jText #3- B, h" t, R$ p; M8 c8 r
ID                                       : 60 R; n  \: ?) y' R
ID in the original source medium         : 4608 (0x1200)
# j/ {! M* i! s4 E! z. mFormat                                   : PGS2 h: \8 T- J. n3 e+ j
Muxing mode                              : zlib
5 n! T6 N  X7 r( _1 N. y/ ICodec ID                                 : S_HDMV/PGS0 C2 t, k9 z+ \/ U: i0 _. Z
Codec ID/Info                            : Picture based subtitle format used on BDs/HD-DVDs5 k$ h: k) p  [, O0 i
Duration                                 : 1 h 35 min% }6 J! S. e- r; u1 J
Bit rate                                 : 41.8 kb/s: b0 `# N$ ~$ I* c$ p9 e
Frame rate                               : 0.510 FPS
# T. Z# h! r, z% Z  sCount of elements                        : 29200 K3 I7 I: y5 x! w4 N; x
Stream size                              : 28.5 MiB (0%)  N) [" L9 k6 [6 `1 ]
Language                                 : English
6 J! {( x' s% Z/ FDefault                                  : No
) J0 a3 I; C5 W; n# XForced                                   : No( D- f9 s: e2 Y/ U7 w; K
Original source medium                   : Blu-ray
, {3 G. s! Q  M3 p1 x1 x3 [
; d0 x5 S3 }# I  B* N6 z9 J( [" NText #4
0 U9 v9 O) I- u) S4 m3 z& FID                                       : 7; a7 Z8 F1 l8 q3 _8 ~/ `0 \1 v
ID in the original source medium         : 4609 (0x1201)
" `- L5 ^, v) e2 }Format                                   : PGS# i+ s+ r4 B- L  j$ K9 y0 |
Muxing mode                              : zlib5 D' Y& i! U8 |4 Q
Codec ID                                 : S_HDMV/PGS
, g) Q) |  L3 N8 JCodec ID/Info                            : Picture based subtitle format used on BDs/HD-DVDs' s2 Y! @6 h: v5 P& v/ p" R& O
Duration                                 : 1 h 31 min
  L' ^* J" k' F! @6 ^1 y+ IBit rate                                 : 41.2 kb/s6 U+ {. ^/ `/ v; f8 l: N
Frame rate                               : 0.487 FPS
+ Z" T2 E1 _  wCount of elements                        : 2660
- @2 B/ j( n* bStream size                              : 26.8 MiB (0%)
& V4 M  a% y. F. |' |% x, eLanguage                                 : Spanish
3 L9 p( f- p; [3 k! h$ ZDefault                                  : No% {9 C, t: ~& S; N: _
Forced                                   : No
( U$ e+ u1 m: ^; M7 m; VOriginal source medium                   : Blu-ray
' L/ T- u1 _; Y& J, [' V, e' m* A
Text #5
$ e9 j- |( b1 D! ZID                                       : 8
, f- n  @- G$ ^9 {9 k! ~# @! |5 IID in the original source medium         : 4610 (0x1202)
' A% \) u( M1 X; DFormat                                   : PGS. F, h9 i' z% ~- r# m
Muxing mode                              : zlib) N; f. r) J/ i
Codec ID                                 : S_HDMV/PGS
: Q  r; W, b. a0 k2 t; b% k8 b& F' }Codec ID/Info                            : Picture based subtitle format used on BDs/HD-DVDs
9 @/ K" i4 V& X' }4 {1 H+ bDuration                                 : 1 h 30 min
& `- y$ {. m5 w: H# hBit rate                                 : 37.7 kb/s& a1 i/ C! ]5 n) R. D
Frame rate                               : 0.435 FPS6 p4 C% J+ K/ O  w4 k! H! O4 m5 P4 C
Count of elements                        : 2366) _  J4 @7 @7 t' x9 t7 O0 J
Stream size                              : 24.4 MiB (0%)  i- o+ {$ E8 N7 y& Q" g7 Q
Language                                 : French$ A8 O! |- l; K2 a6 h  ~3 j- O
Default                                  : No
3 C/ r# X+ x! _( XForced                                   : No1 z  ?9 i0 {5 e' h
Original source medium                   : Blu-ray
3 s. ]& ^# O8 N5 z4 _/ j) w; q6 P: v7 p4 T: {$ g
Text #6
. C5 R' K0 k' h/ A3 `" oID                                       : 9# U# Z3 j3 [) w
ID in the original source medium         : 4611 (0x1203); w" k* L; N, @3 ~8 |' T
Format                                   : PGS( Y; J' h( v( O* ^+ ?  {8 j
Muxing mode                              : zlib3 i+ A# E1 z7 e% t8 l" E- F! ?
Codec ID                                 : S_HDMV/PGS4 ~' `+ t! N( d6 \: ]
Codec ID/Info                            : Picture based subtitle format used on BDs/HD-DVDs
% t' C2 \# e; k8 l" d, U+ GDuration                                 : 1 h 30 min4 b1 ]5 }! R2 k' y
Bit rate                                 : 42.5 kb/s
2 Y$ g0 Q; E& D1 q/ kFrame rate                               : 0.510 FPS
. k8 {8 w! _6 A" iCount of elements                        : 2770) Q( U; T! G; i+ v. M* @+ M$ C
Stream size                              : 27.5 MiB (0%)
1 C) A2 z$ O; j( ?3 z4 sLanguage                                 : Portuguese7 j1 a4 q; |# {" |' V& y: u) x
Default                                  : No& f1 ?$ C' d' ], {2 G
Forced                                   : No
* O* F) X- |2 k/ A- x8 h$ x, eOriginal source medium                   : Blu-ray2 W, m( L- T0 L/ D1 v2 t. d
' B2 @- v( u/ M& v. [1 r9 D
Text #7: p) L  v7 @+ h) I5 J
ID                                       : 10, @* o7 z5 |4 i  ^+ J
ID in the original source medium         : 4612 (0x1204)
% P7 D& l# N& o- i" \4 R3 M- |Format                                   : PGS9 Z5 n, ~6 X0 `8 H( W: l
Muxing mode                              : zlib( C2 g) x! b" [4 l' n: D, Z2 d/ V9 g
Codec ID                                 : S_HDMV/PGS
; l. ?( H$ e/ oCodec ID/Info                            : Picture based subtitle format used on BDs/HD-DVDs0 z7 A( h) l" L+ C" _( a6 x
Duration                                 : 58 min 53 s) h# r  G/ X: c
Bit rate                                 : 326 b/s* {; C/ p8 C. Z% t. R, ]4 c" n
Frame rate                               : 0.008 FPS# L- p  {$ ~$ q( L! h
Count of elements                        : 280 d5 }, b2 W8 c
Stream size                              : 141 KiB (0%); v! C0 q$ U: [  u7 G  x; M
Language                                 : Spanish. V% v  l3 Q' r+ Q, g6 n8 M+ N& v
Default                                  : No; S: ~& G1 a% }/ ]. O
Forced                                   : No
& `5 y0 g, b$ ~' N( h3 [Original source medium                   : Blu-ray
4 O4 T* a$ f) ?0 Z, z. w1 _
) [/ V* O% c4 z. v7 u$ Y9 c; u' uMenu
; w4 t0 ]6 V9 q00:00:00.000                             : en:Chapter 01) @. O9 z( y- @4 Z' d* @
00:11:24.684                             : en:Chapter 02
- z- o; q) t4 R  f00:22:48.367                             : en:Chapter 03
. y  `# ]1 [1 b" i00:29:31.770                             : en:Chapter 045 |* l, l; d4 S: O: x
00:37:48.975                             : en:Chapter 05
8 \! h, d+ B3 t00:45:16.714                             : en:Chapter 06$ N5 j4 a. O7 G- T7 A- z
00:53:33.001                             : en:Chapter 07
1 f* \7 O; q; }9 ^* B, e01:01:53.626                             : en:Chapter 08
0 q  s2 b" M, t& V' B+ _01:10:07.203                             : en:Chapter 094 C' Z1 ~8 T. A: U$ F
01:20:28.490                             : en:Chapter 103 [8 Y( g9 [. P# g6 j, T: p
01:30:44.230                             : en:Chapter 11, f+ h- k1 N+ b! U
01:33:19.427                             : en:Chapter 12

" A; G, K9 C3 C. O
游客,查看本帖隐藏内容请回复 | 加入VIP可免积分免回复 了解详情 | 还不是会员:点击获取邀请码 Invitation Code

3

主题

586

帖子

2490

积分

Sponsor

金币
576 枚
体力
838 点
211 发表于 2022-8-7 21:28:40 | 显示全部楼层
楼主发贴辛苦了,I*老*虎*U!! F& c$ A# ~+ q7 D/ c
祝愿蓝光社区越办越好!I wish Blu-ray communities better and better!6 b% B- A: ~" p

27

主题

547

帖子

3558

积分

Sponsor

金币
79 枚
体力
2290 点
wyyo 发表于 2022-8-8 08:05:23 | 显示全部楼层
每天都来蓝光论坛看看,我爱蓝光电影。
; D7 Y! v+ h* i7 J5 k" g# HBlu-ray movies Community: my favorite!; R! j! U* Q4 @: s

2

主题

153

帖子

855

积分

Sponsor

金币
24 枚
体力
537 点
yunzhongge 发表于 2022-8-8 14:09:52 | 显示全部楼层
8 K5 n2 w7 J. a4 D
每天都来蓝光论坛看看,我爱蓝光电影
找新电影 .

本版积分规则

小黑屋|Archiver|蓝光电影资源网

GMT+8, 2022-9-29 21:58

Copyright © Tencent Cloud.

快速回复 返回顶部 返回列表