BluRayCD Forum

 找回密码
 立即注册【分享大片】
查看: 17|回复: 3
收起左侧

[蓝光原盘] 男人/男人们/人山人海/人类/人们 [REMUX无损版] Men 2022 1080p BluRaycd REMUX AVC DTS-HD MA 5.1-FGT 26.58GB

[复制链接]

8923

主题

9117

帖子

7万

积分

Forum Moderator

金币
13305 枚
体力
12412 点

卓越贡献勋章

24小时 发表于 2022-8-7 02:26:36 | 显示全部楼层 |阅读模式
A young woman goes on a solo vacation to the English countryside following the death of her ex-husband.
2 U9 k2 x! i7 F' [
) _& V- B  `1 @4 l$ t6 k8 U. T9 ] 01.jpg 2 w6 o; i8 C3 ~3 Q; o  B6 m/ u6 Z
1 W' s3 g& n1 S4 D
◎译  名 男人/男人们/们(台)/人山人海/人类/人们; T, t1 b/ u1 J, z+ b3 k6 t
◎片  名 Men1 [8 t- o9 q0 ~0 q) C  {# _- `& Z; C" F
◎年  代 2022
  v8 m7 r7 Z' F& u◎产  地 英国  ~0 I7 O2 Z" k% d
◎类  别 科幻/恐怖
& V% F4 ^* z" X0 B% ^0 B◎语  言 英语
( _8 i  F  L5 q# {% e◎上映日期 2022-05-20(美国)+ \$ ]) U! }- f4 S1 \9 F
◎IMDb评分  6.1/10 from 24,548 users
, z7 }5 v$ j) S1 q( x9 f◎IMDb链接  https://www.imdb.com/title/tt13841850/& Z9 Y" a: r* ^( W" M. o
◎豆瓣评分 6.9/10 from 11,885 users9 F7 v; j; g6 O9 F
◎豆瓣链接 https://movie.douban.com/subject/35341588/$ o  r; O6 o$ }7 z. j9 {
◎文件格式 x264 + DTS  # S4 e& `* N  t: S' Q$ V, Y
◎视频尺寸 1920 x 1080
( N% Q) g0 s+ M" N$ q; U◎文件大小 1DVD 26.58 GiB
' \2 j2 F8 m* _  F) Y◎片  长 1 h 40 min' `9 o6 k, F$ w) B& F9 C
◎导  演 亚历克斯·加兰 Alex Garland/ a8 V1 u3 @4 G  a+ M6 g) t( \
◎编  剧 亚历克斯·加兰 Alex Garland
; e5 X* z$ t# D% k  [; T$ q$ b◎演  员 杰西·巴克利 Jessie Buckley/ X; y( ~' d1 `9 I: `8 z- r
       罗里·金尼尔 Rory Kinnear2 i$ \( a4 \) i$ V
       帕帕·厄希度 Paapa Essiedu5 r! [3 C9 k0 z! y& g% z
       盖尔·兰金 Gayle Rankin
8 ?, [1 }# d  v: n% i% m0 l       莎拉·托米 Sarah Twomey( u& i0 b7 t  _" s) g. L
       扎克·罗瑟拉-奥克斯利 Zak Rothera-Oxley' a  P- D0 r  f! u8 d
       水野索诺娅 Sonoya Mizuno9 }% I- T9 T8 r1 `1 D

  E* X( H0 L3 Y) {4 c◎简  介   ! f! y3 T* `% O

  F8 h5 M/ A  U8 c+ I  丈夫过世之后,哈珀(杰西巴克利 饰)来到一处美丽的英国乡村疗伤,然而,这里的树林中似乎有某人或某物在跟踪她,这些潜藏在她心中隐约的恐惧,随着时间逐渐转变成具体的恶梦……) {: }4 U0 v. r, B; l+ L

; \" j9 S8 ?9 U4 ?0 ?  In the aftermath of a personal tragedy, Harper retreats alone to the beautiful English countryside, hoping to have found a place to heal. But someone or something from the surrounding woods appears to be stalking her. What begins as simmering dread becomes a fully-formed nightmare, inhabited by her darkest memories and fears.
6 L; D: A- Y( A2 {
Men.2022.1080p.BluRayCD.REMUX.AVC.DTS-HD.MA.5.1-FGT' E/ u# h# i+ S7 R7 H

/ @- c  \! l; i5 ?, i; ~# s. eVideo4 Z" d8 _9 l3 u
ID                                       : 1* u  t- }6 K# c! B% D
ID in the original source medium         : 4113 (0x1011)
9 z9 Q$ |1 y4 f* R' BFormat                                   : AVC1 z( |& O, S- {8 j) j) A4 P
Format/Info                              : Advanced Video Codec
3 T2 C6 H* S! ~' T4 W% ~7 CFormat profile                           : [email protected]+ q0 u, m& A0 i7 K" P
Format settings                          : CABAC / 4 Ref Frames
2 X0 |; z0 E: a$ c5 z+ D: A1 pFormat settings, CABAC                   : Yes, j: {1 K# O" @4 r* A& @3 r
Format settings, Reference frames        : 4 frames8 v7 S* }7 B; q: {0 u/ Y
Codec ID                                 : V_MPEG4/ISO/AVC
$ L8 U0 D) I* g: }( l3 qDuration                                 : 1 h 40 min
4 D3 ~9 @/ h9 R- y- C/ n6 PBit rate mode                            : Variable5 B8 r1 [" ~  W5 ?
Bit rate                                 : 35.1 Mb/s
) r8 w2 q0 C7 B. `9 D0 N! qMaximum bit rate                         : 37.0 Mb/s5 I3 x- x1 M+ z  m; e
Width                                    : 1 920 pixels
& I( A0 w2 e4 J1 O! uHeight                                   : 1 080 pixels
& e6 u5 \; J1 ~# tDisplay aspect ratio                     : 16:9- L- r1 C5 @" K# ~" G; K/ T% @! ]
Frame rate mode                          : Constant  W8 r# o6 r: B6 x) V) c, Y
Frame rate                               : 23.976 (24000/1001/189150) FPS: e& ~3 N! {; k+ p
Color space                              : YUV& }3 `5 H7 s$ L2 |2 o/ E# i
Chroma subsampling                       : 4:2:0
, m. Y* ^+ u* ?+ |Bit depth                                : 8 bits! `) R9 B4 \5 j4 n8 u
Scan type                                : Progressive
, @3 T7 R: Y: M$ Z* f0 v. sBits/(Pixel*Frame)                       : 0.705* R0 O  y, S9 w7 y
Stream size                              : 24.5 GiB (92%)
2 l' D: D2 _" ^" `. HLanguage                                 : English+ d0 M! @! z6 C6 M, y0 L
Default                                  : No
- b" E. w7 a' D9 o  h9 zForced                                   : No
5 L; l# V# s& B& EOriginal source medium                   : Blu-ray/ K" _$ o9 o( O
% Y2 L4 F! q6 e6 y1 l6 ~+ w
Audio3 q1 r8 `5 Y6 v) c% X) D  H
ID                                       : 2
8 c! A; w9 K! E' Z7 U, @5 h7 jID in the original source medium         : 4352 (0x1100)
& b1 Q2 S- r' i! JFormat                                   : DTS XLL' m+ q( R9 R6 S; T3 @- L
Format/Info                              : Digital Theater Systems) M- e# [6 G1 |9 ^: S4 K
Commercial name                          : DTS-HD Master Audio
/ r. n- G  U7 {! o/ x9 rCodec ID                                 : A_DTS
" i4 o$ h0 F, {5 J; _( ~Duration                                 : 1 h 40 min; L+ \% X0 w4 N0 M' N0 d
Bit rate mode                            : Variable- n9 M# _- |/ E/ p: Z* S! J
Bit rate                                 : 2 907 kb/s9 B" e: r' w& a2 a1 s: y1 ]
Channel(s)                               : 6 channels! t& p/ M. M, r* G
Channel layout                           : C L R Ls Rs LFE
1 j- _; D* Z9 \. q2 PSampling rate                            : 48.0 kHz
. N  v! w, c' s7 cFrame rate                               : 93.750 FPS (512 SPF)0 Y) _6 ~- t' v$ A' V8 B
Bit depth                                : 24 bits
  F* h: Q$ M" m% C% KCompression mode                         : Lossless
4 ?% J" x' l5 `- OStream size                              : 2.03 GiB (8%)
" F' [  G3 t9 X% O- \Title                                    : DTS-HD MA 5.1
* J( C; m  @1 H. H: yLanguage                                 : English& \5 W8 {) R. G6 W
Default                                  : Yes2 T6 }9 C6 G  s) }8 {: c
Forced                                   : No: Y$ }3 N6 F$ o5 I0 @4 t9 ?
Original source medium                   : Blu-ray
9 ~6 r( f$ r  z! {% S( ~+ A0 u
# R+ v+ l( ]2 t) q# D0 qText #15 Z) o9 c- v" g7 ~
ID                                       : 3
  \! {1 T. w* I4 g! `Format                                   : UTF-8
7 y1 y3 C4 h! F5 T! M$ D. {Codec ID                                 : S_TEXT/UTF8
+ [7 W$ M+ z: ^4 NCodec ID/Info                            : UTF-8 Plain Text
9 O, Y; g8 q) J$ d6 ]Duration                                 : 1 h 37 min! u: @- f3 C) x% S0 [$ k* K
Bit rate                                 : 28 b/s
, x' |0 F3 }' I) P8 XFrame rate                               : 0.130 FPS$ y9 L2 t! }2 n$ j
Count of elements                        : 760
/ }) J# k1 l" b; WStream size                              : 20.6 KiB (0%)9 r/ F3 D0 |. `7 h2 ~& ~
Language                                 : English
  i4 g5 o4 h$ z; q. m- X; _( cDefault                                  : Yes9 p! a! a6 Y+ D9 L
Forced                                   : No! K) F. ]; w, t& a7 \& ~. N

3 \2 s/ H# J1 S7 t0 KText #2
# u0 _6 o& C, ]ID                                       : 4
0 k; f. U, r0 n  ]Format                                   : UTF-8) J; ?9 y2 E  E7 |  O8 V1 i
Codec ID                                 : S_TEXT/UTF85 L5 X; l; L2 |
Codec ID/Info                            : UTF-8 Plain Text& y& f8 Y3 k/ s6 J2 g
Duration                                 : 1 h 37 min
$ M0 v2 J' d7 ^8 C2 L* E% ]Bit rate                                 : 37 b/s
$ f5 |$ `" t) b: Z. }Frame rate                               : 0.176 FPS$ K6 p9 X$ c8 \$ F
Count of elements                        : 1033
+ f# K4 F" S& ?! p3 C9 I& w- D' MStream size                              : 26.8 KiB (0%)  j2 m( l5 }4 X
Title                                    : SDH" W3 k4 s2 W! r3 G' j
Language                                 : English7 f8 o* f0 O6 I
Default                                  : No
- v0 I/ ^9 D9 f3 kForced                                   : No; Z) w" t3 h1 k3 A: k8 |2 X9 R' i
, e) g# H: V3 v3 c/ i( z* v2 I) U. g
Text #3
; B3 T; Z1 U6 u* i% f) uID                                       : 57 i7 @  X! t* `
ID in the original source medium         : 4608 (0x1200)
, K: ?3 \  t+ yFormat                                   : PGS
& j4 @% R9 f- g, x! o+ L' U. g+ }Muxing mode                              : zlib! l& `9 \- t" M( U
Codec ID                                 : S_HDMV/PGS
, P- T6 c( j# BCodec ID/Info                            : Picture based subtitle format used on BDs/HD-DVDs4 W3 [4 I2 E" h* {9 B" v
Duration                                 : 1 h 37 min7 h3 t# j9 {% l5 T6 ^
Bit rate                                 : 23.7 kb/s/ H* T% r  W0 }; s/ M* t) J
Frame rate                               : 0.359 FPS
4 h4 H; y7 ?! q7 ?8 MCount of elements                        : 2106
/ z" R' R/ z" hStream size                              : 16.6 MiB (0%)
5 f, o) R$ d- [- ELanguage                                 : English
% t6 [4 x/ }3 m$ K3 aDefault                                  : No
2 U7 u, ~- P4 U6 ~6 f+ rForced                                   : No
5 z$ I- k5 A" q' mOriginal source medium                   : Blu-ray- s5 y0 g; J$ b' C( ], v" B
8 C1 N0 t: {& h. d  V# X6 F
Text #4
" S: P  [0 A; e7 V, T0 J3 \ID                                       : 6, X. b' @. d* B
ID in the original source medium         : 4609 (0x1201)
& R# i, a2 A4 nFormat                                   : PGS
$ g! b; u7 J4 U& z6 LMuxing mode                              : zlib
! n& n! ?" z  q1 N" e$ SCodec ID                                 : S_HDMV/PGS  v% }; ]! r& N+ h8 Y4 {/ z
Codec ID/Info                            : Picture based subtitle format used on BDs/HD-DVDs0 R8 j7 v" P& |/ V9 [  Z
Duration                                 : 1 h 36 min
( d" q  B7 x1 {8 e9 Q( S& {Bit rate                                 : 16.2 kb/s# q7 O) E7 @/ y% [# d7 X
Frame rate                               : 0.225 FPS
  |( ~; u( F4 ]- o6 ]  ?Count of elements                        : 1298
$ q- C$ O! ^/ d6 I: G4 ]% x9 mStream size                              : 11.1 MiB (0%)
- k* Q/ Y% g0 v, G7 x3 d! DLanguage                                 : Spanish7 m& _: X8 [/ j3 e- S2 Y* D: z
Default                                  : No* y) j( U& ^1 U5 B8 Y
Forced                                   : No4 i/ Z/ }; T3 h0 \4 n% P
Original source medium                   : Blu-ray
$ b! G! T# H3 u4 e% Q, c7 C0 f$ f8 s8 E8 Y& f5 l9 J# i
Menu
! y4 d! t  _6 L" e2 L00:00:00.000                             : en:Chapter 01
" q: u! i! ~8 ~8 `7 o00:04:54.043                             : en:Chapter 02: X4 [5 T8 c! I. w1 F7 {
00:11:59.051                             : en:Chapter 03
- X0 a0 r# ?' Z& Y" |6 i5 |00:18:28.232                             : en:Chapter 04/ e' l1 F( @3 ~' c' t9 z5 P  a
00:26:45.729                             : en:Chapter 05
% a! t/ e: _7 g  ^8 D3 M7 L% d0 G00:30:58.815                             : en:Chapter 06
. r' A- ]3 Q+ X1 v00:36:37.778                             : en:Chapter 07
2 X, v. u, Z- ]* P3 E, i00:42:47.314                             : en:Chapter 08
( B) {& }# H( o5 E9 B7 d00:50:44.124                             : en:Chapter 09$ y- B& w! b7 T) {& a
00:55:47.427                             : en:Chapter 10# C- {9 \( _/ R: x$ }( C6 t- \
01:02:08.474                             : en:Chapter 11
/ }9 U' ]1 w9 j: q( j. I- P01:07:06.522                             : en:Chapter 123 G) B. U8 u6 Y9 a
01:14:47.691                             : en:Chapter 13# ~6 g" F2 J/ U  X
01:22:11.343                             : en:Chapter 14
' B; u% O$ I  f; N4 J01:24:54.172                             : en:Chapter 156 A( B$ @! p( E' t  w/ \# k
01:34:46.138                             : en:Chapter 16
9 \. B4 Q8 q! K" ^% S6 }
游客,查看本帖隐藏内容请回复 | 加入VIP可免积分免回复 了解详情 | 还不是会员:点击获取邀请码 Invitation Code

751

主题

2495

帖子

1万

积分

VIP advanced

金币
2571 枚
体力
5668 点

公主勋章卓越贡献勋章

21cn 发表于 2022-8-7 10:34:46 | 显示全部楼层
Bluraycd又有新电影发布了,激动中……!
. i9 x: j: \5 y  ?Blu-ray Film Forum: I will always support you!
. A4 a5 C& A( w- P0 x2 J% ?

0

主题

120

帖子

515

积分

Sponsor

金币
0 枚
体力
270 点
jqguan 发表于 2022-8-7 18:34:20 | 显示全部楼层
好好学习天天向上

3

主题

586

帖子

2490

积分

Sponsor

金币
576 枚
体力
838 点
211 发表于 2022-8-7 21:25:56 | 显示全部楼层
Bluraycd又有新电影发布了,激动中……!
' G6 y( c' R/ N  ^" Z( iBluraycd.com movie updates really fast, also did not release issued, whether you believe it or not, anyway, I believed!

本版积分规则

小黑屋|Archiver|蓝光电影资源网

GMT+8, 2022-9-29 23:29

Copyright © Tencent Cloud.

快速回复 返回顶部 返回列表