BluRayCD Forum

 找回密码
 立即注册【分享大片】
查看: 31|回复: 0
收起左侧

[动漫动画] 蜜熊的音乐奇旅/蜜熊的夏天/沃的精彩生活/蜜熊仔维沃 [内封中字] Vivo 2021 1080p BluRaycd x264 DD5.1-NOGRP 12.36GB

[复制链接]

1万

主题

387

回帖

12万

积分

Post Share

金币
3947 枚
体力
32369 点

卓越贡献勋章VIP蓝光勋章诚信会员勋章

mvods 发表于 2022-8-8 05:35:49 | 显示全部楼层 |阅读模式
  G# D6 ^5 N4 M, n

: u) V5 X0 C  v1 n1 k◎译  名 蜜熊的音乐奇旅/蜜熊的夏天/维沃/维沃的精彩生活(台)/蜜熊仔维沃(港)8 ~, D' z+ `# C  u
◎片  名 Vivo
7 g/ G" W5 }  e  X* }# o" v◎年  代 2021
+ V' b+ C4 ?+ U# H' h' n! \◎产  地 美国/加拿大
! b9 b4 j( q  m/ p◎类  别 动画/音乐/冒险" s' O2 n- g) f1 B  J. L' K9 ^
◎语  言 英语
1 V3 I2 s! A: `' H* Q6 A◎上映日期 2021-11-05(中国大陆)/2021-08-06(美国网络)
0 V- U9 Q3 L% F. K7 h" g◎IMDb评分  6.7/10 from 18,366 users
+ a# |' s' V5 T2 r  V( u+ ^◎IMDb链接  https://www.imdb.com/title/tt6338498/
5 ]0 A$ a/ E& }0 F' u◎豆瓣评分 6.6/10 from 2,853 users' W8 M+ W2 G: N3 c8 I
◎豆瓣链接 https://movie.douban.com/subject/26935358/
) ^; g: }- C7 ^! V6 @3 y% @. {◎片  长 1 h 35 min1 x# J( B$ |% `# V4 f' X" B" |
◎导  演 柯克·德·米科 Kirk De Micco" n3 W! x& G+ R5 B( f! \
       布兰登·杰佛兹 Brandon Jeffords1 Y3 K+ F# Q, a& p
◎编  剧 柯克·德·米科 Kirk De Micco5 t0 H% K9 l' C& e2 e$ A
       琦亚拉·艾蕾葛莉亚·休德斯 Quiara Alegria Hudes
' \$ N0 {7 {; I       彼得·巴索奇尼 Peter Barsocchini
$ D" }9 B; l# @, i       林-曼努尔·米兰达 Lin-Manuel Miranda
9 C0 J6 R( Y4 A◎演  员 林-曼努尔·米兰达 Lin-Manuel Miranda
5 H7 u7 l9 V4 A! r: }& t" D& t       伊奈拉利·西莫 Ynairaly Simo
- V! z2 N# R8 J2 s/ h5 i7 \+ x       佐伊·索尔达娜 Zoe Saldana
2 M' @0 N3 ]8 L# D/ i+ n; L. |1 m9 ~" i       迈克尔·鲁克 Michael Rooker7 w' O" r: a; d/ I: \% o2 g2 p; X
       布莱恩·泰里·亨利 Brian Tyree Henry2 b! @/ z, y4 Z- D  c6 }5 {
       胡安·德·马科斯·冈萨雷斯 Juan de Marcos González" i3 k- s, O6 Y+ t
       葛洛丽亚·伊斯特芬 Gloria Estefan3 r8 n- u. ~% I3 l! X
       妮可·拜尔 Nicole Byer5 T( H3 g9 q: N& m  K( f
       凯蒂·洛斯 Katie Lowes9 c/ R) V% G. @$ B1 E3 r
       奥利维亚·特鲁希略 Olivia Trujillo
2 a2 A3 E  B  A. a% i       莉娅·朱厄特 Lidya Jewett
* X+ y6 \! t/ D9 U7 C9 Y3 P8 r       莱斯利·大卫·贝克 Leslie David Baker
/ {5 Z, W) ?* k0 X% [       帕洛玛·莫拉莱斯 Paloma Morales8 O3 ^0 W) g( p$ k
       丹尼·皮诺 Danny Pino1 [2 b( P3 j! i/ H  ]
       瑞奇·摩尔 Rich Moore" W+ m6 q9 C: G/ G7 x4 w& D& m
       苔丝·圣地亚哥 Tessie Santiago  T+ H9 H/ `* V( l' l/ h
       Paolo Andino
. D' c% i% s" R       Omar Avila / J8 f- D# ?8 D' ^* [7 A" {. F
       卡特罗·科尔伯特 Catero Colbert
% y: \* f" t5 C  g       艾琳·加林多 Eileen Galindo# P- V2 e0 S  ]' J
       Michelle Jubilee Gonzalez ) e- z! e6 Q5 e5 |, {; f" D
       杰森·格里菲斯 Jason Griffith0 V4 O" e' V* q  `4 G$ D
       布里奇特·霍夫曼 Bridget Hoffman/ B: t# `, [* ~6 R3 ]5 S, k
       斯科特·门维尔 Scott Menville: a- b  z1 B2 q6 @+ ]. n3 R
       大卫·米驰 David Michie0 Q  z/ S% n9 P) D, A/ L; m
       乔纳森·尼科尔斯 Jonathan Nichols
) H: F0 N% x6 u" t; p1 t/ e1 m       杰奎琳·皮诺尔 Jacqueline Pinol+ m7 X0 |9 U9 a: @
       兰迪·汤姆 Randy Thom) a" Z' Q" X9 h2 m4 m" s+ c& a
       谢尔碧·杨 Shelby Young! d8 d# s" P6 Q* K' y' o3 K. s
       瑞奇·摩尔 Rich Moore2 x7 z4 }' K; w2 C8 x- e
       米歇尔·王 Michelle Wong
, m3 M$ O' a4 \# V' l. o$ Y       丽莎·斯图尔特 Lisa Stewart- N3 b; L1 R( A2 D7 b% D# i
       林-曼努尔·米兰达 Lin-Manuel Miranda
$ j0 D0 p7 o+ N' d5 G  z       永杜俊 Yong Duk Jhun, E( B6 l. t3 q, Y! |

% Y7 y9 ?- j2 D" V3 D; Z  u◎标  签 动画 | 美国 | 索尼动画 | 索尼 | 2021 | 喜剧 | 电影 | 哥伦比亚/ m) c: o9 ~. a7 q
) r( G/ {6 G$ C/ W
◎简  介   
7 C3 o: C8 f( A$ b
" e" P1 m! i8 y1 k: B- l) D! @- n  影片讲述了一个欢乐又温暖的故事。为了完成爷爷安德烈的遗愿,嘻哈搭档蜜熊维沃(林-曼努尔·米兰达 配音)与酷女孩加比(伊奈拉利·西莫 配音)化身“爱的信使”踏上了一段奇妙冒险旅途。然而,一路上囧况不断,欢乐与惊险并存,他们能完成任务吗?
3 K( G8 I. l' f; A; Y0 w  V$ _  N) ~- e( S  o
  Vivo, Sony Pictures Animation's first-ever musical adventure featuring all-new original songs from Lin-Manuel Miranda, will take audiences on an epic adventure to gorgeous and vibrant locations never before seen in animation.2 O1 X% Q& U$ \+ f" y
Vivo.2021.1080p.BluRayCD.x264.DD5.1-NOGRP 12.36 GB
3 N+ T/ h( E; Z( G, K9 Y
. Q1 e* A: i0 n) kVideo
& f6 U: Z" u& W0 o- F% z) CID                                       : 19 o% C4 z, z1 O% f; x( D0 b
Format                                   : AVC
$ I+ H+ P8 ]; \4 D- W# e5 gFormat/Info                              : Advanced Video Codec4 d) u9 t3 J% f8 j/ j% r
Format profile                           : [email protected]
- J& A! f' u/ \+ EFormat settings                          : CABAC / 5 Ref Frames
. S. J1 n9 V( `Format settings, CABAC                   : Yes+ x3 _2 P+ Q) E
Format settings, Reference frames        : 5 frames# c: H2 U: m; X+ m$ v
Codec ID                                 : V_MPEG4/ISO/AVC
* r( f% z" V! H; H$ G  ^- tDuration                                 : 1 h 35 min7 A7 B0 H% i: b& B5 w9 Y
Bit rate                                 : 17.2 Mb/s* Q+ u7 Y0 ~4 V  n: ]. p" P; n. T
Width                                    : 1 920 pixels- |6 W- N2 q2 R2 s% ], O) e
Height                                   : 804 pixels
# {: E3 n( A9 WDisplay aspect ratio                     : 2.40:14 z, @- z) T. z
Frame rate mode                          : Constant
) t# {; @! U1 C; R6 B( RFrame rate                               : 23.976 (24000/1001/189150) FPS
5 m4 J9 E7 C6 ^4 }9 C8 XColor space                              : YUV
  E  t3 d: q3 j$ Y% PChroma subsampling                       : 4:2:0
8 O# @: I$ b1 F: P0 [0 ABit depth                                : 8 bits, G  k# a" n5 I$ w
Scan type                                : Progressive% Y7 u* {. c9 K& k* ~2 u: H
Bits/(Pixel*Frame)                       : 0.465+ g5 Q/ b; q( i, Q+ P# P' t
Stream size                              : 11.5 GiB (93%)5 l( ~! Y. G# Q. n1 x8 q
Writing library                          : x264 core 164 r3094+49M
2 ]8 ^' x* ^" t' F+ v2 wEncoding settings                        : cabac=1 / ref=5 / deblock=1:-3:-3 / analyse=0x3:0x113 / me=umh / subme=10 / psy=1 / fade_compensate=0.00 / psy_rd=0.80:0.00 / mixed_ref=1 / me_range=32 / chroma_me=1 / trellis=2 / 8x8dct=1 / cqm=0 / deadzone=21,11 / fast_pskip=0 / chroma_qp_offset=-2 / threads=18 / lookahead_threads=4 / sliced_threads=0 / nr=0 / decimate=0 / interlaced=0 / bluray_compat=0 / constrained_intra=0 / fgo=0 / bframes=10 / b_pyramid=2 / b_adapt=2 / b_bias=0 / direct=3 / weightb=1 / open_gop=0 / weightp=2 / keyint=250 / keyint_min=23 / scenecut=40 / intra_refresh=0 / rc_lookahead=60 / rc=crf / mbtree=0 / crf=16.4000 / qcomp=0.60 / qpmin=0:0:0 / qpmax=69:69:69 / qpstep=4 / vbv_maxrate=62500 / vbv_bufsize=78125 / crf_max=0.0 / nal_hrd=none / filler=0 / ip_ratio=1.30 / pb_ratio=1.20 / aq=3:0.90 / aq-sensitivity=10.00 / aq-factor=1.00:1.00:1.00 / aq2=0 / aq3=0! u1 T4 z+ M; Z! ]" B! x: e
Default                                  : Yes
& U' r& F7 ^" sForced                                   : No8 p! Y+ M( k& y: a5 A. _( G! ]3 g
Color range                              : Limited) D( u- q3 m/ ^% `4 p$ b
Color primaries                          : BT.709' G% u; @: f' f
Transfer characteristics                 : BT.709
2 H7 d0 z4 z  A$ t& G, a& cMatrix coefficients                      : BT.709
! }( E5 c: I$ l6 j. x$ ?# [7 a" ?3 j; G% s
Audio
) u1 h: z+ e8 _  `9 W2 r3 N* gID                                       : 2
5 R0 d: F2 b7 v: f+ @Format                                   : E-AC-3
2 Y; P) r, J, BFormat/Info                              : Enhanced AC-3
- ]! ?: }( M3 R5 KCommercial name                          : Dolby Digital Plus. ?9 p7 e  u5 e
Codec ID                                 : A_EAC34 o5 V) [- u2 {, S) g: }, N
Duration                                 : 1 h 35 min
; a+ H3 K0 Q4 J  n0 a1 w" e2 EBit rate mode                            : Constant
7 ]& b$ y. O8 _! w) j5 WBit rate                                 : 1 024 kb/s" u) y7 q6 f/ ]$ F0 \$ \9 y  |& o
Channel(s)                               : 6 channels
5 m; k1 H* h: P/ S- c" ^0 \6 \Channel layout                           : L R C LFE Ls Rs# V1 |& b$ }1 F6 m- d" T
Sampling rate                            : 48.0 kHz1 t9 N7 ]' A1 H
Frame rate                               : 31.250 FPS (1536 SPF)* K  l) @; r1 Y3 Y
Compression mode                         : Lossy* Y% O- ~2 F9 Q6 c  m, F7 C
Stream size                              : 701 MiB (6%)
$ }! C" q# s* T$ ALanguage                                 : English
) i6 m8 `5 R% x, h* f( zService kind                             : Complete Main9 b7 v1 n) Y5 C+ p5 n/ Z
Default                                  : Yes
: ^" r0 ]8 T" |. Y' x4 v7 C4 \Forced                                   : No
7 q( A; z2 U+ i: I7 [; s8 P* A% @( i5 Q& I7 L  g5 I& N- Q& V/ N+ E1 j
Text #1
) J- s7 {( }) J3 v, [4 G  eID                                       : 3
% m& }' q! h* p) {; S1 v( fFormat                                   : UTF-8* c' D3 ~/ l' r
Codec ID                                 : S_TEXT/UTF8
8 J- T$ }/ ]& K5 ^8 YCodec ID/Info                            : UTF-8 Plain Text# p! d# K' l) ~0 D
Duration                                 : 1 h 24 min
0 w5 E" a) y; q1 }5 GBit rate                                 : 69 b/s
+ U) G3 v7 M( I. N" wFrame rate                               : 0.265 FPS
/ K9 o. Q/ |) r0 @Count of elements                        : 1344& B( \! S/ y+ Q( f. f
Stream size                              : 43.1 KiB (0%)
: N+ k$ G( w' C" aLanguage                                 : English
: j2 x' j! C7 q: GDefault                                  : No( l' ~, |5 Q6 K) w8 b; x
Forced                                   : No
/ O8 P- Q/ f9 w: i9 ^& O' }1 p, y9 X& ]
Text #2
+ n$ x- S# y+ Q6 a- U: x8 `ID                                       : 4
5 c6 d+ e, `3 L5 H' b1 U) bFormat                                   : UTF-8: B. B3 r- _5 q2 _* o: p* w
Codec ID                                 : S_TEXT/UTF8
) \: h6 @0 c8 xCodec ID/Info                            : UTF-8 Plain Text
4 d% D. M7 F, G: rDuration                                 : 1 h 32 min7 k2 b" w5 l% e" n5 b' k9 o
Bit rate                                 : 88 b/s+ k( g0 B, C/ t* G* w/ v1 N; }
Frame rate                               : 0.319 FPS+ Y" H& E; o( w+ M( m; j' `$ g2 w; o
Count of elements                        : 1766
' P1 ?0 l- z: P# J, L0 S4 k1 S' SStream size                              : 59.8 KiB (0%)+ c& {7 X5 Q! v& m" }: R5 B; W
Title                                    : SDH
+ g/ T. m3 c  z" I5 xLanguage                                 : English2 U& Y0 i$ k, e- W+ d' v: V
Default                                  : No
+ w' `+ t! I6 m& e+ n4 r1 s  u/ S# pForced                                   : No
& t5 }* V/ s% r+ p' y) c+ M7 q0 _, {1 ^! B, Q/ P
Text #3) H: ?$ E: W, n" b1 f7 K0 N
ID                                       : 58 n  C9 h; J% O  q. R5 L6 J& I
Format                                   : PGS- ^) D1 t* Q/ o2 I( M
Muxing mode                              : zlib
/ F, R" c$ {3 x7 QCodec ID                                 : S_HDMV/PGS
' ^7 c, R+ A# dCodec ID/Info                            : Picture based subtitle format used on BDs/HD-DVDs
; ^# w' [$ `0 _4 v3 `( O* nDuration                                 : 1 h 24 min# ]3 p$ y- q5 I! Q
Bit rate                                 : 818 kb/s' ~4 k8 A+ u. t7 N/ J% k0 K
Frame rate                               : 0.764 FPS* u( d, j1 |" ], O' v# s
Count of elements                        : 38738 V3 K' h- Y3 V5 ~
Stream size                              : 494 MiB (4%)$ @0 n' y4 D/ o" l
Language                                 : English
' Z: l2 ^7 H$ h5 h; T# q7 L6 pDefault                                  : No, n' X! U. q) l" J( H7 u
Forced                                   : No2 N) P  Q4 J' ~$ Y2 K& ]* {6 r
" S" w' E# a; A# |" x
Text #42 d+ ?4 J8 U6 m3 P; p' s
ID                                       : 6  Z8 {/ \8 o: R+ ?' f0 c" z1 d
Format                                   : UTF-8( Z2 x9 a$ x$ m( b6 O
Codec ID                                 : S_TEXT/UTF8
# L: I7 E, L6 OCodec ID/Info                            : UTF-8 Plain Text1 G  Z: N7 e' p8 Y
Duration                                 : 1 h 34 min- C7 C  V9 O) t1 d+ T' d/ i. Y" v
Bit rate                                 : 95 b/s
$ h( M2 m) o; E) FFrame rate                               : 0.227 FPS. \! b" `5 _, e- ?
Count of elements                        : 1284
' H1 F+ J1 g0 g* DStream size                              : 65.7 KiB (0%)
: Q7 _/ k( G( `Title                                    : ???????
/ U+ H% B  V. H2 _2 JLanguage                                 : Arabic
4 [! f0 L( u3 U3 ]' rDefault                                  : No
( n- n# n) \8 q" T/ _$ P- H4 lForced                                   : No0 ?: d; l+ y, Z. G! @+ n$ L. o9 X% _: ?
% l- i0 x2 n; t8 x3 s0 s
Text #5( z# f& F' g5 X- K) i9 P
ID                                       : 7
2 D/ I" W( n' ]' P: ~Format                                   : UTF-8
' ]& z" b2 Z8 e% g7 oCodec ID                                 : S_TEXT/UTF8
' |+ t& c' C2 ^+ H4 Y1 ZCodec ID/Info                            : UTF-8 Plain Text' u9 s0 S  i1 ^6 ~; w
Duration                                 : 1 h 34 min
) n4 x! ]/ G2 X  p1 K9 ]2 hBit rate                                 : 58 b/s
. f  e3 m2 M4 M) u) CFrame rate                               : 0.238 FPS  i' D  s& @$ H% f+ Q; l5 Z
Count of elements                        : 1347
* _, T* M* F8 AStream size                              : 40.6 KiB (0%)9 |9 [4 b, N2 t2 V2 k# `
Title                                    : ?e?tina% J. M7 X5 q- N( @
Language                                 : Czech
1 w  \# ]' ?% U$ JDefault                                  : No$ j. a+ x' F& X$ N# @
Forced                                   : No2 V" n- G% T, H1 O4 k; s  g" j
9 o+ B0 B* p8 `0 m5 a
Text #6
  s) Z2 K+ p2 N& H$ v5 ZID                                       : 8' T& I* v4 S, h! N0 V+ t; X
Format                                   : UTF-8
* z: D. b4 I6 @8 a: Y7 M5 OCodec ID                                 : S_TEXT/UTF8
$ u' F0 E/ F' _) j. O8 A3 [* |Codec ID/Info                            : UTF-8 Plain Text
7 y  I6 d- K2 G: |, u4 ]) ]Duration                                 : 1 h 34 min
2 |8 p6 o$ x- R" o$ z- |2 _Bit rate                                 : 52 b/s
7 y' a6 y5 N( v6 {Frame rate                               : 0.201 FPS, F8 e! V% M2 v- s! b
Count of elements                        : 1138
* Q* y; w+ o$ eStream size                              : 36.1 KiB (0%)
" e  |! J/ D# y  ~! qTitle                                    : Dansk- p) q! Q0 K) ^+ Y8 G4 X
Language                                 : Danish9 e1 }& P% [% K3 r+ j
Default                                  : No4 M& h) _1 X: p& M, D! {
Forced                                   : No" X( V$ N% Y/ m$ y
# K  g7 a- n/ |* j$ L# ]" B- P7 P! K
Text #76 r! Q, |* P$ T/ w+ ~1 [- ~
ID                                       : 9
# v+ c7 P) w! \Format                                   : UTF-8
- R; |; d2 m1 C0 b2 `& SCodec ID                                 : S_TEXT/UTF8
" z' [( ?' \9 k+ c( M( CCodec ID/Info                            : UTF-8 Plain Text" Q1 t. y7 }6 v& ~/ K
Duration                                 : 1 h 34 min
' e% g& Y7 ?$ FBit rate                                 : 56 b/s
: `( N8 m1 W: M1 W- O9 sFrame rate                               : 0.200 FPS0 z# [9 ^0 r9 c2 d! i! O% b. v7 R
Count of elements                        : 1130( v# N; u1 X$ ?# o, y& m  O# [  b
Stream size                              : 38.7 KiB (0%)
8 |$ J* N$ s- W2 n& l/ G9 _Title                                    : Deutsch, d6 d2 |+ i& |" g  W+ c: h
Language                                 : German+ d8 O3 B  j  f, [& h" k* Q6 m4 E
Default                                  : No
$ y0 _# f# P; g) ?Forced                                   : No
0 A" J9 H: d( v/ a$ k2 K5 v6 r  t4 N( \
Text #8
( ~6 t3 s4 r: B/ m. sID                                       : 109 ^+ E& a- n; b( z/ r+ [, t
Format                                   : UTF-8
& [" i1 u6 R& ~0 K( |Codec ID                                 : S_TEXT/UTF87 g; p9 b% ?0 w
Codec ID/Info                            : UTF-8 Plain Text
( e" s5 Z8 _+ b7 CDuration                                 : 1 h 33 min( U) }9 b/ D( B# J1 S- K* h
Bit rate                                 : 92 b/s
2 T7 K) y. i1 b& b+ I( [5 N7 DFrame rate                               : 0.219 FPS7 q, y9 e* K' ~7 f# P# Y
Count of elements                        : 1228
# l2 S0 d( x+ PStream size                              : 63.6 KiB (0%)
: n6 ]7 u3 R  P" _  `( A5 _! fTitle                                    : Ελληνικ?
- \: f" d8 a; z" dLanguage                                 : Greek
) x( P) Q+ s) T$ w4 q$ ]9 e& LDefault                                  : No! x6 b7 E3 M9 {- A4 n# {$ g, h
Forced                                   : No$ R9 Z/ j# n% J. S

5 N9 c& n# z' {4 wText #9
/ S3 W4 c) @; x8 G* s- nID                                       : 11
4 s3 T0 T% p" G1 _$ bFormat                                   : UTF-8  ]4 T; Q1 U# F: O2 N
Codec ID                                 : S_TEXT/UTF8
' ^  w& _# S) e; Q# G$ dCodec ID/Info                            : UTF-8 Plain Text2 S% c/ B# e  ]. o/ r
Duration                                 : 1 h 33 min
+ `( g, j5 H$ B( `9 C  {8 ABit rate                                 : 51 b/s
8 v3 S3 f0 m1 d4 xFrame rate                               : 0.231 FPS
; z2 b4 P6 o' ZCount of elements                        : 1295% `2 D3 A2 H$ a: E" \7 o1 U4 i
Stream size                              : 35.6 KiB (0%)# {: V5 B/ v7 w; l" Q
Title                                    : Espa?ol
; r" x* p: H2 V' F' u, Q# J$ K' w, JLanguage                                 : Spanish6 K, V; b, G4 y
Default                                  : No# F0 F1 \7 r5 A1 k5 ]" \
Forced                                   : No% [$ n9 S3 f$ V0 a* @+ B
3 H0 G0 }7 w& Q- U. p. w: W
Text #107 b, d& A$ @9 v9 c8 i
ID                                       : 121 |# L$ |2 W. J  Q% N( R  I( d  p' ?6 b$ d
Format                                   : UTF-8/ r; J3 k& [+ Q9 H' T
Codec ID                                 : S_TEXT/UTF88 L# c7 _, ?8 {& _6 M
Codec ID/Info                            : UTF-8 Plain Text
# _9 M+ k  m7 }- a7 QDuration                                 : 1 h 34 min. r7 Y0 A( T8 k2 h* B! I
Bit rate                                 : 51 b/s: G- C" R  }; s: n( d
Frame rate                               : 0.213 FPS% t, ~/ O( c8 f( s5 c
Count of elements                        : 1203& n8 o- D/ J" [
Stream size                              : 35.7 KiB (0%)0 m+ J- T. j( z* h& _/ h6 c+ a
Title                                    : Suomi
- `% a8 F4 w* v6 VLanguage                                 : Finnish; Y) A: W# z0 D4 H3 D0 [
Default                                  : No7 n: L. J+ p: @7 f
Forced                                   : No! q8 p! Z' W+ o" i) E
2 J1 I1 ~5 ^0 {; W
Text #112 I3 p+ S1 m! h3 q0 Q
ID                                       : 13. s: B& t  j$ s# C0 n* _' e- i
Format                                   : UTF-8
; o4 _+ L3 H8 X+ ]$ `- @Codec ID                                 : S_TEXT/UTF8+ \7 D& P  M; c
Codec ID/Info                            : UTF-8 Plain Text' ^) X' {4 ?; g
Duration                                 : 1 h 33 min
7 C: p! F! T+ o! S. gBit rate                                 : 56 b/s
* u' s4 H- U6 H5 q( k& aFrame rate                               : 0.208 FPS/ i& _/ T3 V( v$ o; I- h6 K- @
Count of elements                        : 1170
) [' b) h; v! c: U8 LStream size                              : 38.6 KiB (0%)
0 \4 Z% z8 j& Z* R1 jTitle                                    : Fran?ais
" X* a' Q( Y, WLanguage                                 : French
# }3 a! B. f6 Q* q7 I7 B" B( LDefault                                  : No9 [% A; b$ f& d& X& E
Forced                                   : No2 H1 H: B5 q7 m7 w) p
; u: C8 e3 S" ?) }
Text #12) y2 a9 N% E) B8 f: y- S
ID                                       : 140 X5 J$ |1 x  S6 O& v$ X
Format                                   : UTF-8; j- A2 y/ \5 T  D2 A
Codec ID                                 : S_TEXT/UTF87 k3 c5 k' P) r0 x- p
Codec ID/Info                            : UTF-8 Plain Text7 x% Z, E  u, m
Duration                                 : 1 h 34 min
; V$ M) y0 }" @; lBit rate                                 : 90 b/s
3 o. w  }* p7 `7 GFrame rate                               : 0.224 FPS
) `4 u: L% ]0 U2 O! W9 N% V; m3 P. iCount of elements                        : 1267
$ O4 D) W3 M% oStream size                              : 62.2 KiB (0%)
$ S& }5 B* w, y- o" Q/ a' t, P9 CTitle                                    : ?????$ q1 T6 A" v: _* B
Language                                 : Hebrew
  V( t; [6 a. u5 x) U3 i$ Y( \% T) oDefault                                  : No& u2 ^: X5 M& \) ~0 ]9 u; A1 `
Forced                                   : No3 T; {8 W" f& D# \  H+ w
7 e! [$ ~) T) d+ \; ]# v0 j# A
Text #13  p* q7 l- V. B9 c- Y/ T$ U$ J
ID                                       : 152 j9 R4 ~4 @3 P; E, l
Format                                   : UTF-8
& _1 T+ j3 v5 D1 E& F4 }! ?( nCodec ID                                 : S_TEXT/UTF8
* ?! g6 g- Q4 O2 @Codec ID/Info                            : UTF-8 Plain Text+ K+ \( j5 k  O4 @! M( e4 Y& q
Duration                                 : 1 h 34 min
" I5 e3 @* B% |; f9 u# P3 OBit rate                                 : 51 b/s" C7 e5 r+ k6 I1 [  v
Frame rate                               : 0.224 FPS
, x- I% Y( y8 I3 n( V; e) w9 P) DCount of elements                        : 1268
" r) d" U& W1 ^! |3 U. VStream size                              : 35.4 KiB (0%)
5 n9 ]4 {( R6 `2 NTitle                                    : Hrvatski6 D2 k" h# }( F2 _" K' l: d
Language                                 : Croatian
  p3 R; _0 j, c( [, [/ o$ |Default                                  : No0 O9 J* Q1 G/ D
Forced                                   : No, J% d( J! V  u$ }7 [7 g* w) I

8 o6 l, |% L" P+ IText #14
5 @- `" ^; H# D: x: B0 [+ s5 BID                                       : 16& @# o; x/ i  |: B  _; @! k" ~
Format                                   : UTF-8
9 Z9 p4 R, K" h/ B& R4 ?4 y3 G  RCodec ID                                 : S_TEXT/UTF8/ B1 o+ F; |0 C$ \# p" R: e
Codec ID/Info                            : UTF-8 Plain Text
( _" {# V% \/ w6 l8 gDuration                                 : 1 h 34 min% Z0 [1 V2 v( I$ x$ W
Bit rate                                 : 63 b/s" W) A) p, Y, ~; S0 M' R4 ^/ a
Frame rate                               : 0.232 FPS
% |3 F5 U1 V5 m2 eCount of elements                        : 1310% A/ \7 I& H/ l# m9 V
Stream size                              : 43.7 KiB (0%)' J8 S  a1 i6 L! a$ E- o! e; W
Title                                    : Magyar
; B, U/ p0 t  `6 KLanguage                                 : Hungarian* ~/ ?) Q' K4 B/ f6 @
Default                                  : No( _( W/ Q% o* `$ V
Forced                                   : No
, s+ {) ~; V0 @& }4 c
1 L2 f# I& i7 O8 t( x- CText #152 E* v* K, U, K  e& N: s+ q
ID                                       : 17
3 v* N; W( |( Q% K2 ?/ X8 zFormat                                   : UTF-8
& L' U" I# {! H* E, pCodec ID                                 : S_TEXT/UTF8
' j: w9 p6 A6 P" o7 _2 m6 FCodec ID/Info                            : UTF-8 Plain Text
$ t& u5 E, G+ X" j1 g% D6 n& C+ BDuration                                 : 1 h 34 min5 m8 ~4 \7 L( N' J5 e! t. Q, N
Bit rate                                 : 55 b/s$ v+ D6 `6 P% W& f
Frame rate                               : 0.225 FPS
7 |! ]- _5 L' a7 F. n; oCount of elements                        : 1272
; C7 }2 w$ C, h$ nStream size                              : 38.1 KiB (0%)
$ [4 i7 B/ [( W7 ]9 K6 U, PTitle                                    : Bahasa Indonesia
4 @9 Q+ A3 w5 J: ?3 qLanguage                                 : Indonesian
1 Y2 `0 o6 N5 N9 MDefault                                  : No
" s: V: a7 d! u# E/ cForced                                   : No) U6 T' i, p7 A' |% f- F0 r" n
5 \0 q  {7 f# H: g% `
Text #16
  }2 `* J+ Z7 w* VID                                       : 18
' F5 Y1 j. Y' Z1 `! KFormat                                   : UTF-84 q/ i; t) l- }6 C6 @: h3 j
Codec ID                                 : S_TEXT/UTF8
- ?8 Z# ^1 W' x" eCodec ID/Info                            : UTF-8 Plain Text% `: B8 F8 b* C$ l: m/ J; L
Duration                                 : 1 h 34 min
% I0 D9 E" _* z  G$ g  o7 k$ fBit rate                                 : 59 b/s
# ~- l( l( n- y% fFrame rate                               : 0.220 FPS
) w7 ~: L7 U) `# j% aCount of elements                        : 12412 n" P; w6 Y/ A' Q0 o
Stream size                              : 40.8 KiB (0%)" K& y* G4 A; n" y. ?; i6 g5 M
Title                                    : Italiano
) x* y8 U* C% \2 P# m& ZLanguage                                 : Italian
, W& B4 B6 V6 z9 }& HDefault                                  : No$ f* A' G1 y  o, B7 C* r
Forced                                   : No, B' }- w: a# b
1 h* Q& z9 y5 E4 y5 H/ v, Z+ l
Text #170 r* o/ Z; w" y: n$ d3 e- a
ID                                       : 19
) e3 v) g% G* _1 tFormat                                   : UTF-8
7 b! u# Z% {  K) ^- B& n$ ~Codec ID                                 : S_TEXT/UTF8% Y) @' \) h2 r/ h- l$ o" O  Z, G
Codec ID/Info                            : UTF-8 Plain Text
# F% I# \' h# r+ V4 h* P" MDuration                                 : 1 h 27 min5 ^7 Y. S& Y& S9 B/ _# P, W8 u4 X
Bit rate                                 : 57 b/s0 |4 b2 m8 F9 A% X: h
Frame rate                               : 0.234 FPS
& {4 O+ k, }+ W& F7 \, xCount of elements                        : 1237
! G5 p( {, S1 |- R  D) D! PStream size                              : 37.2 KiB (0%)% O( t, G% g2 U
Title                                    : 日本語1 J  `+ |% T5 t2 A9 h: t! e4 n  @* c
Language                                 : Japanese, A% |" C1 {9 l; J. B
Default                                  : No
- C0 Q0 P$ v( `, fForced                                   : No
) ^2 S& N' F4 P
# ~; f; m1 e- Z6 A. F( ~Text #18* J! f: b+ U% _0 I0 }! X+ Q  r% A0 b( N
ID                                       : 20
  c7 j# C" c/ S. U  |: o5 _$ q( KFormat                                   : UTF-8' B; H6 d7 j, l1 k
Codec ID                                 : S_TEXT/UTF8
5 n3 J2 T' N+ }- G( ?1 vCodec ID/Info                            : UTF-8 Plain Text+ Z6 s" v/ s, K8 P! {0 g1 {+ q4 n
Duration                                 : 1 h 34 min
) j9 I- O3 C1 ^4 D! O" Q# rBit rate                                 : 81 b/s8 U# Y; a2 L  i: D" R. q# M- E
Frame rate                               : 0.244 FPS8 X$ z3 d' x7 C9 ^6 q/ O6 A
Count of elements                        : 13805 E% r0 E6 z' C9 ^; O7 g: e4 t/ W
Stream size                              : 56.2 KiB (0%)8 C8 s5 v# x" j) {6 ~
Title                                    : ???1 [) ~/ H/ c4 `
Language                                 : Korean
5 ^+ t3 V1 a; b6 d# Z' D( a& SDefault                                  : No1 @' ~& P8 X9 R
Forced                                   : No- K1 n$ F8 U! p9 A

6 d! d) D! b! vText #19
  c9 S4 L2 U% p+ W7 [+ }7 lID                                       : 21
" [3 d/ X0 m. Q6 R1 i" @& v1 rFormat                                   : UTF-8/ z1 h' [6 q* M7 U: `! W: C$ [
Codec ID                                 : S_TEXT/UTF8% F% f8 Q, {. I8 [3 y+ i  S
Codec ID/Info                            : UTF-8 Plain Text
3 G! V7 M) p' `. N9 T& XDuration                                 : 1 h 34 min
! q2 A/ Y8 v; e' F3 B, H% xBit rate                                 : 55 b/s
, s. ?" l% w- g1 o+ z' C) k" `5 eFrame rate                               : 0.223 FPS& _; f# a; s6 g
Count of elements                        : 1263
/ u+ P& R: K' u+ q  c/ z. Z- uStream size                              : 38.2 KiB (0%)
* [8 p* C& d' z+ M0 x$ o, y; iTitle                                    : Bahasa Malaysia! c; F6 G/ t$ ~# b5 f' W! V: E% E
Language                                 : Malay5 J. g5 ]  Y" C( P/ e
Default                                  : No3 A' Y8 ^* m/ t
Forced                                   : No. m* z8 E( `1 D$ M1 B. }2 G+ q/ g5 M
# h, u# @7 }6 |2 v
Text #203 U1 C! P- J- v6 A* j
ID                                       : 22
) ]4 Y  U2 S5 J  v3 EFormat                                   : UTF-8$ D7 b, @% X8 y2 U' ^% X% F/ L. a. A5 O
Codec ID                                 : S_TEXT/UTF8: `/ l/ B; E% J! o
Codec ID/Info                            : UTF-8 Plain Text
& H. z' X# @7 y" ~2 i0 Q, u/ M2 HDuration                                 : 1 h 34 min
. e  C/ X7 K  ~8 e$ h$ [Bit rate                                 : 53 b/s
+ }4 H. \' v  h" n' V* SFrame rate                               : 0.218 FPS
, k6 V, S' j, N# KCount of elements                        : 12355 J( j8 _2 w6 H8 @/ ]8 o9 }
Stream size                              : 37.1 KiB (0%)
& g. ^3 ^. x# B& M  Q; FTitle                                    : Norsk Bokm?l
; C4 `3 M0 @. `% U7 j: w- b# RLanguage                                 : Norwegian Bokmal3 r3 F' p" Y! U8 B' B
Default                                  : No" p! O- X* y( J+ ^& F, k0 n# G6 f! B
Forced                                   : No
, a/ d/ W. k. v1 I, o9 w7 u: ~. R  u7 k$ r% D, `
Text #21* Q) X& X8 Y# x+ Z3 |0 f( w) y, B
ID                                       : 23
" J" C7 H+ B) f0 w, z7 uFormat                                   : UTF-8  j' q, y. j' T' T0 A5 h
Codec ID                                 : S_TEXT/UTF8' D& ]) J8 K1 \9 w0 H/ {) B1 N
Codec ID/Info                            : UTF-8 Plain Text
( c3 |# ]: P+ P5 q) fDuration                                 : 1 h 34 min+ {7 H) G* p9 T5 f2 |5 l4 q5 y7 i$ Z
Bit rate                                 : 48 b/s& e8 o# c0 _, g# h1 E9 Z
Frame rate                               : 0.198 FPS
9 y4 u0 I% c$ S0 [Count of elements                        : 1119
/ `7 p8 p6 N( @0 Y! }Stream size                              : 33.3 KiB (0%)( U' [; O4 H7 E1 n8 N) {- }9 y
Title                                    : Nederlands* h/ x  w; J9 p: U: `7 Q; [
Language                                 : Dutch
- h8 j' D  x5 E) ^; B2 L; Y& ODefault                                  : No0 v2 t4 m( A6 R. g9 l
Forced                                   : No
+ c# |4 q3 f7 [$ ]1 P$ s; z7 v
. q4 z/ {$ q# y7 XText #22
5 q' t" k; O$ XID                                       : 24* P; `2 q5 `0 t
Format                                   : UTF-8
) N9 n: s4 c9 k" ZCodec ID                                 : S_TEXT/UTF8& ~% A; \- z) @0 W: B: H
Codec ID/Info                            : UTF-8 Plain Text
! p8 L1 W% J" b2 D& {1 A& WDuration                                 : 1 h 34 min
8 R2 h0 V2 E( w7 h: x+ @" i& j! _Bit rate                                 : 51 b/s* P5 ^5 S/ i& l( t) L
Frame rate                               : 0.218 FPS; h5 R0 R4 j! u
Count of elements                        : 1232, O' N: |9 o, \3 w, e
Stream size                              : 35.6 KiB (0%)
+ U; p/ W( R: K. c9 p5 a4 c, v, _6 }Title                                    : Polski7 j$ z+ E9 g: s9 l. J7 Y
Language                                 : Polish
4 j2 z+ O* I7 N& nDefault                                  : No) a8 ~" u1 ~: y" n
Forced                                   : No: t/ B7 m4 c2 l9 m+ ~, L0 Q+ W* Z
! k- S, ?# }1 A! T! G' F- x2 E2 Q
Text #23% W8 B1 K; x3 `7 R* J' p
ID                                       : 25
) \9 L5 M; L! _9 D5 c, xFormat                                   : UTF-8+ M# l+ H) a: E) P$ r
Codec ID                                 : S_TEXT/UTF8; }  a1 I. f: T9 z/ B# p
Codec ID/Info                            : UTF-8 Plain Text3 F: k/ A3 Y, ]7 w! _
Duration                                 : 1 h 33 min
& f4 g6 a& K) j" fBit rate                                 : 59 b/s
9 w1 ^! Y7 X5 {! O/ Z( w7 `Frame rate                               : 0.226 FPS
2 ^9 u' {" M: ~/ x% NCount of elements                        : 1273. s! H0 v7 g4 ^( R2 a
Stream size                              : 40.9 KiB (0%); T# c& ?* D6 Z# d9 e4 B. Z
Title                                    : Portuguese7 \( `/ s6 p0 s
Language                                 : Portuguese6 {$ \- s  u: z; S) L8 }4 B
Default                                  : No. g( u. q+ {! ?& k5 I" j# D
Forced                                   : No
1 g' B1 w! Q. f2 |6 n  l( [+ g3 ?! i/ g/ D  F
Text #241 M5 y" q0 g! N7 L
ID                                       : 26
* v# n+ ?" e9 ~, Y/ bFormat                                   : UTF-8& E. U% j  W5 F
Codec ID                                 : S_TEXT/UTF8
4 J! d" M# J& u* A' |* [* X- I; TCodec ID/Info                            : UTF-8 Plain Text0 X3 d2 O; l, ]3 q- m7 J5 z# K
Duration                                 : 1 h 34 min
( F5 g) Y5 \! `2 c2 J( qBit rate                                 : 56 b/s
* \1 P9 T- i( e; f+ LFrame rate                               : 0.222 FPS" P4 K5 E# O/ w3 z( O4 `0 i) f
Count of elements                        : 1254( d2 r8 k- P" U5 [) X, N
Stream size                              : 38.6 KiB (0%)
- F8 U1 ]6 w& f  |' x) YTitle                                    : Brazilian Portuguese
2 I' W" \3 I' y. n7 M+ DLanguage                                 : Portuguese9 x  ]. L: H) K* Q( _* F
Default                                  : No( g) |. |" l) M6 `+ ]+ W- c
Forced                                   : No* k4 F$ e: m  g9 [3 K9 S

$ f8 E7 r. {  p' E" M; B0 @* DText #25
+ G8 ^( \8 b# e  y+ yID                                       : 27
% ]% @# u! n) b1 l4 o/ |" FFormat                                   : UTF-8
7 D5 p' h/ E. t. {Codec ID                                 : S_TEXT/UTF8
0 s0 s* H& ^( T5 bCodec ID/Info                            : UTF-8 Plain Text
4 \+ O  f) ^( hDuration                                 : 1 h 34 min; k& U4 \4 w* l( ?, Z+ z' N
Bit rate                                 : 60 b/s
/ F' u  A. j- w% }1 F( ~9 nFrame rate                               : 0.211 FPS2 a3 V$ j2 Y; f( k! j* R
Count of elements                        : 1190: p; I: H& r6 @+ n/ S& v
Stream size                              : 41.5 KiB (0%)6 w; w/ B6 s$ u* b
Title                                    : Roman?
0 D$ B% c$ {* {8 p* K* x' z' p- o% _Language                                 : Romanian5 J- e/ Q% [' y, q9 G
Default                                  : No. h7 s. E7 O1 x7 T
Forced                                   : No5 l: h1 d. z9 m& R- Z
# f; A4 l+ c+ c. @7 E1 F4 K  u
Text #26
6 G" y7 M' P! q# P" \ID                                       : 28
, Z5 q. F8 R5 _Format                                   : UTF-8+ A) Q# I- _7 ]
Codec ID                                 : S_TEXT/UTF8
3 ?- P& A) e( l$ O: L6 T" v/ `Codec ID/Info                            : UTF-8 Plain Text
0 w2 L. @5 F( {2 j" b2 }$ P8 ?Duration                                 : 1 h 34 min" A. }: M  ^7 d9 S" o) ~
Bit rate                                 : 88 b/s( c; n& ]& u, H# E9 A7 b0 ~
Frame rate                               : 0.224 FPS
; j4 W) i' }9 b1 w& ~$ d) c8 \% KCount of elements                        : 12675 r( ]# b7 ?6 F
Stream size                              : 61.2 KiB (0%)
/ U+ w" L: W9 B/ c( wTitle                                    : Русский
9 l" N( {, ^& D. t9 YLanguage                                 : Russian
& a1 H& e* j; `5 O! L$ P% m9 TDefault                                  : No3 U/ _9 E8 T: A. |) E4 b
Forced                                   : No
: `' i6 y/ _$ H: L- K1 {
, ~: r5 Q( _2 a* A5 dText #27! y( _! D& R! d
ID                                       : 29
" s) \4 j2 H! _/ [Format                                   : UTF-8$ L5 a' s# Q; k' n6 u
Codec ID                                 : S_TEXT/UTF8
6 }. j& t# k7 t- i' k* XCodec ID/Info                            : UTF-8 Plain Text9 r8 c* p' ^- _5 {4 `% B0 H7 P
Duration                                 : 1 h 34 min' ?1 {1 a0 ~8 F6 k. z& o- J
Bit rate                                 : 54 b/s5 }  H' L" j3 ]) C- r
Frame rate                               : 0.193 FPS
: X+ ?% K6 Q% vCount of elements                        : 1090" P4 w1 D! C9 l0 O( A2 U% `
Stream size                              : 37.4 KiB (0%)
7 W  R) B1 R( d* Y' }Title                                    : Svenska
# _, r% f6 j+ A( L3 i7 A7 e+ ~Language                                 : Swedish, M* b: B. m# G& B* }* P8 `! G* ?
Default                                  : No
( s( K) b$ S+ h& V' f" H3 n0 bForced                                   : No4 s# S/ g* T5 x( h+ ^7 X

  U' M5 T5 A/ L9 p( U5 \Text #286 j& F1 G7 A' _) D) o
ID                                       : 305 M; I3 }7 r2 v" }
Format                                   : UTF-8$ P. i2 k2 L  Q( W: X
Codec ID                                 : S_TEXT/UTF8
0 E) R0 ?3 O8 H8 NCodec ID/Info                            : UTF-8 Plain Text5 w  {$ l1 T" N0 [) z$ L3 w9 b
Duration                                 : 1 h 34 min- p7 S3 w' Y3 J$ O
Bit rate                                 : 145 b/s
2 P6 }) Q* z# e- O2 r, a5 ZFrame rate                               : 0.225 FPS
( g+ m* ^0 H0 [/ T  I' cCount of elements                        : 1273% R" f3 g; g) [9 u$ n! W8 u4 d
Stream size                              : 101 KiB (0%)
; h7 D& q3 \! b7 LTitle                                    : ???
; [" \4 d  J! L1 T5 i4 vLanguage                                 : Thai6 m2 E9 ?' X+ F, v! S
Default                                  : No
: S0 P4 j3 |6 |1 Z6 L4 q" PForced                                   : No# M2 y. w+ Y0 B  K4 o' Y! a
: |1 X: u9 \+ r; y. Z$ A0 r. s% V
Text #29
: e8 W+ H2 M0 O, a2 D9 k5 uID                                       : 31; N" e1 S, E. J6 p8 I  F
Format                                   : UTF-8
0 u/ ^& D1 [2 KCodec ID                                 : S_TEXT/UTF8( ?1 k2 B! j/ L* ?
Codec ID/Info                            : UTF-8 Plain Text3 t. D; s  I. C: W7 y, C
Duration                                 : 1 h 33 min, s$ g8 C  x' B
Bit rate                                 : 56 b/s
6 A3 o. n+ S! O6 ^- S4 X9 |Frame rate                               : 0.223 FPS
% T; R+ k- A# G1 uCount of elements                        : 1255" s+ K* Q3 F; z
Stream size                              : 38.9 KiB (0%)
. O' G$ \# j0 u& u/ l. nTitle                                    : Türk?e2 C1 N0 B/ f2 M1 q# e8 [8 U# m# w
Language                                 : Turkish* E% m8 R: c8 N0 p' C7 O
Default                                  : No
2 }' _& [4 C, |& Q& ^1 w2 UForced                                   : No* {: r# E0 y) Z$ e" P- M

$ ]2 c! K4 m2 p, KText #30
$ f, C  P) k8 TID                                       : 32
2 j3 O9 K* E& W5 O3 `Format                                   : UTF-8! E7 W9 h  ?) P" W& @+ x8 U9 n! d
Codec ID                                 : S_TEXT/UTF8
! t- f4 w& P; k3 S, v% {& tCodec ID/Info                            : UTF-8 Plain Text$ c+ _% S+ p+ [/ n! j
Duration                                 : 1 h 34 min- u$ d9 A+ J! q
Bit rate                                 : 99 b/s# X7 K' }# [7 ]2 H5 b) x( c% M# A
Frame rate                               : 0.235 FPS# R. {. ?5 e0 n3 o
Count of elements                        : 1331
8 b# U+ j% D4 z. ?3 X& }Stream size                              : 68.5 KiB (0%)( _: n" H: i% ^5 p
Title                                    : Укра?нська
+ Z- ~# u7 B: GLanguage                                 : Ukrainian
; \. t2 ~$ e1 q4 ^- h& BDefault                                  : No6 F. Q# }2 w! Y- b: U5 g( b
Forced                                   : No5 Z9 g3 E/ r0 _7 m8 N) s
% L- m( o% ~/ ~9 y' [2 _
Text #31
1 F7 w2 h% G" [0 z% ?8 F  B3 K0 ^ID                                       : 336 ]; I+ o, z8 S& m
Format                                   : UTF-8
3 S- _* l6 W7 {: MCodec ID                                 : S_TEXT/UTF8: B5 F  {. k- y1 V$ ^1 H8 y7 v
Codec ID/Info                            : UTF-8 Plain Text4 |. T# x. s# a3 d' w8 g
Duration                                 : 1 h 34 min2 w* M# f& r" u. V, N1 B! G
Bit rate                                 : 81 b/s
! _$ V5 E/ J4 B4 V6 q( i" k" }' ^Frame rate                               : 0.220 FPS
& _7 E8 A7 R9 X* {. R$ ZCount of elements                        : 1243* k$ E) D8 g6 a/ k! L3 U" b2 R, V: I$ J
Stream size                              : 56.4 KiB (0%)
: ]" M% ]9 A. g% |: sTitle                                    : Ti?ng Vi?t
  p$ ]( v+ _; V( x# X4 R" \  [Language                                 : Vietnamese
& j' M2 S+ b) `2 r# R' ^Default                                  : No
5 E( j' L/ Z# X3 ^4 }5 \  W9 y/ lForced                                   : No
/ {3 O* K# e# r8 o, R4 ~6 c4 F: E( n. _
1 {8 W6 V+ k' f0 t) pText #32
4 {/ r2 v( h9 h( j6 RID                                       : 34$ ~) K& A- X  D* a$ y' p4 S
Format                                   : UTF-8% d; ]. K# I0 p& N8 l
Codec ID                                 : S_TEXT/UTF8* R! \6 k9 h8 e* f( W; ~
Codec ID/Info                            : UTF-8 Plain Text
: {7 U2 w+ {" Q) S, U9 R1 cDuration                                 : 1 h 34 min
+ \8 y. A, Q0 ~- FBit rate                                 : 60 b/s
) A9 \: M/ l' ]Frame rate                               : 0.226 FPS
2 G) }4 B' G* {$ J* K2 OCount of elements                        : 1281
; g- ]$ q/ i: z( S- A7 `Stream size                              : 41.6 KiB (0%)
1 R3 n, [# ]2 C: {; i) G; mTitle                                    : 中文(简体)
+ o/ s: z' i! Z" cLanguage                                 : Chinese
" K6 Z1 [7 M7 b# Z- o$ XDefault                                  : No( |/ x% k# m" U/ j# t* ~4 x" K
Forced                                   : No
& k- s6 E4 l/ i  w. S6 g) @1 Z9 D; f
Text #33
5 J& h( ^% B0 n- `9 m' N6 o- m1 wID                                       : 35: l% V" s3 j2 r  k7 x9 }, t' L) m
Format                                   : UTF-81 E8 X5 I' J  C& I5 A3 Q' ^
Codec ID                                 : S_TEXT/UTF8
8 n$ x0 L; T8 b2 pCodec ID/Info                            : UTF-8 Plain Text
4 T0 ^1 {7 B" W& _" ?, pDuration                                 : 1 h 34 min
# C9 G* ]/ [& o! J; A6 BBit rate                                 : 56 b/s! `9 R, }4 u% H2 s" R  Z
Frame rate                               : 0.230 FPS  z2 o6 {$ j. j9 z" w
Count of elements                        : 1298
* B! C: G7 u9 W* T) ~. {Stream size                              : 39.0 KiB (0%)/ `' W8 z" F6 a# @" {" H, @7 ~
Title                                    : 中文(繁體)& @( ^( T& Z0 t7 ]
Language                                 : Chinese' O* P' g$ O9 f. k
Default                                  : No) \2 V9 g7 D8 m) N
Forced                                   : No
+ s" Q. d" f3 ^/ @$ v" N, i
/ ~) g4 s7 b" |% f) KMenu
3 x1 j  p0 d- I# z00:00:00.000                             : en:Chapter 01
2 @3 t' r; O6 O2 v% m: ?00:05:41.299                             : en:Chapter 02* _2 J! k" X8 `$ s
00:08:37.100                             : en:Chapter 031 V6 @( r* `) {/ [
00:13:42.405                             : en:Chapter 04
2 d! O# k. g7 J/ i9 ~2 Y6 ^00:18:20.558                             : en:Chapter 05
7 w. N9 N/ l) G% t2 ^00:23:15.185                             : en:Chapter 06, _0 u! x- |( r+ {2 P
00:28:14.610                             : en:Chapter 07# s! Z1 O* V% G& Z
00:35:13.028                             : en:Chapter 086 ^- P& X1 r, v  R% |7 y
00:40:35.850                             : en:Chapter 09
# r# `# s  m4 Q" x- L% a00:44:55.401                             : en:Chapter 10
8 [0 B6 M% X' p3 \- ]00:50:09.423                             : en:Chapter 11
; B4 V$ Q* Z; [8 Q2 P% D( w00:55:39.336                             : en:Chapter 12
: X- {: @( I( T9 I# W8 f9 n& [01:01:31.438                             : en:Chapter 136 z. l: l1 \) d4 a. `2 ^
01:06:13.386                             : en:Chapter 143 b( S! w5 h) B) v/ z- R# A
01:10:50.997                             : en:Chapter 158 y& ^+ m( e* Q: }8 w" v9 z* U
01:17:17.591                             : en:Chapter 16
# x6 k, b# }; N01:29:58.351                             : en:Chapter 17
! \7 x. P- a& v* h) X
游客,查看本帖隐藏内容请回复 | 加入VIP可免积分免回复 了解详情 | 还不是会员:点击获取邀请码 Invitation Code

本版积分规则

小黑屋|手机版|Archiver|4K蓝光论坛

GMT+8, 2024-3-5 06:04

Copyright © 2001-2021, Gadaddy Cloud.

快速回复 返回顶部 返回列表