BluRayCD Forum

 找回密码
 立即注册【分享大片】
查看: 12|回复: 1
收起左侧

[动漫动画] 夏日幽灵/夏日幻魂 Summer Ghost 2021 JAPANESE 1080p BluRaycd x264 DD5.1-SPiRiT 4.50GB

[复制链接]

1万

主题

1万

帖子

10万

积分

Post Share

金币
171 枚
体力
26705 点

卓越贡献勋章VIP黄金勋章诚信会员勋章

mvods 发表于 2022-8-12 04:36:38 | 显示全部楼层 |阅读模式
9 d& O- ]9 C, }% ~+ A% z

) c4 J7 W+ j" Y) F' B+ d9 t+ p% M' e◎译  名 夏日幽灵/夏日幻魂$ A9 q. q2 F/ p+ m0 C
◎片  名 サマーゴースト / Summer Ghost# H6 B! q5 M, V5 O8 G" I% ]% l
◎年  代 20213 x8 s( @7 \* F* ]: Z0 N' B9 f1 k* r
◎产  地 日本
4 N( Y" c0 e9 d$ M: S+ \◎类  别 剧情/动画/短片0 E- ?3 L, t4 N* U8 V5 h5 `
◎语  言 日语
$ X7 D# h" S6 ~. @: g  m◎上映日期 2021-11-12(日本)
/ Z6 r8 Q: ?6 i2 L" K: G' w0 [◎IMDb评分  7.1/10 from 465 users2 Z# Z( C# d4 o4 @
◎IMDb链接  https://www.imdb.com/title/tt15052770/
; Q1 C) \8 C, z! t' N◎豆瓣评分 8.1/10 from 7,173 users
  [; O7 \0 H  t6 T◎豆瓣链接 https://movie.douban.com/subject/35368245/5 M% v/ B8 Q* _2 w  c
◎片  长 39 min 53 s
, L+ `8 g0 l9 h5 P5 O! M◎导  演 Loundraw Loundraw9 s6 i; K, s5 X# V
◎编  剧 乙一 Otsuichi" T0 \; c: G' q/ `
       Loundraw Loundraw. F3 m: x/ \3 B* f& ?: ^) u2 ^
◎演  员 川荣李奈 Rina Kawaei' E( ]3 s: F( G" h0 S
       小林千晃 Chiaki Kobayashi" X) k* u( r8 i4 }7 s  h
       岛袋美由利 Miyuri Shimabukuro- X5 @0 G" Q8 [) T1 H0 Q& k/ r" i
       岛崎信长 Nobunaga Shimazaki
3 `1 w7 Y  k! l6 D# t& \+ u       本田贵子 Takako Honda# V" x' z% A, _( M2 f
       佐藤元 Gen Satou7 c# N1 e- H* M
       高桥大辅 Daisuke Takahashi
0 c0 y- E7 s4 _. l$ ?) [2 d' M       Loundraw Loundraw
* A& f* n7 S: P' s# I4 h' ]; U4 J- h! z0 i  H  E
◎简  介   . z# R* D. o7 `4 J' L" f4 G6 }( e6 F9 G: M

" |6 K1 }) k7 ?* u" n. v  “知道夏日幻魂吗?”通过网络相识的高中生,友也、葵、凉。据称,都市传说中被称作“夏日幻魂”的是一位年轻女性的幽灵,只要燃放烟花她就会现身。无法迈向心仪人生的“友也”寻找不到容身之处的"葵"美好未来不翼而飞的"凉"他们分别有着必须见到夏日幻魂的理由。在生与死交织的夏夜,三人各自的思虑会迈向何方呢——9 ^6 ~' r& }8 b) j( f, b4 p9 p

! m/ y, c7 q& q3 ~+ X! d" x  i  An urban legend speaks of a summer ghost, a spirit girl who appears when fireworks are set off.
  h2 o. x0 p8 K
Summer.Ghost.2021.JAPANESE.1080p.BluRayCD.x264.DD5.1-SPiRiT 4.50 GB
% N1 N- \# e  U$ f
; U% H4 j& t+ J) Y$ ~& IVideo4 A4 W. x' E& e; F- z" }7 h, E
ID                                       : 1' ]5 U$ o3 U8 h+ I0 l
Format                                   : AVC
0 V; z5 Q$ K8 ZFormat/Info                              : Advanced Video Codec4 H4 w' L" {) \2 @1 s+ E: V' s5 g9 b
Format profile                           : [email protected]4 i* r+ j, _6 N% S  e
Format settings                          : CABAC / 4 Ref Frames( _+ n! N1 X, Y& o% U3 s
Format settings, CABAC                   : Yes
* v5 K. L9 p5 E! LFormat settings, Reference frames        : 4 frames
7 d2 S& U9 D+ O( b8 `Codec ID                                 : V_MPEG4/ISO/AVC
" u. A- _: Y3 c- Q3 P& Y. CDuration                                 : 39 min 53 s# E$ \7 m; M. a- S: }0 p3 {+ K0 g
Bit rate                                 : 15.2 Mb/s+ |6 e( p. x$ N
Width                                    : 1 920 pixels4 {% A# j& C" G: u( ?) I
Height                                   : 1 080 pixels
& j# a) f( B3 v1 `Display aspect ratio                     : 16:9
* H# E; g; g8 s* vFrame rate mode                          : Constant2 g7 ?# N! {4 y" p) j
Frame rate                               : 23.976 (24000/1001/189150) FPS
4 X; T4 ~; |; uColor space                              : YUV
" X$ g& S  K  e( Q8 U" n4 DChroma subsampling                       : 4:2:0
& K& x2 v+ _+ X! u  NBit depth                                : 8 bits
0 e9 P& f* r$ oScan type                                : Progressive/ k7 ^$ ?* a% v5 |- P
Bits/(Pixel*Frame)                       : 0.3067 ]+ ^2 P& v6 j. o5 b# K, \
Stream size                              : 4.23 GiB (94%)
/ O0 Q9 S- {0 g! g5 _Writing library                          : x264 core 164 r3065 ae03d92
  L1 a3 ^( L2 p8 Z. ?; a2 sEncoding settings                        : cabac=1 / ref=4 / deblock=1:-3:-3 / analyse=0x3:0x133 / me=umh / subme=11 / psy=1 / psy_rd=1.00:0.03 / mixed_ref=1 / me_range=48 / chroma_me=1 / trellis=2 / 8x8dct=1 / cqm=0 / deadzone=6,6 / fast_pskip=0 / chroma_qp_offset=-3 / threads=12 / lookahead_threads=2 / sliced_threads=0 / nr=0 / decimate=0 / interlaced=0 / bluray_compat=0 / constrained_intra=0 / bframes=8 / b_pyramid=2 / b_adapt=2 / b_bias=0 / direct=3 / weightb=1 / open_gop=0 / weightp=2 / keyint=240 / keyint_min=24 / scenecut=40 / intra_refresh=0 / rc_lookahead=60 / rc=2pass / mbtree=0 / bitrate=15195 / ratetol=1.0 / qcomp=0.72 / qpmin=0 / qpmax=69 / qpstep=4 / cplxblur=20.0 / qblur=0.5 / vbv_maxrate=62500 / vbv_bufsize=78125 / nal_hrd=none / filler=0 / ip_ratio=1.10 / pb_ratio=1.10 / aq=3:0.88' h8 N9 v* h2 Y0 `; z
Default                                  : Yes
0 s! j! x0 r! S  lForced                                   : No
, ^$ W/ q% h, T. n, E" U1 AColor range                              : Limited* W5 u. [+ t! u# N$ o  m
Color primaries                          : BT.7096 N" ~: @* q8 C9 b
Transfer characteristics                 : BT.709
  k; L  u7 ~. O& C3 n4 `& {Matrix coefficients                      : BT.709' r3 p1 n2 p5 A- A2 H5 O
; Z  V, _/ h& Z* M: ?9 x+ {. l% L: u
Audio6 I( l# v; x( n8 f# C( @1 a7 Z8 O
ID                                       : 29 L& i$ z$ S+ w+ U5 ]5 E$ K. t
Format                                   : E-AC-3
6 s  |% D+ v/ }. g) I( D3 CFormat/Info                              : Enhanced AC-3
1 C  p& F" P5 g+ I, C# MCommercial name                          : Dolby Digital Plus& N" }* j: ]  X  G' C# i" a
Codec ID                                 : A_EAC3
* W8 }$ M* r3 b7 O6 q/ G$ }Duration                                 : 39 min 53 s
9 |% {* h: [, s5 f7 T7 @: DBit rate mode                            : Constant. v) o7 _5 |' c5 O7 B% I7 v. z0 {
Bit rate                                 : 960 kb/s
" W2 }9 [. n1 T. k9 t7 FChannel(s)                               : 6 channels3 P0 p+ ^7 w0 C4 l! B$ I/ X/ ^
Channel layout                           : L R C LFE Ls Rs+ x" g. l& }- I' ^  l
Sampling rate                            : 48.0 kHz
& b9 G! W, R1 bFrame rate                               : 31.250 FPS (1536 SPF)0 p0 I: i1 j& r7 h# }3 P
Compression mode                         : Lossy. J) P) h" e! W8 m8 F2 l# y1 S# q
Delay relative to video                  : -5 ms
$ ?. f, P4 h6 R+ ~" YStream size                              : 274 MiB (6%)/ D- L0 I0 e1 N6 [, r/ a! Y& v
Title                                    : Surround; H2 c: \. j4 ?  U# Z& C
Language                                 : Japanese
! p! Q: \$ U. g9 P3 UService kind                             : Complete Main5 a8 A' O- p1 f; K* ?) o
Default                                  : Yes
& e3 M- f1 a# F' T9 T# HForced                                   : No
; ~, i, A5 {0 X4 |0 X
6 O- L' c' p- E' F% yText* f3 G- b7 P* v3 b/ ?
ID                                       : 33 J" J5 X3 j# w( y  Y
Format                                   : UTF-8
0 O0 C  z( d7 n, I) ECodec ID                                 : S_TEXT/UTF84 w- ?$ ~( @2 j6 h1 Y) _& n! I
Codec ID/Info                            : UTF-8 Plain Text0 d0 y1 R0 `. s2 W* p: Q! g
Duration                                 : 36 min 20 s5 E/ j0 w( m2 w+ T
Bit rate                                 : 56 b/s2 c+ s+ O3 S& G! \- X
Frame rate                               : 0.245 FPS+ d6 u% J4 A2 [& J* O5 a
Count of elements                        : 534
: v  Z  A$ T+ c% {/ fStream size                              : 15.1 KiB (0%). y* ], b6 a% c; M
Language                                 : English
% R/ k! R, ~# ?& c/ E  X! `5 H% }Default                                  : Yes
6 p" s6 A9 C9 [Forced                                   : No: ?! u1 w% i: k+ d( A0 Y

. }! A4 c) @0 A3 `, qMenu
3 ^9 b. Y, G  Z6 c( }/ Q( {00:00:00.000                             : :Chapter 1
/ S% {+ [4 w  V# k) J! [6 Z  h) `00:00:19.019                             : :Chapter 2, {: \- q/ Q. {1 b' P# ?6 d9 N
00:08:40.520                             : :Chapter 3* [1 d3 c4 X( @  c. m% S6 M
00:20:07.707                             : :Chapter 4
( f# ], X+ u' t  U00:33:12.991                             : :Chapter 5

) ?$ V) y/ p5 a% m) }2 g
游客,查看本帖隐藏内容请回复 | 加入VIP可免积分免回复 了解详情 | 还不是会员:点击获取邀请码 Invitation Code

0

主题

594

帖子

2286

积分

Sponsor

金币
31 枚
体力
970 点

签到达人勋章

QQ
jiyugen8180 发表于 2022-8-12 23:10:15 | 显示全部楼层
每天都来蓝光论坛看看,我爱蓝光电影。% {' N. G; C; j( ~1 O+ @
Blu-ray Film Forum is now my home!$ L- F7 W4 s5 N3 B! `3 l8 w6 F

本版积分规则

小黑屋|Archiver|4K蓝光论坛

GMT+8, 2022-12-4 09:14

Copyright © Tencent Cloud.

快速回复 返回顶部 返回列表