BluRayCD Forum

 找回密码
 立即注册【分享大片】
查看: 17|回复: 2
收起左侧

[动作战争] 至高罪行 Betrayed 2020 NORWEGIAN 1080p BluRaycd x264 DD5.1-HANDJOB 9.85GB

[复制链接]

1万

主题

1万

帖子

12万

积分

Post Share

金币
24869 枚
体力
26199 点

卓越贡献勋章

mvods 发表于 2022-8-12 07:33:51 | 显示全部楼层 |阅读模式

. O0 }! ~9 d" g$ }0 f3 L3 w, X  G
3 q3 z9 B6 c4 y3 @! x. G* S◎译  名 至高罪行
* n) k2 x2 A+ |: {◎片  名 Den største forbrytelsen / Betrayed
7 k# v  G9 V' Q◎年  代 20201 ]9 D! y, c# _: L) z- X
◎产  地 挪威
& y$ h( h9 u+ t. v: N" i. q◎类  别 剧情/战争2 {, o1 r* \) l1 t; V
◎语  言 德语/希伯来语/挪威语
% I6 s/ z4 \8 j& k◎上映日期 2020-12-25(挪威)
! q) _' `+ {1 t! H◎IMDb评分  7.1/10 from 1,410 users
; u, P6 i4 `$ F2 c+ ?◎IMDb链接  https://www.imdb.com/title/tt11390442/; h! b5 w$ l' r. U
◎豆瓣评分 0/10 from 0 users
7 |" E5 `5 x: G7 ]: g- H◎豆瓣链接 https://movie.douban.com/subject/34923303/7 P* r, j/ |, \0 e* x) O% y- K* e* s
◎片  长 2 h 6 min
* f. N+ m5 J3 ?$ ]1 P◎导  演 埃里克·斯文森 Eirik Svensson
1 q) A- k( a  _& R◎编  剧 哈拉尔·罗斯诺瑙·艾格 Harald Rosenløw-Eeg
6 H) ~( s8 c: L4 T2 N7 [       拉尔斯·古默斯塔 Lars Gudmestad0 D8 m0 Y2 {  s9 @
       玛特·米歇尔 Marte Michelet% j! _3 G+ P6 P$ S2 s
◎演  员 Johannes Blåsternes* O; I9 R/ n3 Q+ U+ i$ E- X
       尼克莱·克莱夫·布洛奇 Nicolai Cleve Broch. p9 r9 h- Q7 N
       Bjørnar Bruun* S* B8 i- Z/ w! ~( w
       Axel Bøyum5 I/ J9 o/ {0 k* N/ c- d
       Kent Dahlgren
6 D0 u* L7 L) _* @. t: i* k6 C, `       安德斯·丹尼尔森·李 Anders Danielsen Lie9 }8 t5 z7 {# g. E3 h! U: c4 k
       雅各布·奥福特布罗 Jakob Oftebro
+ f- A. h+ J0 A, ]$ f' X$ [7 d       西莉亚·史都斯坦 Silje Storstein) g! ?+ B7 J7 N/ g7 o/ f
       卡尔·马丁·厄格斯玻 Carl Martin Eggesbø: ?( V* \6 S5 ^4 S& C3 b8 F
       Hanna-Maria Grønneberg
3 u  J& I$ B+ m2 Q0 T9 ?       皮娅·哈尔沃森 Pia Halvorsen/ l& G1 }, {6 ?3 h2 R1 D
       艾利夫·哈特维格 Eilif Hartwig, p; `8 O* S8 C2 K4 f+ A* l
       米凯利斯·库佐吉亚纳基斯 Michalis Koutsogiannakis
. t# u9 i+ B1 V7 ?" Y) X       Joel Kullberg! K# E! R; _2 C7 t3 @$ x! w
       Inga Ibsdotter Lilleaas% D  ?( y& t) @  G, _
       Øyvind Mørk
5 c( j. k$ X  s! Z" q8 O5 d9 M8 Z       Pål Anders Nordvi
) s+ I8 C9 `7 f' a0 B       Mads Ousdal" ?$ G% h! J. e6 |! m6 V, m5 T
       Robert Skjærstad: m5 g' A/ R: L) ]& X
       克里斯汀·库亚斯·托普 Kristine Kujath Thorp
$ ]1 H8 m$ [+ t8 `
6 A' ?  D- e5 k' g  R; @◎简  介
0 c$ p+ j& T0 R; T4 B- m/ m4 U- E
% D! F) G5 Z# ?5 k  B" F; Q  第二次世界大战期间,来自欧洲各地的数百万犹太人被驱逐出境,并在德国集中营被杀。当德军入侵挪威时,挪威犹太人感到安全和受到保护。但是反犹太主义无国界,随着战争在欧洲的升级,情况发生了巨大变化。突然,他们的收音机被带走了。他们的护照上盖有大J,一天,所有15岁以上的男子都被捕并带到监狱营地。许多留守的妇女太害怕了,无法逃脱,他们拼命地等待着自己的丈夫和儿子回家。 1942年11月26日,深夜,警察逮捕了数百名犹太人,并将其运送到奥斯陆的码头。被迫等待的德国货船“ SS DONAU”上不知所措且受惊的男人,女人,儿童,病人和老人。船上有532名挪威犹太人离开; 302名男性,188名女性和42名儿童。终点站是奥斯威辛集中营。, U3 L1 |; A. }( L
6 j* i1 o7 U0 _" |& b: N8 O
  We follow the Jewish Braude family's experiences when the Jews are arrested and deported from the camp Berg, on the ship Donau and down to the extermination in the concentration camp in Auschwitz.
" a0 X& X; D4 s2 p" ]
Betrayed.2020.NORWEGIAN.1080p.BluRayCD.x264.DD5.1-HANDJOB 9.85 GB
) [9 N1 o  A" a, j% i. @- u% B4 t! `3 s
! z! K1 O) w6 {1 A* J' q' q9 n  XVideo
7 M( e& q& b. A3 L3 O# _ID                                       : 1
5 O* ]; x! B; IFormat                                   : AVC
$ o; ^1 A# E- AFormat/Info                              : Advanced Video Codec
3 a  d( O( y) h3 x  tFormat profile                           : [email protected]. j, {/ J, T; E1 o- b
Format settings                          : CABAC / 4 Ref Frames& J* e, G* k2 T# w
Format settings, CABAC                   : Yes
7 q. ~0 J- x. Q1 J0 J% XFormat settings, Reference frames        : 4 frames- T1 f' e8 C, {: h! ?8 D
Codec ID                                 : V_MPEG4/ISO/AVC3 p; b; I9 s- J) b' r$ b. _7 L
Duration                                 : 2 h 6 min/ D  Q/ K" r% m
Bit rate                                 : 10.5 Mb/s' C' S* R8 O9 ^- q/ z) E5 K# @
Width                                    : 1 920 pixels" ^( ]. e1 l5 P" t; v
Height                                   : 1 036 pixels1 s2 `" [( z! N+ I1 i
Display aspect ratio                     : 1.85:1# @! c  e" k5 D) f: ?4 B/ q
Frame rate mode                          : Constant5 v0 A( I8 }. ]6 L& @4 I: F
Frame rate                               : 24.000 FPS6 b& p) Z* ]# I' Q
Color space                              : YUV( M: ~# z; V9 w4 x# S0 [
Chroma subsampling                       : 4:2:0
. [1 V* c- K  d: d! x  c6 QBit depth                                : 8 bits6 M0 t* y8 \7 t1 X* ^4 \
Scan type                                : Progressive/ P* Y# s8 U  l( r( f8 S9 q0 y5 s
Bits/(Pixel*Frame)                       : 0.220+ u# r( [. Z* F2 X7 u$ s7 Y
Stream size                              : 9.27 GiB (94%)
& ^' P9 e0 g+ R2 i2 A4 e( L' c8 tWriting library                          : x264 core 164 r3065 ae03d920 B. m1 f" v- ^
Encoding settings                        : cabac=1 / ref=4 / deblock=1:-3:-3 / analyse=0x3:0x133 / me=umh / subme=10 / psy=1 / psy_rd=1.00:0.00 / mixed_ref=1 / me_range=32 / chroma_me=1 / trellis=2 / 8x8dct=1 / cqm=0 / deadzone=21,11 / fast_pskip=0 / chroma_qp_offset=-2 / threads=18 / lookahead_threads=4 / sliced_threads=0 / nr=0 / decimate=0 / interlaced=0 / bluray_compat=0 / constrained_intra=0 / bframes=16 / b_pyramid=2 / b_adapt=2 / b_bias=0 / direct=3 / weightb=1 / open_gop=0 / weightp=2 / keyint=240 / keyint_min=24 / scenecut=40 / intra_refresh=0 / rc_lookahead=60 / rc=crf / mbtree=0 / crf=20.0 / qcomp=0.60 / qpmin=0 / qpmax=69 / qpstep=4 / vbv_maxrate=62500 / vbv_bufsize=78125 / crf_max=0.0 / nal_hrd=none / filler=0 / ip_ratio=1.40 / pb_ratio=1.30 / aq=2:1.00/ L+ A* v6 k/ A$ V5 Z- \- p9 X4 w% H
Default                                  : Yes
- A! i0 @# U. E( NForced                                   : No+ j7 B4 \7 B4 V" S' v6 ^( j
Color range                              : Limited$ \2 X2 f" J! s! u* E
Color primaries                          : BT.709
/ |3 p3 z& c9 e" l' ^, D3 ~Transfer characteristics                 : BT.709$ b0 x. k/ B; @0 u0 k8 ^3 w
Matrix coefficients                      : BT.709' |$ [# _& _! T0 i
. u5 ^2 P5 d) M1 w) e# }
Audio+ u0 ^) @3 o0 a, _6 T
ID                                       : 2
) H$ F$ o& u& t8 gFormat                                   : AC-3
( h5 v( W: K" e4 S& R" L; UFormat/Info                              : Audio Coding 3
& `! a3 x) z) oCommercial name                          : Dolby Digital# d3 ^- u2 x; l5 g. G0 y  b( `
Codec ID                                 : A_AC3( k2 a' L8 b% V0 R" i9 a" a( K
Duration                                 : 2 h 6 min% R4 a  [2 s) _0 f8 @: a
Bit rate mode                            : Constant; t* H5 n) s$ N& W9 T1 T
Bit rate                                 : 640 kb/s
, m/ I% K; y6 yChannel(s)                               : 6 channels# ?8 z$ l4 a! A1 Q1 ^) Y8 K+ P
Channel layout                           : L R C LFE Ls Rs
) i/ A4 q7 x" F. ASampling rate                            : 48.0 kHz& ~, W7 T( y( i' t/ W
Frame rate                               : 31.250 FPS (1536 SPF)
7 F! m7 n5 N1 ECompression mode                         : Lossy7 h; V8 Y% S! P, g, L) T& J# U
Stream size                              : 579 MiB (6%)
* j# a# p3 F8 XLanguage                                 : Norwegian
, _4 t& {$ g8 XService kind                             : Complete Main+ D# E" O0 y9 H0 {" c  x# v5 M
Default                                  : Yes
6 [  a# j# i% m8 q& O8 e8 DForced                                   : No. x$ c2 [5 C, {. s* g2 b# S. q! q
# F2 A4 `" q% s& z; o7 q% I8 a, J
Text #1
1 u$ e+ D% z" @8 yID                                       : 3( ^. {# \5 `% c0 R% @' c* B
Format                                   : UTF-8
6 A* Z7 w6 f2 T8 g5 u9 k6 }Codec ID                                 : S_TEXT/UTF8: K% A9 \* P! L$ ~% e5 A
Codec ID/Info                            : UTF-8 Plain Text
6 R" {. e* h0 o; u7 ADuration                                 : 1 h 57 min
& U+ g, g$ ^  p" @& h/ _4 p- m( S' v% NBit rate                                 : 28 b/s0 x  h- S* p' [3 c. r' ?
Frame rate                               : 0.138 FPS4 E0 I. {; z/ f/ B, t- C
Count of elements                        : 976$ G8 Q; S4 j- ^* Z; U# |
Stream size                              : 24.8 KiB (0%)2 T/ D: K4 \4 ?/ W6 z! \2 c
Language                                 : English, p* y  C' {9 P$ y
Default                                  : Yes
$ w" L% l% [! p2 D; `Forced                                   : No
9 I+ X: G9 P2 Y! L& j/ P+ V' i
9 e2 y# L# s3 P5 J, o' E! OText #2; N' s+ @: Y6 |7 s* F) O
ID                                       : 4
& d& D9 d9 U6 y( ~" SFormat                                   : PGS
  V& G' R2 D- F, ?5 HMuxing mode                              : zlib
0 q* ^& D3 @2 u9 d1 u" K& U# l$ [Codec ID                                 : S_HDMV/PGS5 y, m' r% o  |6 O! z" J
Codec ID/Info                            : Picture based subtitle format used on BDs/HD-DVDs! E! T) U6 D; [3 K3 C! l: y, }
Duration                                 : 2 h 4 min8 K# z- |+ U% }, `4 k5 m
Bit rate                                 : 15.3 kb/s* p, {* N* K1 j+ b+ {5 j! |
Frame rate                               : 0.213 FPS/ H  M+ R$ g+ P' Q
Count of elements                        : 1588
. d- m/ \) |  c% |- n% mStream size                              : 13.5 MiB (0%)
' Z8 ]/ J2 b# B) qLanguage                                 : Norwegian
- g# c* m( r/ {# ]Default                                  : No. y$ z: c! Y  u4 J; N
Forced                                   : No
' N/ v3 C0 r5 @3 w. {- \% d& b6 k  {9 N1 w
Text #33 A8 N' M" a$ B& q
ID                                       : 5
. ?; }* T" q3 }. C; V3 CFormat                                   : PGS0 K7 z9 A( G6 e
Muxing mode                              : zlib. i0 _0 _; _' L3 C
Codec ID                                 : S_HDMV/PGS+ R& p, s: `0 f! ^
Codec ID/Info                            : Picture based subtitle format used on BDs/HD-DVDs
' t! h- y  u- }9 n. S. N, b2 WDuration                                 : 2 h 4 min, N0 }$ @0 X0 d" l& Y- F2 o
Bit rate                                 : 15.6 kb/s
! z) X2 [  M; Y7 d' a2 cFrame rate                               : 0.220 FPS
: A% h* a8 \: F9 uCount of elements                        : 16361 @" s9 o! ]4 e
Stream size                              : 13.8 MiB (0%)
$ f6 E- g6 `8 f+ }Title                                    : Hard of hearing; a# }6 Z3 X$ C) B
Language                                 : Norwegian
) n. _4 A$ g- q4 NDefault                                  : No
& x; |0 |0 j8 ?8 {# k/ [; ZForced                                   : No
/ R- ]  y- Y- l& y3 X5 t/ R
! U7 o% u6 Z  k# G( X8 T1 nMenu
! p; b2 a5 j9 O2 X  n00:00:00.000                             : :Chapter 1
7 y  m8 |- k* f/ `  t/ A00:09:59.708                             : :Chapter 29 G" u1 n) y1 n8 L; m
00:19:59.833                             : :Chapter 3/ j& f0 F" |7 E; l: _" g4 l
00:29:59.583                             : :Chapter 4
- ~0 `( S( w: g. P* B0 t00:39:59.833                             : :Chapter 5
6 Y; t% \8 _1 \0 r8 q00:49:59.875                             : :Chapter 6
6 S8 g& s' i& Q. j0 T) _& U' q& M00:59:59.583                             : :Chapter 7
: c9 v- O5 M' B& Q6 s# {. B01:09:59.833                             : :Chapter 8; P% f- {9 R/ Q4 s+ j
01:19:59.542                             : :Chapter 9
: R$ a- E! I0 v: O4 [# h6 R01:29:59.833                             : :Chapter 10# X3 l8 V; H2 S! j. k. o( K
01:39:59.875                             : :Chapter 11( S" ]. M3 Q. I9 \9 W" c$ Q
01:49:59.833                             : :Chapter 12
3 @' f- y% g) V$ O. Q01:59:59.792                             : :Chapter 13
3 N- t' t! }9 E: G. c( v' ~
游客,查看本帖隐藏内容请回复 | 加入VIP可免积分免回复 了解详情 | 还不是会员:点击获取邀请码 Invitation Code

0

主题

59

帖子

395

积分

Sponsor

金币
59 枚
体力
216 点
QQ
一见哈哈笑 发表于 2022-8-12 21:50:00 | 显示全部楼层
二战题材的影片有价值观看。

0

主题

970

帖子

3796

积分

Sponsor

金币
235 枚
体力
1623 点
zzk980220 发表于 2022-8-13 18:42:38 | 显示全部楼层
每天都来蓝光论坛看看,我爱蓝光电影。
' z% z- w- h$ Q9 I4 M- qThe decisive Replies sink is I get the sinking feeling great sense of accomplishment!0 R, ?8 F9 K  i8 [- G" t( m

本版积分规则

小黑屋|Archiver|蓝光电影资源网

GMT+8, 2022-9-29 21:48

Copyright © Tencent Cloud.

快速回复 返回顶部 返回列表