BluRayCD Forum

 找回密码
 立即注册【分享大片】
查看: 14|回复: 2
收起左侧

[动漫动画] 诺亚方舟漂流记/诺亚方舟:幸存的家伙们/诺亚方舟大冒险 All Creatures Big and Small 2015 1080p BluRaycd x264 DTS-FGT 7.24GB

[复制链接]

1万

主题

1万

帖子

10万

积分

Post Share

金币
171 枚
体力
26705 点

卓越贡献勋章VIP黄金勋章诚信会员勋章

mvods 发表于 2022-9-1 04:05:00 | 显示全部楼层 |阅读模式

/ x% A& g& o: f- P2 e% k6 B$ P' x% u+ i1 _( \5 D
◎译  名 诺亚方舟漂流记/诺亚方舟:幸存的家伙们/诺亚方舟大冒险" @8 I8 E- m4 O: _4 d
◎片  名 Ooops! Die Arche ist weg... / Ooops! Noah is Gone..." R/ C3 Z2 u5 \1 A$ ^
◎年  代 2015
& S- e8 M7 R9 V◎产  地 德国/比利时/卢森堡/爱尔兰
% q2 M  P- n# w+ m◎类  别 喜剧/动画/冒险
9 i  E9 y1 ~8 G- l◎语  言 英语  S  ?' h: q; P" E$ `2 i2 u
◎上映日期 2016-08-12(中国大陆)/2015-05-01(爱尔兰)
) J' P. Y. v' f9 [; o% H) I◎IMDb评分  5.8/10 from 4,739 users$ J8 U, N% M* m1 p
◎IMDb链接  https://www.imdb.com/title/tt3411432/
2 O2 t  N" r+ b: m+ e3 O  F; b" u% A% b5 A◎豆瓣评分 7.4/10 from 5,255 users) I% ?2 \1 ?; E9 b) {" y
◎豆瓣链接 https://movie.douban.com/subject/26359269/+ @! h7 Z( l8 W3 p3 Y
◎片  长 1 h 26 min
1 h3 S) r* ?& y% O( h# J- p+ k◎导  演 托比·格恩科尔 Toby Genkel
( R% v4 h! I# E8 i) J" N       肖恩·麦克科马克 Sean McCormack7 Z/ _" q5 R6 H" ~, p; r, s2 ~' t
◎编  剧 里奇·康罗伊 Richie Conroy 4 i% k8 J! Q, i+ B0 b
       托比·格恩科尔 Toby Genkel
0 ?) L; o7 g4 ]/ }" d       马克·霍德金森 Mark Hodkinson + U1 h0 O; X; Y
       马丁内·托雷松 Marteinn Thorisson
9 B+ l& ~7 D3 F* A◎主  演 卡勒姆·马洛尼 Callum Maloney
" V7 ~, Q) I3 }6 Q$ r       克里斯蒂安·乌蒙 Christian Ulmen8 C" M. }; V, u; a
       艾娃·康纳利 Ava Connolly
0 N/ f! t, s& R% r1 h3 e( N       塔拉·弗林 Tara Flynn
0 b( z2 @$ ]: p8 C       马丁·辛 Martin Sheen7 y4 Z& z2 q. b: k$ {$ J( s$ S
       卡蒂娅·里曼 Katja Riemann: U8 j7 R, x. L# v$ f
       艾琳·米森 Aileen Mythen
1 c# {8 J& u' U. q- ]( S       卡拉·贝克尔 Carla Becker
! Q, T: o' S' G' x" s' @       洛塔·多尔 Lotta Doll& q8 N. l/ d! N$ x$ b6 R4 S8 E$ F1 _
       蒂娜·埃施曼 Tina Eschmann
& F) m: O# H" }$ {9 C! ?       帕特里克·菲茨蒙斯 Patrick FitzSymons8 l* k: X* }  k3 N  A" L
       德莫特·莫根尼斯 Dermot Magennis
  H6 B1 m7 L: P# |; ]       Tara Flynn
* ]! z/ t1 g4 r9 g
  `* A) v( W. E2 N◎标  签 动画 | 冒险 | 喜剧 | 温情 | 德国 | 成长 | 2015 | 奇幻- \8 O1 u, f4 [+ I# O- u

  ]( r3 u" _- q9 L◎简  介     }! ^) R# |5 V

/ S; s  Y/ b4 f& n8 `$ U  世纪之末,一场突如其来的洪水即将席卷Griffin岛。动物们在狮子领袖的带领下登陆一艘空前绝后的大船——诺亚方舟,不过不是所有动物都可以登上方舟。戴夫和芬尼是对呆萌可爱的喜欢旅行的父子俩,由于未在名单内,父子俩被禁止登陆方舟。为了躲避洪水,父子俩只好乔装打扮成小金狼 ,混上了方舟。却乌龙巧合的遇到了金狼母女海泽尔和利亚。好不容易蒙混过关,以为已相安无事,但两个好奇的小宝贝却不慎跌出船外。于是,芬尼和利亚开始了一场寻亲之旅。期间,两个孩子从冤家变成朋友,用勇气和友情战胜洪水和野兽的袭击。与此同时,戴夫和海泽尔为了营救他们的孩子也在和傲慢的狮子船长斗智斗勇……5 h5 X5 I5 T5 z( ^' ~  r+ i  F- w

2 k9 Q- S- a% H  It's the end of the world. A flood is coming. Luckily for Dave and his son Finny, a couple of clumsy Nestrians, an Ark has been built to save all animals. But as it turns out, Nestrians aren't allowed. Sneaking on board with the involuntary help of Hazel and her daughter Leah, two Grymps, they think they're safe. Until the curious kids fall off the Ark. Now Finny and Leah struggle to survive the flood and hungry predators and attempt to reach the top of a mountain, while Dave and Hazel must put aside their differences, turn the Ark around and save their kids. It's definitely not going to be smooth sailing.
& a5 {6 {4 M  k* u# k
All.Creatures.Big.and.Small.2015.1080p.BluRayCD.x264.DTS-FGT 7.24 GB1 \+ Z5 ^5 `1 q
- A5 p- {5 Q$ n8 n5 W% X
Video
/ a6 R# l; z$ Q8 x$ M4 J8 g3 \5 YID                                       : 11 y" M& C: k" X2 E- _0 \( T
Format                                   : AVC4 V* r2 \9 B7 G8 C. C
Format/Info                              : Advanced Video Codec9 S8 P( \* L! I. R6 s
Format profile                           : [email protected]$ V3 Q" c8 a6 r4 n$ l. y. P( X
Format settings                          : CABAC / 4 Ref Frames' R& L) N( g" y0 u
Format settings, CABAC                   : Yes, }4 s8 L8 f7 ?
Format settings, Reference frames        : 4 frames
* y. X4 K1 y* q: ]. @Codec ID                                 : V_MPEG4/ISO/AVC
% {6 w, w( B0 ?  u( m2 CDuration                                 : 1 h 26 min) g3 y: M2 o1 O' M8 w+ H
Bit rate                                 : 11.5 Mb/s8 M" a  Q7 y5 e& A
Width                                    : 1 920 pixels
) ^7 G  E2 w, ^# e9 UHeight                                   : 1 036 pixels
# W9 x4 G' B- M8 L* l( lDisplay aspect ratio                     : 1.85:1% z( W4 y$ k) A- r7 c5 F8 v
Frame rate mode                          : Constant& Q! |8 G' }$ B3 b& i" ], ^
Frame rate                               : 24.000 FPS0 C+ \& O) I9 U6 G4 }$ o8 _; h: ?! l7 E( J
Color space                              : YUV
8 F( T4 a* J/ @0 a0 HChroma subsampling                       : 4:2:0& j8 q/ V6 e& u4 H0 i5 T
Bit depth                                : 8 bits
% G2 n+ _, |3 _1 l& I$ ?Scan type                                : Progressive
2 m) p% d  W/ [Bits/(Pixel*Frame)                       : 0.2412 _) V3 e" N  ~( q
Stream size                              : 6.63 GiB (92%)( a8 E' A! y! z/ G( D- u% y
Title                                    : All.Creatures.Big.and.Small.2015.1080p.BluRaycd.x264.DTS-FGT
9 I# D% q0 D) M" vWriting library                          : x264 core 142 r2495 6a301b6
9 U' G8 v6 j6 E6 `! e" X% Q: hEncoding settings                        : cabac=1 / ref=4 / deblock=1:-2:-2 / analyse=0x3:0x113 / me=umh / subme=7 / psy=1 / psy_rd=1.00:0.15 / mixed_ref=1 / me_range=16 / chroma_me=1 / trellis=1 / 8x8dct=1 / cqm=0 / deadzone=21,11 / fast_pskip=1 / chroma_qp_offset=-3 / threads=12 / lookahead_threads=3 / sliced_threads=0 / nr=0 / decimate=1 / interlaced=0 / bluray_compat=0 / constrained_intra=0 / bframes=5 / b_pyramid=2 / b_adapt=2 / b_bias=0 / direct=3 / weightb=1 / open_gop=0 / weightp=2 / keyint=250 / keyint_min=25 / scenecut=40 / intra_refresh=0 / rc_lookahead=50 / rc=abr / mbtree=1 / bitrate=11500 / ratetol=1.0 / qcomp=0.60 / qpmin=0 / qpmax=69 / qpstep=4 / vbv_maxrate=31250 / vbv_bufsize=31250 / nal_hrd=none / filler=0 / ip_ratio=1.40 / aq=1:0.60
2 h5 P6 C/ ]7 _Language                                 : English" h9 P! f& }, W2 K" v
Default                                  : Yes
1 k8 _! |; {6 K4 j: x( u0 L- qForced                                   : No# x0 k: J: @, k( z6 Q

$ \& [/ o7 I" R4 e  D, qAudio8 K: `0 T- _" ~" e# f
ID                                       : 2
( m8 T2 e8 x5 {% r- q9 RFormat                                   : DTS* ]8 b# t* b" F7 h9 v; o" b9 h
Format/Info                              : Digital Theater Systems5 y; Y) r+ K/ m, B- w: a
Codec ID                                 : A_DTS
6 r6 G( p# `) m/ r+ X! b0 kDuration                                 : 1 h 26 min5 j: y2 k# `4 A# H6 R6 Y
Bit rate mode                            : Constant
' ]0 c. }% B9 r; L& C  xBit rate                                 : 768 kb/s* S. @# I2 k$ k4 v4 u
Channel(s)                               : 6 channels
' ?+ x+ Y8 W7 n% y) TChannel layout                           : C L R Ls Rs LFE
, \, N$ F* \" o9 \# q6 ]Sampling rate                            : 48.0 kHz. ^( I- P6 d7 _1 I
Frame rate                               : 93.750 FPS (512 SPF)9 s5 R! t8 A2 k( D3 D
Bit depth                                : 24 bits
0 Z5 x* ^! `) W" ~3 Z: fCompression mode                         : Lossy' U* \* J( ]9 U
Stream size                              : 475 MiB (6%)% g  `9 K  Q5 J( K$ s; p
Title                                    : All.Creatures.Big.and.Small.2015.1080p.BluRaycd.x264.DTS-FGT
" \; m4 V# z7 X0 h7 V3 \- tLanguage                                 : English/ |+ Q9 Z+ e: K/ {0 O
Default                                  : Yes
: p# h7 C7 s3 w1 n# V  ZForced                                   : No) `( `; S$ ~1 b* c
2 w) p0 d' N9 R0 u$ H/ r7 N
Menu* q1 t- c1 {, o: _8 W! _. ]  e
00:00:00.000                             : en:00:00:00.000
) A: y- c/ b% U( c# y! K* t00:11:23.666                             : en:00:11:23.667
0 O3 \4 \% |' Z; m00:23:23.375                             : en:00:23:23.375
/ N! p  t) t" {; b1 J00:33:47.750                             : en:00:33:47.7507 @5 ?- u6 J! F& b$ f
00:44:26.333                             : en:00:44:26.3334 N* ~! J  [  O/ \2 b, |
00:54:39.666                             : en:00:54:39.667
3 T7 Q0 ~8 v+ g' `01:06:37.333                             : en:01:06:37.333
! @) ?$ o0 l9 c# `4 ^; \: U, }01:17:07.958                             : en:01:17:07.958
9 E" ~+ S- A2 [8 w6 @7 P/ u) o& `
游客,查看本帖隐藏内容请回复 | 加入VIP可免积分免回复 了解详情 | 还不是会员:点击获取邀请码 Invitation Code

3

主题

601

帖子

2565

积分

Sponsor

金币
588 枚
体力
874 点
211 发表于 2022-9-1 11:03:42 | 显示全部楼层
这么好的帖子不回对不起自己!. i1 O# J3 m' n2 }/ c
要想蓝光电影论坛发展好,资源多,就靠你我他!To the development of Blu-ray movies forum, resources and more depend on you and me!% E! p- [& V$ h  Y, g8 B

0

主题

594

帖子

2286

积分

Sponsor

金币
31 枚
体力
970 点

签到达人勋章

QQ
jiyugen8180 发表于 2022-9-2 21:12:47 | 显示全部楼层
每天都来蓝光论坛看看,我爱蓝光电影。: X% s8 o- l! I: {9 n
Blu-ray Film Forum is now my home!6 _- h5 g0 e9 h. j( W

本版积分规则

小黑屋|Archiver|4K蓝光论坛

GMT+8, 2022-12-4 09:15

Copyright © Tencent Cloud.

快速回复 返回顶部 返回列表