BluRayCD Forum

 找回密码
 立即注册【分享大片】
查看: 16|回复: 0
收起左侧

[动漫动画] 蓝色能量:青凪大学体育会航空部 Blue Thermal 2022 JAPANESE 1080p BluRaycd x264 DD5.1-HANDJOB 7.24GB

[复制链接]

1万

主题

386

回帖

10万

积分

Post Share

金币
394 枚
体力
27013 点

卓越贡献勋章VIP蓝光勋章诚信会员勋章

mvods 发表于 2022-9-11 12:58:09 | 显示全部楼层 |阅读模式

. r  I: u& g1 {0 c' N8 H- R( R* x/ x6 z/ E& G. @* o1 b
◎译  名 蓝色能量:青凪大学体育会航空部 ( ]6 h; h5 }2 D1 `8 w, X  F9 {4 y
◎片  名 ブルーサーマル  / Blue Thermal: Aonagi University Sports Association Aviation Club/ h1 h7 u1 H) g- W8 Z
◎年  代 2022
" h/ g( d# G) L7 Z$ R◎产  地 日本+ d" R) z; I+ |2 F  F8 t* G6 L
◎类  别 动画/爱情
! a: H% A4 M4 m) Y: |- C% Z◎语  言 日语: B9 y( r5 _* O6 E: y$ G
◎上映日期 2022-03-04(日本)
3 ~# I! b" U4 [; I2 z: K- \: d: `: K3 I◎IMDb评分  6.9/10 from 81 users
! U9 E" C" K8 X0 |$ X" Y◎IMDb链接  https://www.imdb.com/title/tt15304756/
8 r. P/ \- \: C+ V7 D% U◎豆瓣评分 7.0/10 from 122 users
( n* B8 b" S% P5 V% k4 o◎豆瓣链接 https://movie.douban.com/subject/35577440/
, ?0 n& Q- W9 p7 z◎片  长 1 h 43 min
( k( z2 G4 r3 E1 M◎导  演 橘正纪 Masaki Tachibana- B, H. }& z8 w! B/ ^
◎编  剧 橘正纪 Masaki Tachibana
: O$ C. p' {& L+ J       高桥奈津子 Natsuko Takahashi# M2 O+ e; q) b0 I" @. Q
◎演  员 堀田真由 Mayu Hotta* v3 T% X; B7 _+ u2 X
       岛崎信长 Nobunaga Shimazaki
- H% I$ m( `4 u/ x       榎木淳弥 Junya Enoki, r' @2 u9 z, _# E& \) l# \) R& a
       小松未可子 Mikako Komatsu3 X1 h3 @0 k, ]7 T, v! v
       小野大辅 Daisuke Ono, b2 i: A% x: c3 E1 H
* t( P- K9 t! m0 n
◎简  介   
3 H( U! c( `9 h( O0 ?
8 B7 v0 U* N) B$ j$ m* I  故事讲述了因为滑翔机运动而聚集在大学体育会航空部的一群少男少女们,以航空协会为舞台上演的一出出真实又让人感动的青春热血故事。
$ k6 |+ |6 X& M3 _
& |/ P, N$ D5 p6 ?6 N! J  Tamaki Tsuru, a freshman at Aonagi University, was overzealous about volleyball when she was in high school. Following a romantic rejection due to being an athletic girl, she joined the tennis club in college to be less athletic. One day, she accidentally hits Daisuke with a tennis ball as he was transporting a glider, causing damage to it. Tamaki was charged with a repair cost of two million yen, but as she couldn't pay the amount, she joins the sports association aviation club as a helper.
! w- S' ^, C& c# S* Z9 Z
Video+ R- ?2 k3 ]0 U/ |/ D# ?( ^: E
ID : 1
9 m" F+ K7 ]) }% e# ?2 o4 a; tFormat : AVC* m  N  A& E. X* A7 p3 V2 w5 }% x
Format/Info : Advanced Video Codec0 v+ }, _. E6 t7 C
Format profile : High@L4.1
! ^+ Y; \% f! c0 Q5 t, B9 X! F2 LFormat settings : CABAC / 4 Ref Frames6 _; M2 n- l& n) a- o* F+ u0 k
Format settings, CABAC : Yes
! ]# p4 d# Y! g, p7 Q8 T5 }/ L9 PFormat settings, Reference frames : 4 frames
# [' e# U& x( nCodec ID : V_MPEG4/ISO/AVC
. r% D! Z  h& D# R6 RDuration : 1 h 43 min
, l. E7 D, k$ |4 S. P! hBit rate : 9 340 kb/s
3 P+ B( g; p& |+ \! U6 N& }$ CWidth : 1 920 pixels
8 h; P0 m  e% T3 c. N# XHeight : 1 080 pixels
* W+ x0 n7 Y# E5 p# [4 W2 D/ ~Display aspect ratio : 16:9
# Y! _  h% a& Q* V. MFrame rate mode : Constant1 W# p* A; d( @& t
Frame rate : 23.976 (24000/1001/189150) FPS
# }) H7 n; [# k6 X+ `( NColor space : YUV
5 K# ~1 ], x" M8 X' Q" `* KChroma subsampling : 4:2:06 @; I; n8 g7 }+ [8 t1 t4 {) j
Bit depth : 8 bits
* P/ |; q# y4 a9 G9 W0 Q3 `Scan type : Progressive) I1 ?1 K% R# j: ~. [. e
Bits/(Pixel*Frame) : 0.188# D" e5 i: y- a
Stream size : 6.77 GiB (94%)5 z2 U2 ~# Q8 n/ C. W9 D2 G' x
Writing library : x264 core 164 r3065 ae03d92& Q+ n5 z) o* Z
Encoding settings : cabac=1 / ref=4 / deblock=1:-3:-3 / analyse=0x3:0x133 / me=umh / subme=10 / psy=1 / psy_rd=1.00:0.00 / mixed_ref=1 / me_range=32 / chroma_me=1 / trellis=2 / 8x8dct=1 / cqm=0 / deadzone=21,11 / fast_pskip=0 / chroma_qp_offset=-2 / threads=24 / lookahead_threads=6 / sliced_threads=0 / nr=0 / decimate=0 / interlaced=0 / bluray_compat=0 / constrained_intra=0 / bframes=16 / b_pyramid=2 / b_adapt=2 / b_bias=0 / direct=3 / weightb=1 / open_gop=0 / weightp=2 / keyint=240 / keyint_min=24 / scenecut=40 / intra_refresh=0 / rc_lookahead=60 / rc=crf / mbtree=0 / crf=14.0 / qcomp=0.60 / qpmin=0 / qpmax=69 / qpstep=4 / vbv_maxrate=62500 / vbv_bufsize=78125 / crf_max=0.0 / nal_hrd=none / filler=0 / ip_ratio=1.40 / pb_ratio=1.30 / aq=2:1.00
7 X% ~9 _8 b) u$ R+ O+ G- dDefault : Yes6 T% t' X2 j4 g8 M& N9 }1 `
Forced : No0 _2 ~8 O6 u. L$ u+ I$ g
Color range : Limited8 B" @; I( V" `+ s; w& d
Color primaries : BT.709
1 Y! s7 A8 \5 [9 D& n7 b, BTransfer characteristics : BT.709
8 j* M  k4 t* r% PMatrix coefficients : BT.709' `( K$ V% F+ M! A  _

/ j9 h6 L" k. j$ }, }Audio6 b5 Z3 B$ k* D
ID : 2
* K3 q$ ~# G) kFormat : AC-3
  X8 A" w" \4 _7 }; OFormat/Info : Audio Coding 3! |4 h# g1 F; E$ r9 [# Z7 m2 \
Commercial name : Dolby Digital
* A8 D  a* Y; c6 H; zCodec ID : A_AC3
9 _, {$ F2 L; |& n1 r! o, t( }. l8 KDuration : 1 h 43 min
' b# x" e5 s2 y, n; f4 HBit rate mode : Constant
; k: F3 @7 m8 K0 V( i2 K$ U! mBit rate : 640 kb/s
  Z6 r9 `& |+ h6 xChannel(s) : 6 channels/ ^3 @' r: A) B$ z4 y
Channel layout : L R C LFE Ls Rs" Q5 J2 u# c" s  z, V5 V
Sampling rate : 48.0 kHz- u4 ]$ x7 K: D7 W9 A- Q
Frame rate : 31.250 FPS (1536 SPF)
1 }8 ]$ _$ B( \5 ]  z0 Q3 dCompression mode : Lossy+ u7 `4 h$ ^7 W
Stream size : 475 MiB (6%)' Q4 P+ e+ r0 ^" T
Language : Japanese
( P" j5 t' D6 a; ~2 e8 S  YService kind : Complete Main. Q3 N1 w' U5 }- s! z
Default : Yes6 i7 y/ I. ?+ l
Forced : No
& [; Z1 N4 A$ k& B
' o; V& v% J/ @; [' OText
4 X) |+ u# e* s/ G/ Z2 A3 R( L! P+ w2 TID : 3
; n& W7 @2 G5 V. y0 ?Format : ASS! |2 B1 b5 }$ Z3 N6 [$ C- O
Codec ID : S_TEXT/ASS4 R- w  `) ~$ W. B4 c5 i! {% {
Codec ID/Info : Advanced Sub Station Alpha
  `7 m" o  l. L* d" P! QDuration : 1 h 43 min8 R# M0 u$ i7 ?9 P4 I* k' ~, a
Bit rate : 245 b/s
8 }! ]0 S, u7 H& t5 O( C1 ?Frame rate : 0.391 FPS) k1 z9 F7 A% F" o
Count of elements : 2422( X- [2 J. _$ K' H
Compression mode : Lossless0 J& T7 i  {  }5 W# @* g: @
Stream size : 185 KiB (0%)$ B1 e& k9 m6 C$ M  p
Language : English5 K  Y) l  t4 x5 b# h  O
Default : Yes
! e( `! n6 L2 u4 Q8 XForced : No+ l, D5 }2 b3 a, c, z4 K3 }
& c1 G$ H% Y8 _! E' {
Menu5 B% ~7 z) w1 o+ w
00:00:00.000 : :Chapter 1
0 g$ c% {. v8 o9 I9 e8 b+ Q00:08:54.034 : :Chapter 26 l' I# I8 p" w# f( p! u, y2 O, v1 Z
00:13:04.993 : :Chapter 31 }$ Q" @7 J+ _/ I  X2 u- V* }* y% O
00:19:14.654 : :Chapter 4
8 C- m; l; G" E8 m/ C' m00:26:38.097 : :Chapter 5+ r! x) P) V& f' Z4 d
00:33:19.247 : :Chapter 6# P9 P" X. x, d: i: O+ P
00:38:10.747 : :Chapter 7
; E. Y. x  V4 r, z  i* R0 p00:43:46.457 : :Chapter 81 X' G5 C1 e) R! e3 Q% M7 O' }
00:48:26.821 : :Chapter 9/ r3 s) v& b  e
00:54:06.118 : :Chapter 10
8 y$ L: I5 n% L% _, b% b' b00:59:25.353 : :Chapter 11$ C8 l, g6 {, G; V8 Y8 [6 h
01:06:54.052 : :Chapter 120 f8 M. S: F8 Q' J  y; a
01:12:24.841 : :Chapter 13
% x4 W; b% G* B- g6 s01:18:48.891 : :Chapter 14
2 d2 e, m  s6 i+ q  B, x01:24:49.918 : :Chapter 15% f7 k; R& ]9 }& H- w( y& f  R
01:29:46.298 : :Chapter 16
! M1 b$ u- K  u01:34:51.895 : :Chapter 17
& N# O, [6 F" y8 x: x6 i* u# h% l2 L& K01:39:33.968 : :Chapter 18

, u. x# r* v: F# x) X
游客,查看本帖隐藏内容请回复 | 加入VIP可免积分免回复 了解详情 | 还不是会员:点击获取邀请码 Invitation Code

本版积分规则

小黑屋|Archiver|4K蓝光论坛

GMT+8, 2023-2-9 13:09

Copyright © 2001-2021, Gadaddy Cloud.

快速回复 返回顶部 返回列表