BluRayCD Forum

 找回密码
 立即注册【分享大片】
查看: 41|回复: 3
收起左侧

[蓝光原盘] 错误的地方 [REMUX无损版] Wrong Place 2022 1080p BluRaycd REMUX AVC DTS-HD MA 5.1-FGT 21.69GB

[复制链接]

9707

主题

1万

帖子

9万

积分

Super moderators

金币
943 枚
体力
46196 点

最高荣誉勋章

24xs 发表于 2022-9-23 10:17:30 | 显示全部楼层 |阅读模式
01.jpg % m+ ~" `% o( `  I/ ?  q
* N7 _! f6 G% c( ?7 Y7 {8 R$ E
◎译  名 错误的地方
! |1 T: f: P( s& P( L. O- m◎片  名 Wrong Place / Bill Lawrence
) }$ |1 E7 y  f4 u% t* V, K9 k◎年  代 2022( O1 l& R4 R5 @
◎产  地 美国
9 x* l2 c- I+ z( H◎类  别 动作/惊悚/犯罪
5 E6 u7 F" b0 d* h! d! i: A" F; V◎语  言 英语( h# T$ }& q5 Q0 V! ?3 b! Q
◎上映日期 2022-07-15(美国)( A. ~+ v" p( _4 z, o) |$ s2 Q( l
◎IMDb评分  4.3/10 from 3,039 users5 H$ A) L2 r5 G) l
◎IMDb链接  https://www.imdb.com/title/tt15837458/
8 R0 t2 z0 q, D6 {& }$ Z◎豆瓣评分 3.6/10 from 97 users3 m, H9 d4 n6 w3 u0 \- t& E
◎豆瓣链接 https://movie.douban.com/subject/35689075/
4 a: ]3 b8 x. j◎文件格式 x264 + DTS  
( _! k2 J* N# s( m( L- W◎视频尺寸 1920 x 1080
9 {1 }4 c) o. U+ s* M, e' {◎文件大小 1DVD 21.69 GiB
, @/ l( W7 }2 M, |3 u0 T7 M" L1 N◎片  长 1 h 36 min
; ]$ z$ v+ \5 h4 A$ z/ @# F& i3 @* p◎导  演 迈克·本恩斯 Mike Burns; n: b+ r; O  a0 t  l
◎编  剧 比尔·劳伦斯 Bill Lawrence1 Z) i2 R% [2 v2 s6 Y0 ^
       Larken Woodward
- F* `7 |5 U- u( q) Z! |. p; b◎演  员 布鲁斯·威利斯 Bruce Willis
1 b6 o$ D$ o6 K' l. t. S  {       阿什丽·格林尼 Ashley Greene
# o9 ^! J+ m$ c8 w7 @! X& X       迈克尔·希罗 Michael Sirow
  i8 ^& V" r, g  H  Z: b7 N       特夏斯·巴特尔 Texas Battle
# _* H& H) @8 q# k       马西·弗伦 Massi Furlan5 {0 N. l# W6 Z7 g5 Y
       史迪茜·丁泽 Stacey Danger
) D8 n$ c1 i  D9 W# X* m0 }
' o" q4 n5 `; u" N6 f; a* W◎简  介   
+ f1 ]% N- t/ Q: W* |9 E5 R" ^2 c! E% p# ~5 i
  一名冰毒厨师追捕一名小镇的前警察局长,目的是在他提供针对家人的目击者证词之前让他闭嘴,但最终发现自己遇到了比他想象中更多的事情。
  J0 Z3 d9 E$ @1 P
9 d/ r3 u. n3 p4 Y  A meth amphetamines cook hunts down the former Police chief of a small town in order to silence him before he can deliver eyewitness testimony against his family, but ultimately finds himself up against more than he had bargained for.& q9 t! Z# V, i! A$ r$ w# V2 k1 V
Wrong.Place.2022.1080p.BluRayCD.REMUX.AVC.DTS-HD.MA.5.1-FGT
3 l$ X9 @- y5 e' z) E
- F5 i5 L+ S& y: H/ SVideo& z/ Q# y$ q/ A& Q5 n& a# ^4 [+ ?
ID                                       : 16 u5 u; e" C5 `) [$ ]7 M
ID in the original source medium         : 4113 (0x1011): R9 R" g7 {4 A. ~! r, h" x( U  }
Format                                   : AVC
6 ^- L" p9 @/ z& X4 aFormat/Info                              : Advanced Video Codec* A3 @& M) R8 t
Format profile                           : [email protected]; d* F, r0 Y8 I! p$ s
Format settings                          : CABAC / 4 Ref Frames
& F) v! W( ~& |# qFormat settings, CABAC                   : Yes
. o  H6 ?% G7 w7 F/ yFormat settings, Reference frames        : 4 frames
7 ]$ X: A& l' CCodec ID                                 : V_MPEG4/ISO/AVC1 |; g) l9 @. a+ t( A+ t
Duration                                 : 1 h 36 min
0 R, n' V% `& f6 Y0 R3 q3 s8 @Bit rate mode                            : Variable. A, y1 d% Z* Q1 t* \" I# w
Bit rate                                 : 26.4 Mb/s
9 ?% b7 T% W4 \9 T4 v% ]& EMaximum bit rate                         : 38.0 Mb/s
, p& R+ [" H3 oWidth                                    : 1 920 pixels8 T) N5 M9 \4 z: E
Height                                   : 1 080 pixels
9 z9 ^% s2 [! L# M& JDisplay aspect ratio                     : 16:9
7 ?5 h( e1 n; |7 `; W0 U/ KFrame rate mode                          : Constant
- P4 M+ i( V$ V! e% N& ?. NFrame rate                               : 23.976 (24000/1001/189150) FPS
3 C* l' K0 F5 K* m/ `Color space                              : YUV
! c% s% p' }4 HChroma subsampling                       : 4:2:0
9 O* z$ _# I. q, f' U; R, |$ ^" lBit depth                                : 8 bits5 u" {3 t* C1 j3 n; M% ]
Scan type                                : Progressive& A) G( |% J4 r0 E. o; Z) b
Bits/(Pixel*Frame)                       : 0.531
9 J1 F( d+ S) k1 A) JStream size                              : 17.7 GiB (82%)3 `4 ~; {" G% r5 p$ E+ u
Language                                 : English% B8 ?: F2 T+ C6 X( h% G: i% L+ V
Default                                  : No3 W7 [, H' Z8 I
Forced                                   : No
* Z$ F0 G5 R6 E: [' I! I7 wOriginal source medium                   : Blu-ray
# |; |  P. t0 o. f, U, o$ _. u5 U3 L; u( w
Audio #13 w3 V5 _* J6 B
ID                                       : 24 r! N2 k6 e- d/ i
ID in the original source medium         : 4352 (0x1100)
3 a- f% p& @" O( T- b/ NFormat                                   : DTS XLL
  _( ^7 B9 x" zFormat/Info                              : Digital Theater Systems  A8 X  E" d' g) F3 ?& G
Commercial name                          : DTS-HD Master Audio
. g) \+ f0 @3 CCodec ID                                 : A_DTS% a' i6 a$ S9 K7 r/ _1 _" s
Duration                                 : 1 h 36 min7 g5 Z- v( b/ Q: ~1 ?) [8 W, h, o
Bit rate mode                            : Variable
) ^. p7 Q& {, T, L" c& X0 HBit rate                                 : 3 842 kb/s1 g+ F6 U4 O3 o7 r, [. c5 J: M$ o2 H3 s
Channel(s)                               : 6 channels( n$ H$ m9 y0 ]* r! y, I
Channel layout                           : C L R Ls Rs LFE
1 V7 p  T. ?5 f. E/ Z1 @. ]Sampling rate                            : 48.0 kHz/ [" M0 S/ k; K. }# Q9 j1 r& X9 e
Frame rate                               : 93.750 FPS (512 SPF)
* a: |7 g( B( f  U% p5 ?Bit depth                                : 24 bits- B/ X, K7 t) X- V5 T9 M
Compression mode                         : Lossless  {, C+ R! a  I: m2 y
Stream size                              : 2.58 GiB (12%)
; z, ?' {  l' [& WTitle                                    : DTS-HD MA 5.1
! |9 e% T6 w/ r- FLanguage                                 : English
! z* {/ P8 v+ j2 H7 x( ?Default                                  : Yes6 z1 M# P( l3 }! E' ^. u2 j
Forced                                   : No
2 K5 j$ V* X5 i0 H4 X7 y! U! |Original source medium                   : Blu-ray
; T2 z+ k) V- d% q. f( n% k/ {% s
Audio #2/ t% B; i7 l; p3 y
ID                                       : 3/ V, _7 g2 X7 e' C& I
ID in the original source medium         : 4353 (0x1101)* ]$ i. H+ m1 v5 }4 q  G
Format                                   : DTS XLL. u" w4 ~7 W5 T4 }$ c' Y3 e
Format/Info                              : Digital Theater Systems
8 Q! i* E& ]% HCommercial name                          : DTS-HD Master Audio0 ~  q0 k$ l% ]; q/ S
Codec ID                                 : A_DTS
5 c5 v6 ~1 w" z2 s: m9 A( U" D! U, y) SDuration                                 : 1 h 36 min, p# x; p) x" J3 G2 b7 S: D
Bit rate mode                            : Variable$ y, u; f7 p! A* `# x9 y1 _
Bit rate                                 : 2 005 kb/s/ E2 e" q) L. c
Channel(s)                               : 2 channels
/ ?/ Z0 @4 s* A- K6 EChannel layout                           : L R
, |' W& k  w7 J4 s3 D$ f5 z- b. vSampling rate                            : 48.0 kHz
5 r! R+ u# W. U" S1 |2 [# rFrame rate                               : 93.750 FPS (512 SPF)
& T2 B; D9 v! u8 W9 I- Y; tBit depth                                : 24 bits
0 G: F7 _* C  U- |% F% O  b0 n! KCompression mode                         : Lossless" V+ D8 `1 i& k6 S0 p/ g
Stream size                              : 1.35 GiB (6%)
: _, i4 b$ H) ?Title                                    : DTS-HD MA 2.0* S& d" p4 x3 k2 Z* d# ?
Language                                 : English
$ k' Z/ Q7 s7 `) vDefault                                  : No# R1 G: N( S% s" W) e, G6 S
Forced                                   : No
8 b" d5 v8 `' EOriginal source medium                   : Blu-ray
4 D' b7 O% [- t' r9 L  b! G) S, G5 [4 v. H/ z
Text #1
: l% w& v5 H  j/ s8 ]ID                                       : 4
/ V0 R5 O% V! p, R$ \) b$ U2 @Format                                   : UTF-8
, X, ]7 U9 d0 _: {Codec ID                                 : S_TEXT/UTF88 `  @) w6 h  a" L4 t
Codec ID/Info                            : UTF-8 Plain Text) j! ?7 q# V8 X
Duration                                 : 1 h 35 min
& }$ w. x5 x. C5 b9 o& QBit rate                                 : 42 b/s! p7 S0 M; |  g% @+ G
Frame rate                               : 0.189 FPS3 E$ e) w3 L) C8 s! y
Count of elements                        : 10817 B- v# P- f7 J
Stream size                              : 29.4 KiB (0%)4 O# O% B' i( f4 i+ n
Language                                 : English
  q/ p# T* e# BDefault                                  : Yes
# K( \6 q( O7 \) U% }4 q$ AForced                                   : No% d0 r) v- k& R/ o( s
0 c5 j$ K" J2 @9 n# `0 y" f$ z' N
Text #2
, W; }3 N, n! BID                                       : 5
; i0 a4 z! O0 x/ n) [# a( gFormat                                   : UTF-80 L% v0 ?0 z% R0 c/ O' `( |* h2 z
Codec ID                                 : S_TEXT/UTF8% L" M/ z6 e3 c* d+ i- ^5 l
Codec ID/Info                            : UTF-8 Plain Text
! E  s% y- [  I8 W+ G, JDuration                                 : 1 h 35 min: j8 Q& g4 w& {& O3 _/ S0 z
Bit rate                                 : 45 b/s
/ h- k3 O( w: g4 z, q; c% d% @Frame rate                               : 0.216 FPS
/ o$ U. b. Z6 O2 I$ N* _( c. oCount of elements                        : 1238
' U  m" q3 I( @4 CStream size                              : 31.6 KiB (0%)
( C; e2 i6 a$ l# `0 q7 jTitle                                    : SDH5 P, N& P  D' n6 N6 T! U
Language                                 : English) {- }, M6 s$ P' L
Default                                  : No
( k3 e1 ^2 B. zForced                                   : No8 {( Z* t% a, N+ H6 A
# o" j  H0 E; p
Text #3
, Q) j. H# G! d& HID                                       : 6
4 S( l6 L# Y* m5 d5 L, p7 o3 ~, tID in the original source medium         : 4608 (0x1200)& |  G4 H/ A3 K# F9 G- t
Format                                   : PGS( s. t: n2 B8 f# o
Muxing mode                              : zlib$ g8 o0 O" Q( i( `
Codec ID                                 : S_HDMV/PGS7 ?, V: g% S4 G$ {- Z7 p
Codec ID/Info                            : Picture based subtitle format used on BDs/HD-DVDs
# g, Q5 [" p( oDuration                                 : 1 h 35 min4 l9 o. A1 J! E* T/ [
Bit rate                                 : 25.2 kb/s) y, R2 d- b" ^8 g) `: E
Frame rate                               : 0.444 FPS
' y9 L3 i' N5 dCount of elements                        : 2554
  l  J7 G% M4 h5 `+ bStream size                              : 17.3 MiB (0%)
% z" j4 t; H( r& v6 hLanguage                                 : English
9 b, e+ P) a, z! ]# _& a' MDefault                                  : No" S# j# Z" C  S1 r4 u% d, X
Forced                                   : No
0 W/ F9 k( B1 z! O$ A7 u" d+ yOriginal source medium                   : Blu-ray
# I" y8 Q' K8 b- y, ?* `: N5 ]0 o/ ~8 j6 H8 q
Menu
: A0 C, F' U( y$ C00:00:00.000                             : en:Chapter 01
# D  o5 {& ~% Y1 @  z. Z% Y+ j00:08:23.920                             : en:Chapter 02
7 G3 c# x& b% Q$ C5 n' X$ `+ G00:16:27.486                             : en:Chapter 03
  Z4 x; K6 j( ^1 g  s# e00:25:50.924                             : en:Chapter 04
; v8 E0 n! [2 H& A1 B00:36:47.580                             : en:Chapter 05! v. [" d$ L, _# x! U% Z+ ]
00:45:55.461                             : en:Chapter 066 C2 h& z6 j+ R( W3 R# U% V
00:53:07.475                             : en:Chapter 07) w  r- v+ ^$ p, q
01:03:23.591                             : en:Chapter 089 @0 {; n% Q  L6 a
01:13:13.305                             : en:Chapter 09( [. T1 u: [* s$ u/ T
01:23:03.269                             : en:Chapter 10* l# m3 h/ ~# n: [' ?' |2 A
01:36:10.431                             : en:Chapter 11
) W7 ~9 O3 M/ v$ V" Y: B- P7 w
游客,查看本帖隐藏内容请回复 | 加入VIP可免积分免回复 了解详情 | 还不是会员:点击获取邀请码 Invitation Code

3

主题

601

帖子

2565

积分

Sponsor

金币
588 枚
体力
874 点
211 发表于 2022-9-24 00:46:00 | 显示全部楼层
Bluraycd又有新电影发布了,激动中……!; A1 e" d7 @2 s) w# m* n8 Z9 D* v
I love your Blu-ray movies Forum!' Y2 j  ^$ T* f' U$ i6 f+ Y

0

主题

594

帖子

2286

积分

Sponsor

金币
31 枚
体力
970 点

签到达人勋章

QQ
jiyugen8180 发表于 2022-9-24 23:02:43 | 显示全部楼层
每天都来蓝光论坛看看,我爱蓝光电影。
  ~' p% R2 X+ \% |Blu-ray Film Forum: I will always support you!
; v# f6 t9 u6 I: u8 W+ ]5 o

31

主题

2549

帖子

1万

积分

Sponsor

金币
1803 枚
体力
6847 点
QQ
shiji1973 发表于 2022-9-26 15:52:20 | 显示全部楼层
沙发是抢的而不是占的!, {& o$ l) L7 ]# P( e: W3 ], d7 |
After reading the posts have nothing to do I Amoy posts!
( V; u0 ~2 ~" k, `0 d

本版积分规则

小黑屋|Archiver|4K蓝光论坛

GMT+8, 2022-12-4 08:54

Copyright © Tencent Cloud.

快速回复 返回顶部 返回列表