BluRayCD Forum

 找回密码
 立即注册【分享大片】
查看: 20|回复: 1
收起左侧

[蓝光原盘] 宽恕 [REMUX无损版] The Forgiven 2021 1080p BluRaycd REMUX AVC DTS-HD MA 5.1-FGT 21.65GB

[复制链接]

9707

主题

1万

帖子

9万

积分

Super moderators

金币
943 枚
体力
46196 点

最高荣誉勋章

24xs 发表于 2022-9-23 11:51:08 | 显示全部楼层 |阅读模式
Explores the reverberations of a random accident on the lives of both the local Muslims, and Western visitors to a house party at a grand villa in the High Atlas Mountains of Morocco over a single weekend.. s- m% O7 a! m, k' c1 A, y7 e

) e* t: h3 X9 l/ a2 |" ? 01.jpg , h. T; b  P; p* |$ k$ y. O

2 \: Q/ B$ ?, b, o◎译  名 宽恕
- |9 ]- t$ e. g8 U$ F  U7 o. Z◎片  名 The Forgiven
. n) }9 M% C" r% @5 h3 X  M) q' U◎年  代 2021# t5 n' T4 r% E% S1 g, s
◎产  地 英国7 H, F! r( S/ {' Z
◎类  别 剧情5 O1 `  K! \% B7 c% T
◎语  言 英语
9 V. _# {3 X; L* d( L$ L0 [) `& _◎上映日期 2021-09-11(多伦多电影节)/2022-07-01(美国)- M3 ~7 z% `4 r. F, X0 J
◎IMDb评分  5.9/10 from 3,327 users
8 T. Z$ b8 p) N◎IMDb链接  https://www.imdb.com/title/tt3696180/
% W6 l: }" t% J8 E7 @9 w- l◎豆瓣评分 6.1/10 from 170 users
: b! ]5 e: K' p: t' @- K◎豆瓣链接 https://movie.douban.com/subject/30213929/
% ]8 c1 j/ A. U◎文件格式 x264 + DTS  
: ^2 X& h9 ~3 K' M% n& \◎视频尺寸 1920 x 1080: k5 e* k7 O; E7 U! g3 Z5 m
◎文件大小 1DVD 21.65 GiB, a9 {! T- B  l& _+ |  a* i
◎片  长 1 h 56 min6 l% i. b  O7 b9 R+ F5 S; B3 g3 M* h
◎导  演 约翰·迈克尔·麦克唐纳 John Michael McDonagh1 H% X$ g: Z) Z3 i
◎编  剧 约翰·迈克尔·麦克唐纳 John Michael McDonagh
( g& ?* \! y3 Z8 Y! A       Lawrence Osborne
$ D$ c& T5 t' c- Z◎主  演 杰西卡·查斯坦 Jessica Chastain
  y1 v+ {" l% u. f  _7 R       拉尔夫·费因斯 Ralph Fiennes
1 J2 U' Z/ p/ j, p, T# m       马特·史密斯 Matt Smith
2 @0 x$ Q) S, Q* U; I       阿比·丽 Abbey Lee
/ l2 O4 N' h5 w$ P, v/ j7 [& d       卡赖伯·兰德里·琼斯 Caleb Landry Jones
3 k$ }) M+ f" y: `       阿历克斯·杰宁斯 Alex Jennings
! ~- x- I6 a6 t: F+ L: D+ B       克里斯托弗·阿波特 Christopher Abbott
3 w; P7 @$ @" u+ S9 v; l       玛丽-乔西·克罗兹 Marie-Josée Croze
& h+ d2 \& f: v; D2 U1 A0 P       萨伊德·塔格马奥 Saïd Taghmaoui
' G. ]: p+ k1 g% l       Anas El Baz
9 g7 v+ V- z% m# x       David McSavage
/ Z8 u! l% T# m, l4 W5 n! k       Mourad Zaoui6 f4 Y$ f1 L6 \- K0 r. r
       本·阿凡 Ben Affan- d* v+ U% z' w2 T& [5 f+ X
       Ismael Kanater
* Q6 G0 \& t1 H* a! \5 ~       Imane El Mechrafi, ]$ a! X7 _' U6 \; J" e6 V
       阿卜杜拉赫·查基里 Abdellah Chakiri$ z5 q" X- T8 x& c
       拉里·史密斯 Larry Smith
- ^$ |) i( m( G       基思·马登 Keith Madden
* `5 ^. @# ^, R: t3 L& P
+ d5 `- v- {6 w: D$ V◎简  介   
7 F" l. V/ G! [' A; h1 [: f$ U5 l4 \( Z6 P- r4 e
  本片改编自劳伦斯·奥斯本同名小说,小说故事描绘了在摩洛哥沙漠中,一对英国夫妇和当地人在一个豪华别墅的周末聚会上相遇的悲剧。6 E: Y/ [% [4 ?! |3 z

  ]3 B5 p* g' R& W  The Forgiven takes place over a weekend in the High Atlas Mountains of Morocco, and explores the reverberations of a random accident on the lives of both the local Muslims, and Western visitors to a house party in a grand villa.: |8 _: i* B* L/ l' _
The.Forgiven.2021.1080p.BluRayCD.REMUX.AVC.DTS-HD.MA.5.1-FGT. H6 E# b6 a: [

7 ^/ @( C# h9 h+ B, Y0 I4 PVideo
/ R( u1 s! U7 F* KID                                       : 1
( }9 b! r% o" |1 ^6 y2 d6 d+ [% xID in the original source medium         : 4113 (0x1011)
4 A9 G+ T, m, e2 H5 O; ZFormat                                   : AVC9 F: Q7 ]( M2 B8 N
Format/Info                              : Advanced Video Codec" s1 f" @3 N% [7 H' U( _$ R
Format profile                           : [email protected]
; h* k: I& T: ~9 QFormat settings                          : CABAC / 4 Ref Frames
- t5 [& T* M3 V, I1 jFormat settings, CABAC                   : Yes3 L2 M4 w4 Z6 _! [. x5 o2 c
Format settings, Reference frames        : 4 frames7 c" V* w6 x- i- ~( L+ |
Codec ID                                 : V_MPEG4/ISO/AVC
& `1 ?& I' }/ r3 V+ D" FDuration                                 : 1 h 56 min: b$ b, r! l8 ]0 J
Bit rate mode                            : Variable. k+ w- ]& [' w
Bit rate                                 : 21.1 Mb/s
  P2 _8 Y7 a0 r  V! VMaximum bit rate                         : 38.0 Mb/s
) M5 o4 g3 |2 `: ~Width                                    : 1 920 pixels
9 A! L+ l7 V  T' j( V" D  l) uHeight                                   : 1 080 pixels! i& Z+ g1 \- X# W- E
Display aspect ratio                     : 16:9$ t7 B! c, e% w) [
Frame rate mode                          : Constant1 n+ O8 ]- ?4 g1 f
Frame rate                               : 23.976 (24000/1001/189150) FPS- {0 d% F' ]+ g  W
Color space                              : YUV
9 ?! r, U, H+ TChroma subsampling                       : 4:2:0, m" e  c2 l: G* ]: E
Bit depth                                : 8 bits" U& i1 o/ M0 B2 _& l/ z% t  ?
Scan type                                : Progressive, J( j! X% j8 w
Bits/(Pixel*Frame)                       : 0.4257 u% h, P. i( x% B( i' p5 u5 J2 Y
Stream size                              : 17.2 GiB (80%)
6 R7 O; D: ]$ e6 L) W' DLanguage                                 : English
1 R/ h3 C1 `  M3 }3 Q9 yDefault                                  : No" W  a, A6 M; U  }  z
Forced                                   : No% I9 I' ~% D- D' ^8 {2 X, k& O, X
Original source medium                   : Blu-ray. h9 Y) y- s; R6 }' h+ R
: t6 x* M' C( J# e  D3 w
Audio #18 v' C8 n. d& v9 U- s$ a+ G
ID                                       : 2
6 x, t; L; H" E# @+ t9 MID in the original source medium         : 4352 (0x1100)
8 g, P0 n; @2 M4 wFormat                                   : DTS XLL
4 ?( B) q, _$ _9 ^Format/Info                              : Digital Theater Systems
# ^3 y+ g3 A1 [; v& kCommercial name                          : DTS-HD Master Audio
1 ~% }" d! x1 J' c$ i4 A3 t: D9 ]Codec ID                                 : A_DTS- ]( J1 _1 V0 Y" X) Y
Duration                                 : 1 h 56 min5 t' K  _( x! d
Bit rate mode                            : Variable7 Z0 [7 D* P( R& k& X& _3 X
Bit rate                                 : 3 420 kb/s2 K& T+ Q! C* B- t9 j% G& n
Channel(s)                               : 6 channels
6 ^- z0 V) [  p. v2 {, I$ oChannel layout                           : C L R Ls Rs LFE+ V3 w% h8 t" I5 e0 O
Sampling rate                            : 48.0 kHz1 R6 t7 r, F4 A% L
Frame rate                               : 93.750 FPS (512 SPF)1 w9 r, R( i9 L- k( k
Bit depth                                : 24 bits
  |  I6 S* D% ]6 @0 C7 d3 kCompression mode                         : Lossless
4 x" d; L7 C2 E# _3 B! R5 dStream size                              : 2.79 GiB (13%)1 O( Y$ \7 Y: j  u
Title                                    : DTS-HD MA 5.16 h/ ]! @1 `$ @; y
Language                                 : English# Z: L: Q$ G& R) V: p5 Z" _" [
Default                                  : Yes5 O. K- l& b6 U) g+ L" v
Forced                                   : No
" p8 `4 r# j2 A+ \/ [Original source medium                   : Blu-ray
( h$ D9 c' L1 F. ~7 i+ i1 \8 f6 t3 J  a$ E' f; b( S; E; d' ]
Audio #2- @0 N6 }/ X3 p" }# `3 R; n
ID                                       : 35 A5 J9 F) P2 ]/ S2 T0 g. P# Y
ID in the original source medium         : 4353 (0x1101)5 [2 C$ u- u$ k% h( B1 p- A
Format                                   : DTS XLL
  f* ?" |8 _+ s+ {( O2 R" HFormat/Info                              : Digital Theater Systems
% g* M- a/ `7 q0 D8 }+ q2 uCommercial name                          : DTS-HD Master Audio- t4 c9 \7 p2 H$ U: C4 ?
Codec ID                                 : A_DTS
! j# {3 O. O( ?: j9 o4 M! u! @# c$ PDuration                                 : 1 h 56 min
  j: J6 h+ O; qBit rate mode                            : Variable1 t0 ~6 `7 j8 O+ a+ K/ e& n
Bit rate                                 : 1 984 kb/s
' J6 N) ?% R/ h% {( bChannel(s)                               : 2 channels3 i2 G, x0 M: E/ r% T8 e, L3 D( C
Channel layout                           : L R
! Q8 i6 d5 Q5 C1 X% O( z0 v6 ISampling rate                            : 48.0 kHz
( M# a; }1 w; k3 H- H  D; }( ZFrame rate                               : 93.750 FPS (512 SPF); w* F8 R8 z3 _- ^
Bit depth                                : 24 bits# _) x& o# K6 X
Compression mode                         : Lossless
% ?8 Y( ]& N( C# ?: ^2 Z9 OStream size                              : 1.62 GiB (7%)
, ^/ t" ]7 \8 V2 G& oTitle                                    : DTS-HD MA 2.0) `5 D0 J3 T0 W+ `7 F8 c
Language                                 : English' R* ~* R% h$ J& J6 P
Default                                  : No$ ]9 \4 b6 v0 w* ~. M
Forced                                   : No# I! ?: n. @2 e8 z  ]
Original source medium                   : Blu-ray9 }4 j: n" D/ y7 g

& S# L2 H. m+ uText #1
# `% [; n  `: e( k% AID                                       : 4
( H1 m: f3 m/ k' }- uFormat                                   : UTF-8
! T% M$ g2 E6 i2 y$ x. n6 ^Codec ID                                 : S_TEXT/UTF8
, h* J" ^# b. R. S, Q8 x2 T7 jCodec ID/Info                            : UTF-8 Plain Text
/ d0 W% ?: ^/ }% P' t& e; WDuration                                 : 1 h 54 min
0 x6 t$ e' o% a6 s& l7 mBit rate                                 : 53 b/s
8 d8 L% v$ a" N" f  ~* L: JFrame rate                               : 0.194 FPS
* C6 n! }# I+ n! y3 G: P% MCount of elements                        : 1328( y6 U+ [) J) S' [+ m/ `
Stream size                              : 44.4 KiB (0%)) T# E4 s* ]2 j
Language                                 : English
% Z, t8 A4 d6 @Default                                  : Yes* C) D/ t6 c! M) H+ v2 Z1 v
Forced                                   : No
. p$ T3 `3 f# d
' w$ M0 t/ p; J4 A5 P5 \Text #2/ T; P5 K/ ^, e0 ?6 M7 F
ID                                       : 5
+ r( z( ]+ F* q( |! w! a' cFormat                                   : UTF-8
$ \& _: r+ c7 k5 n' z& _Codec ID                                 : S_TEXT/UTF8
9 ~+ T3 {. H$ b2 J7 _* |2 gCodec ID/Info                            : UTF-8 Plain Text4 _6 R3 J, h9 K0 S3 E/ z  L8 N1 c
Duration                                 : 1 h 56 min" l& P0 g6 O0 [
Bit rate                                 : 53 b/s
1 @+ _, q5 O- i& E7 V6 l! tFrame rate                               : 0.205 FPS
& U8 r# L* D$ U+ l" N& I  NCount of elements                        : 1434
& z( p3 C% r6 mStream size                              : 46.0 KiB (0%): |" p' P9 i; j
Title                                    : SDH
$ C# m$ f6 j: G4 j5 MLanguage                                 : English
5 ]' c9 J; k. aDefault                                  : No3 F# ?7 k& a2 [$ z9 F
Forced                                   : No/ V" M" _6 j% l8 d" n+ ]" P0 t( }# O6 c

+ B; I( S! z" l: `( M7 V0 gText #3! M" g& _2 A3 W
ID                                       : 6; H) x4 W0 I: p0 A2 b5 O
ID in the original source medium         : 4608 (0x1200)+ V/ ~, Q0 o# s  G2 I# E7 i
Format                                   : PGS
! b; _1 H* Z. J& [4 y: q- QMuxing mode                              : zlib
1 T- F: a* M' e6 N5 W9 ~% HCodec ID                                 : S_HDMV/PGS7 J. Y6 H. R1 g
Codec ID/Info                            : Picture based subtitle format used on BDs/HD-DVDs
& N% I; _9 G" ^1 A! G9 L9 [Duration                                 : 1 h 56 min. g. N: G5 y+ A9 i6 z8 P7 w
Bit rate                                 : 27.3 kb/s2 J4 C5 j' J8 d. l1 G
Frame rate                               : 0.417 FPS
) K) Y4 C4 e( }5 \1 j! V6 C4 c# DCount of elements                        : 2914/ l" n9 ~0 _! ^4 n# F; L
Stream size                              : 22.7 MiB (0%)
" Y; m2 B# R" u# w, }9 a# G. @+ ?Language                                 : English
0 j& a  g0 S7 ~& b1 pDefault                                  : No; a+ D3 X' p) q8 c
Forced                                   : No* l" Y  V! M0 E( i, }7 z8 k$ a
Original source medium                   : Blu-ray# x: l3 F% c+ X

2 C6 i! U4 I7 r4 EMenu
+ Q& l" c4 L0 D. E) G+ }00:00:00.000                             : en:Chapter 00! B. d, J2 T9 y. H% Y% }' ~3 V
00:10:09.275                             : en:Chapter 014 _" z  n3 m% f% U$ n2 `8 h
00:18:20.516                             : en:Chapter 021 ^- m/ a+ ~; {: q+ b
00:28:36.381                             : en:Chapter 03# B, c" C- M( z0 d2 F- h0 A
00:37:35.294                             : en:Chapter 04
  I" U* f" Z: D% P) |! Z( ~00:47:35.769                             : en:Chapter 05
5 O" m6 F4 \  v00:56:09.657                             : en:Chapter 068 P$ Q4 G/ j; v, }2 E# j
01:05:28.966                             : en:Chapter 076 O, E8 S- V3 v4 K
01:16:31.587                             : en:Chapter 080 Q* C& {/ v" X% @; X1 E
01:27:27.367                             : en:Chapter 09
0 a% I, c* c8 N01:37:37.810                             : en:Chapter 10
9 G. B- q1 ^; ]* _& _6 P4 `01:47:01.373                             : en:Chapter 11

6 d# O; T$ `6 o% k) X
游客,查看本帖隐藏内容请回复 | 加入VIP可免积分免回复 了解详情 | 还不是会员:点击获取邀请码 Invitation Code

3

主题

601

帖子

2565

积分

Sponsor

金币
588 枚
体力
874 点
211 发表于 2022-9-24 00:47:17 | 显示全部楼层
楼主发贴辛苦了,I*老*虎*U!+ F, K/ h' H/ A' g) Z) w" H7 {
I love your Blu-ray movies Forum!
) I( a1 J6 N8 u! O6 [

本版积分规则

小黑屋|Archiver|4K蓝光论坛

GMT+8, 2022-11-26 23:08

Copyright © Tencent Cloud.

快速回复 返回顶部 返回列表