BluRayCD Forum

 找回密码
 立即注册【分享大片】
查看: 24|回复: 1
收起左侧

[蓝光原盘] 天才反击/天才作反 [REMUX无损重制版] Real Genius 1985 REMASTERED 1080p BluRaycd REMUX AVC DTS-HD MA 5.1-FGT 24.96GB

[复制链接]

9707

主题

1万

帖子

9万

积分

Super moderators

金币
943 枚
体力
46196 点

最高荣誉勋章

24xs 发表于 2022-9-23 14:30:38 | 显示全部楼层 |阅读模式
Teenage geniuses deal with their abilities while developing a laser.
  W5 I, x5 X+ _3 _4 u+ _. }! l6 s+ T2 f$ E
01.jpg
+ m5 j, o- c$ O" I0 i/ L0 h
. K1 k  Q% [0 i; ~/ u( A$ H' X5 D◎译  名 天才反击/天才作反
' B; Y2 p- O/ ~! l/ Z◎片  名 Real Genius
2 {( V! k, H) A) L: }5 V/ ?◎年  代 1985
# B0 V% s* I0 q% [  O* b/ f$ {9 D& f) ^◎产  地 美国
  [3 f5 V) d) D. p; C( a( U1 d* O◎类  别 喜剧/爱情/科幻4 f3 a* f& p- Q" K: B
◎语  言 英语
. v% q* x% p7 h◎上映日期 1985-10-24(美国). P2 p& A3 ?' T+ d* ?) M1 t. c
◎IMDb评分  6.9/10 from 34,680 users0 r/ _$ I4 p3 |$ D, A. N
◎IMDb链接  https://www.imdb.com/title/tt0089886/3 w& K  a, o9 n3 b0 U
◎豆瓣评分 7.3/10 from 103 users
9 s9 {/ k/ G7 A* }◎豆瓣链接 https://movie.douban.com/subject/1303201/3 {. y; M2 c* Z" w! A
◎文件格式 x264 + DTS  - o7 }( |0 ^' a" h- S1 O& s, t5 v
◎视频尺寸 1920 x 1080
$ x: L+ d2 Q) w$ u◎文件大小 1DVD 24.96 GiB
$ C: E0 @% A/ o0 z; k; w◎片  长 1 h 45 min* G; {; E) K% Q* x- C9 b
◎导  演 玛莎·库利奇 Martha Coolidge
& W1 G4 e# s- W8 o! c6 B  \◎编  剧 尼尔·伊斯雷尔 Neal Israel
7 c# F" R/ h- A5 a  r1 o       帕特·普罗夫特 Pat Proft
: d% P% f- Q9 q7 _3 h) i       Pj·托罗克维 Peter Torokvei
2 A  U0 Q5 `' |$ [1 r$ F1 }( }) R◎演  员 乔安娜·巴隆 Joanne Baron
# w# {& \0 U* L- [       冈本玉二 Yuji Okumoto' e8 F8 O( @. s4 l/ m$ p7 P$ \" S
       约安·维尔勒特 JoAnn Willette: f% \7 ~# N/ R6 L
       彼得·帕罗斯 Peter Parros6 N! w3 `! g7 l6 u. F2 I4 k) w) \- v
       Charles Parks
% S( u% W' h0 y# H/ A3 [) o0 Y       珍妮·莫里 Jeanne Mori
8 }7 u. {% ?) w7 I( l+ X) r4 @       Charles Shull$ `% l1 w; _! f  E& A
       Lynda Wiesmeier' N2 g/ d" O) l# ?& f+ G
       金伯莉·斯帕克 Kimberly Spak
& C& u& q% X. E+ R* ^4 J; Q       Brett Miller
8 j+ E( b6 p& ?2 d: C$ r       Monte Landis
3 {" X. J; F) d7 W( q- ~0 z       Michelle Meyrink
5 T! k) m) q5 O; {& \' c0 q& t% u5 e       帕蒂·达班维尔 Patti D'Arbanville
2 a3 g8 `0 E5 B/ y: }: P; U       Tom Tangen
: j- s2 e9 x; I# `% q# k       迪安·德夫林 Dean Devlin9 E7 f6 L# P3 X  V5 a$ S( q
       赛文·达尔登 Severn Darden
/ E5 w$ u1 [* a- l* L) W4 G  z' `9 J8 D       斯泰西·佩拉塔 Stacy Peralta
1 @2 E! l$ _0 z0 Y, k       威廉·阿瑟东 William Atherton/ |- @: Q* j, s6 y
       强·格瑞斯 Jon Gries
! O& J6 n/ V1 i: U7 x       丹尼尔·阿德斯 Daniel Ades" v' X$ D: I7 Y* ]
       彭妮·贝克 Penny Baker
7 [: k8 `& U! h, |6 R       比务·比林格斯勒拉 Beau Billingslea. i' |  m& W* @
       埃德·劳特尔 Ed Lauter
( B% _5 E4 s- ]! B! a& P, L       加布里埃尔·雅雷 Gabriel Jarret  Q- R3 Q* ?* f- T
       Joy Michelle Moore+ l- Q7 ~/ T1 q( v
       Ina Gould Ina Gould
8 U9 J7 C# Q1 n4 a. Y% g- p3 Y       路易斯·基亚姆布拉沃 Louis Giambalvo
3 \1 b, z8 X: r& |( d; c: x       Ed Garrabrandt
% t1 V& ~2 }% q) Q) [' h4 E       德博拉·福尔曼 Deborah Foreman3 M6 E7 R* I- a! d& g
       Sean Frye Sean Frye/ z( {0 E0 ]# [* r* j' ?
       方·基默 Val Kilmer$ W! h7 C: t7 \
       布莱恩·格雷泽 Brian Grazer% k9 t- v6 J* H0 F$ A
       托马斯·纽曼 Thomas Newman
1 i  Z3 G$ n: o6 |1 K6 _       维尔莫什·日格蒙德 Vilmos Zsigmond
: @! ~5 }, @& K, \       赵汝钜 Richard Chew
8 L8 _. S9 l6 @3 z  ]+ G  k9 l       简·詹金斯 Jane Jenkins
' r) Q; \% d& }8 e       珍妮特·希尔森 Janet Hirshenson% F5 ?6 m/ j: G: j4 A) h
       Jack G. Taylor Jr.9 P6 S* Q% b+ X5 G, o/ F
       菲尔·艾布拉姆森 Phil Abramson
6 k+ `8 p1 ?! h/ V1 k- N       佐尔坦·埃雷克 Zoltan Elek
- V5 T+ R/ k! Y& O( l; s" h1 m3 b       Edie Panda
/ P5 Y. e; A) {! o6 |) ?3 ~       Mike Schilz
) [: k" C* [3 F2 Q4 v       Joseph Paul Moore
% Q& B% V2 v5 {3 ^& \       斯蒂芬·麦克维蒂 Stephen McEveety
  l) E" R% E$ V1 O6 a5 b2 f" k5 H       Bill Taylor9 M. w9 Y; b' S: J7 C3 g6 z$ p
       Syd Dutton3 K- H8 P9 P' z! u8 i7 J! U
       Dale Fay. M# b! J; g$ e, `( I( E& w
       迈克尔·卡普 Michael Karp
1 t* w% b1 D) _1 j& y       Syd Dutton
6 }- |' r3 I) m       Dale Fay " z8 w/ |: i7 ]' T. T+ B. j% x
       Bill Taylor r4 s8 s# [1 ]% ]3 }$ R% @% T# R6 L
* f' ?/ ]+ ?* ], F
◎简  介   + m/ |6 v) B  C; ^) p

& E! u. H  ~$ _" b  An uptight teenage prodigy enters a top engineering college, but feels awkward among the freewheeling students. When a professor aims to turn their laser project into a military weapon, he and his offbeat roommate plot to ruin the plan.+ |* ^  o2 [& e5 |" p8 N( ~
Real.Genius.1985.REMASTERED.1080p.BluRayCD.REMUX.AVC.DTS-HD.MA.5.1-FGT; K+ y  N7 N; V% Y$ h

7 c7 Q# q% M# q. M7 J: ]5 PVideo& S( ?+ W) F* Y# l
ID                                       : 1) E3 M# A8 a! |
ID in the original source medium         : 4113 (0x1011)  Y% [# c6 g1 X( W# B- A2 {
Format                                   : AVC+ j# [" Y2 D$ J6 c- {
Format/Info                              : Advanced Video Codec
. v1 `$ o, c; e+ d2 [* o6 k: ^- zFormat profile                           : [email protected]
4 [' G4 F) K+ v1 |7 u: ZFormat settings                          : CABAC / 2 Ref Frames. }# A. H6 h7 r9 a5 ?- W0 V8 r
Format settings, CABAC                   : Yes
. y+ B- V0 N/ u  L% ZFormat settings, Reference frames        : 2 frames
8 y" T: P. K9 f9 oCodec ID                                 : V_MPEG4/ISO/AVC+ |4 \2 D/ q% w$ P
Duration                                 : 1 h 45 min
: ?. [3 A8 K; c+ [Bit rate mode                            : Variable
7 i$ g( b  W! {Bit rate                                 : 27.9 Mb/s5 S1 J9 n+ c2 b
Width                                    : 1 920 pixels
. {9 v2 L6 Y. G/ N. J$ f% w" OHeight                                   : 1 080 pixels2 _& {% Q5 S+ |  F: D/ ^
Display aspect ratio                     : 16:9) K7 _( g2 e6 `1 C+ g' v7 N
Frame rate mode                          : Constant$ \, B8 `- [. |0 q" J% t7 f2 R
Frame rate                               : 23.976 (24000/1001/189150) FPS% S# Y& X1 N; P& D) R$ H) b+ L  H
Color space                              : YUV
8 {  v8 F' p" V, a( _0 mChroma subsampling                       : 4:2:0% X4 x1 O" c  p( b' D: F9 y/ Z
Bit depth                                : 8 bits
* ~1 x' x9 k- i) U, G! L% FScan type                                : Progressive! j* w3 H8 Y4 i$ N5 i4 k, f
Bits/(Pixel*Frame)                       : 0.562
% M( v* s* A, N7 A6 @Stream size                              : 20.7 GiB (83%)3 J! W0 I4 G; u! T6 S1 ?) m
Language                                 : English
% C$ {! c6 w% P3 d& \Default                                  : No! ]  k8 g6 `5 @" M4 G' s5 ~
Forced                                   : No
# T; p+ T: D. m3 N  P. P2 x. EOriginal source medium                   : Blu-ray# `7 A; F4 d" ]* e
! s* }- r! T+ p3 d- v
Audio #1
0 W' u: _1 L; O! m9 g3 LID                                       : 2
( A7 t9 Q6 }  \/ J$ q/ b2 U* J1 nID in the original source medium         : 4352 (0x1100), r& @( G& W9 K0 c# d+ U
Format                                   : DTS XLL. ~  l# b8 W$ m: U" Q) s! Q2 n) d
Format/Info                              : Digital Theater Systems
# W  K6 f% M+ h( OCommercial name                          : DTS-HD Master Audio1 X( c8 x  u1 l2 ^7 `: f
Codec ID                                 : A_DTS' Z# m  {" o# `' M: C, R
Duration                                 : 1 h 45 min* T& G, x0 Y  k- D
Bit rate mode                            : Variable+ L, O7 {- P4 }4 \- s8 R) z9 Q
Bit rate                                 : 2 222 kb/s
, K& K& X$ S- JChannel(s)                               : 6 channels6 Q9 u3 {& S8 ^6 q9 A8 W5 y
Channel layout                           : C L R Ls Rs LFE, K+ d8 ^( F6 a7 t# o
Sampling rate                            : 48.0 kHz/ L" P5 Y$ T! K  V6 u  V
Frame rate                               : 93.750 FPS (512 SPF)
6 f! O+ E- r) t% oBit depth                                : 16 bits( R" u1 p" F4 F% n& A
Compression mode                         : Lossless
  t: D  \3 I, z5 G/ ]) qStream size                              : 1.64 GiB (7%)
$ A9 j# e& j3 Y1 M/ P' c- FTitle                                    : DTS-HD MA 5.17 f  q2 X6 e% D$ ?) Q5 y# @% m
Language                                 : English/ ^" G4 H% N! D7 S% U; D
Default                                  : Yes
& h3 H1 C$ u. xForced                                   : No. U3 I/ G: E! j5 m, P0 `' |
Original source medium                   : Blu-ray" p# |" u- P, T' F
3 f% y$ x' x' J# e
Audio #2# o, A$ s  `: j
ID                                       : 3# ^/ E1 K  D( e% k; R5 {# R
ID in the original source medium         : 4353 (0x1101)
3 W5 K2 Y$ X8 K3 xFormat                                   : DTS XLL
; {* r7 q+ ^" X) x; nFormat/Info                              : Digital Theater Systems
8 c8 D9 ^- c" [1 z1 _8 [8 P% eCommercial name                          : DTS-HD Master Audio
2 y3 q- n2 O( K! W! H' h1 ECodec ID                                 : A_DTS2 N' _; v* }8 j1 m  p/ |
Duration                                 : 1 h 45 min
- a; ]8 L. {' i4 \+ l( R9 GBit rate mode                            : Variable: f" `2 g  n9 |
Bit rate                                 : 1 561 kb/s
  j$ U" h' I  c* sChannel(s)                               : 2 channels9 `. a6 _+ ]* a4 e! p% }
Sampling rate                            : 48.0 kHz/ C1 H0 f! H% F; [7 z
Frame rate                               : 93.750 FPS (512 SPF)
: q& S5 g# p8 t% KBit depth                                : 16 bits, `+ F0 w! a6 C7 ^! S/ ?. g
Compression mode                         : Lossless
! e3 G- o8 o6 `% _5 `8 xStream size                              : 1.15 GiB (5%)
- Q3 P$ {) q; L4 }9 f7 mTitle                                    : DTS-HD MA 2.03 N8 q4 M0 i4 v/ ~
Language                                 : English
' c" Z& K( f7 D! HDefault                                  : No
# O5 o4 ~0 L. t2 UForced                                   : No% T% J7 [6 z8 e, P$ J
Original source medium                   : Blu-ray
2 S& y6 D& O/ r1 A& X8 B: u: d6 ?. F! Y
Audio #3
, Y) M0 a3 V" wID                                       : 4: Q7 N: L/ x5 r6 _& B0 G6 R. e
ID in the original source medium         : 4354 (0x1102)
. N. e& F' L1 S& B$ k2 i8 sFormat                                   : AC-3/ W* Q' @, p7 w' t, `
Format/Info                              : Audio Coding 3
! M* w' z8 @" Y' z: QCommercial name                          : Dolby Digital  ?0 `! w: L; T9 D2 y! M- P
Codec ID                                 : A_AC39 ]8 s6 d7 W' u7 Z; `7 b9 M
Duration                                 : 1 h 45 min2 j" p8 m( B0 b" h0 w. w4 q# q
Bit rate mode                            : Constant2 k  F' T0 d: B+ ]: J
Bit rate                                 : 192 kb/s
& {3 h; \& V3 g$ N& `* p7 BChannel(s)                               : 2 channels/ o6 Q" m2 O' ]: C
Channel layout                           : L R% v6 s$ V! j4 T# H8 h( d
Sampling rate                            : 48.0 kHz0 W) A6 K- w4 P; c) u
Frame rate                               : 31.250 FPS (1536 SPF)
5 Y/ e- s: R" |Compression mode                         : Lossy" q9 K7 K9 k' d' G* C! W
Stream size                              : 145 MiB (0%)( ]9 q# d% x! T+ j
Title                                    : DD 2.0
3 o4 @& J& D; R3 i8 BLanguage                                 : French
6 r+ ^* O9 `' xService kind                             : Complete Main3 `9 y4 @2 H  V- m9 K
Default                                  : No
0 ]2 A4 |( ^% x% H  y- PForced                                   : No+ A: M) g1 t# w0 W
Original source medium                   : Blu-ray* ?6 @1 [+ W* Z! @0 Y6 O0 ?) b3 I

, D2 v) x, K6 _4 H# vAudio #47 L1 J. Q- J9 f' s" F
ID                                       : 55 j) ^2 x( s1 ], ~
ID in the original source medium         : 4355 (0x1103)
5 \9 B$ Q3 G( {6 c( d: tFormat                                   : AC-3
* q+ l: p+ W- u" M% nFormat/Info                              : Audio Coding 3
2 N' o5 v4 F0 e/ Y, F% x- y3 YCommercial name                          : Dolby Digital
3 [# j% z1 o1 ?/ E; jCodec ID                                 : A_AC3" T, v/ h' v1 T% ^2 H# ~
Duration                                 : 1 h 45 min
9 D) Q7 c3 G7 |8 O. i0 T) lBit rate mode                            : Constant
# I8 ~! s0 {; g$ x8 m3 Q8 j  HBit rate                                 : 192 kb/s
. m4 @: m3 C  L) y6 kChannel(s)                               : 2 channels2 G% w& b) z- j6 w5 Q% L
Channel layout                           : L R
% s2 r, M. [# [3 J5 d' D* B  b+ [Sampling rate                            : 48.0 kHz
. ^- f! t& T- p1 d0 G. E% mFrame rate                               : 31.250 FPS (1536 SPF)
2 H" Y# J- y* GCompression mode                         : Lossy  |+ Y( F" G+ Y$ v* [7 ?7 b4 W/ i
Stream size                              : 145 MiB (0%)
- Y& {) i- s. b3 F( ~2 STitle                                    : DD 2.0$ w& K7 G7 H+ Z) C7 i+ w, W! [
Language                                 : German
8 e' H  v3 G5 a5 G* x2 x; ]2 hService kind                             : Complete Main
* i- V6 Y5 _1 |Default                                  : No
+ M# d  t' D3 i5 T) \Forced                                   : No! n/ y, w( L- O3 M9 z% h7 C9 ?, p( K
Original source medium                   : Blu-ray- B3 ~5 g- ?6 P+ W
* g3 s0 K% A- Y# C
Audio #5
& w9 q. h2 y" r/ p9 EID                                       : 6
" M$ f  h' R, q$ gID in the original source medium         : 4356 (0x1104)9 O- M# w/ a) ^" `4 t
Format                                   : AC-3
, v  P0 Q7 [0 j& E! S: bFormat/Info                              : Audio Coding 3
) b6 G! D! K& TCommercial name                          : Dolby Digital
/ H: N; j6 \4 M3 ?2 r5 u5 yCodec ID                                 : A_AC3! L; u# }2 S1 @- |; e: C
Duration                                 : 1 h 45 min4 Y4 F$ W. ?( q& e) S& Q, |0 Q
Bit rate mode                            : Constant6 o4 W% e; m0 J) l7 V& {
Bit rate                                 : 192 kb/s
/ m; ~; S* H6 d2 xChannel(s)                               : 2 channels6 @, V1 s* U& `' m! E* c
Channel layout                           : L R' {5 C; V) R, l) m* z1 f; Y
Sampling rate                            : 48.0 kHz
1 |" F+ w0 K# n4 |0 r# l4 v& lFrame rate                               : 31.250 FPS (1536 SPF)+ O! C! E! y$ |! o1 i8 u4 R: m. `
Compression mode                         : Lossy9 w. {0 B3 f  D% Y! |& X$ u
Stream size                              : 145 MiB (0%)
  i+ C  c; E7 \: w# d# vTitle                                    : DD 2.0
! R3 b0 \* `; A7 a$ eLanguage                                 : Hungarian
$ K6 Q. ~6 B/ Z# Z# oService kind                             : Complete Main
% z8 h8 [7 N' k0 J2 a3 e- v5 k5 ?5 v# xDefault                                  : No
8 O& e1 P" q% }) p7 K) SForced                                   : No) ]6 e; M5 }1 v# T7 o' u# d
Original source medium                   : Blu-ray
2 e4 Y  |' O$ ^& F4 z+ v( {# P: z! C! {
Audio #6; r' O( [) U! d  V
ID                                       : 7
/ Z- v! Y: z* b# ~2 }ID in the original source medium         : 4357 (0x1105)' q% f" A+ m: [0 Q0 D1 m7 q5 u
Format                                   : AC-3- C  O  @7 v0 x! K/ ?; J1 [
Format/Info                              : Audio Coding 3" m7 |1 s9 ?, n0 A% H& R7 l
Commercial name                          : Dolby Digital
; B1 q- X& l! Z% v+ F/ n0 }Codec ID                                 : A_AC3
: g; i' H9 C8 @$ S, l, O  nDuration                                 : 1 h 45 min
" Z( p7 h& P" ?9 z$ _Bit rate mode                            : Constant( r0 n( \7 \# X* ?
Bit rate                                 : 192 kb/s5 D1 `9 ?" u8 z8 l" e$ z9 G
Channel(s)                               : 2 channels' h* p4 P6 q0 P3 J$ |' v- {
Channel layout                           : L R
* w* Q( b, g' c, x' z7 vSampling rate                            : 48.0 kHz6 c% q3 s% S! F$ Q( O4 s
Frame rate                               : 31.250 FPS (1536 SPF)
  n7 y0 r# j% s7 e2 lCompression mode                         : Lossy9 v" O7 a: d, i+ P  U1 }& x! f5 e
Stream size                              : 145 MiB (0%)$ s, m1 `" T3 r# ]0 a% K3 p) o' d
Title                                    : DD 2.0
$ ?* i, n2 Y8 h( N) BLanguage                                 : Italian! t1 E5 [- B2 q" w- B4 F& P  y( r
Service kind                             : Complete Main
' S: S' L5 j/ |; X2 R: wDefault                                  : No( ~6 D2 N8 k! P! w
Forced                                   : No
6 ~. ?9 k9 ]6 v3 POriginal source medium                   : Blu-ray
+ y; J1 Z, }5 B2 s/ U& S
: A, j# ^* R2 |3 I" g; j/ M3 N9 IAudio #71 d1 ]4 N# I: o, h: \2 l
ID                                       : 8
3 ], \3 W" W( `; c! X$ nID in the original source medium         : 4358 (0x1106)  a" g  R% R+ ]
Format                                   : AC-3, `: I. b$ z  o- D7 i0 M" f
Format/Info                              : Audio Coding 38 r9 [% C  I7 H
Commercial name                          : Dolby Digital' o. B" n0 g: c8 N( t& Z$ Q
Codec ID                                 : A_AC3
" s2 c# c2 P9 K6 g! m0 vDuration                                 : 1 h 45 min$ d. e+ X2 x5 u, f6 W2 m8 d
Bit rate mode                            : Constant% ~' M: L8 T7 w- m
Bit rate                                 : 192 kb/s
& K! g2 Q* G* i% l* U+ N+ rChannel(s)                               : 2 channels
( U- Z/ ?) c+ Q" ?2 G7 dChannel layout                           : L R* D$ S- |' h. u
Sampling rate                            : 48.0 kHz$ T! _' ~6 ]6 k+ M1 J
Frame rate                               : 31.250 FPS (1536 SPF)
, H2 F) _: s" D5 D( NCompression mode                         : Lossy
8 U0 _) l& p. [0 JStream size                              : 145 MiB (0%)
5 ]3 q& f0 ]/ S, k- d  xTitle                                    : DD 2.0
6 n+ ]/ z# Z) q  z3 s3 ^7 lLanguage                                 : Portuguese
: T* C) Q0 n! U7 lService kind                             : Complete Main/ R8 C) c" X( L3 n# V- z
Default                                  : No& {8 U2 a8 Q3 F' @8 g
Forced                                   : No( Y/ g' g& t6 g$ X
Original source medium                   : Blu-ray
7 f: X# d0 {' ]- a3 r3 ~! u5 s! D1 k( n! T
Audio #8
/ a% ]0 W1 D" H7 Y, r+ mID                                       : 9! e" Y6 l' U- {/ \' P; C% f% R
ID in the original source medium         : 4359 (0x1107)' x: Z2 L3 Q3 s: p! Q
Format                                   : AC-3
1 w% g) |4 [4 J8 y% ~: pFormat/Info                              : Audio Coding 3
2 d* J8 Z- s3 v9 eCommercial name                          : Dolby Digital
1 h' C( _# x, N+ }$ i" eCodec ID                                 : A_AC3
, w" p4 ?3 d5 p4 r9 Z  q; LDuration                                 : 1 h 45 min( p6 G& N# N4 t- s. s" O
Bit rate mode                            : Constant
0 u. @  d4 z% H0 WBit rate                                 : 192 kb/s! e. J: X/ x) }$ K( C5 d6 p' X% ~' J
Channel(s)                               : 2 channels
9 e# M) }( M& ~2 rChannel layout                           : L R
  c( H  m6 |- {9 H2 g* }% OSampling rate                            : 48.0 kHz
) `- x( `1 D5 B- l$ ?+ D1 r2 x4 TFrame rate                               : 31.250 FPS (1536 SPF)
: x- P3 M! x) B5 i- eCompression mode                         : Lossy
, f5 Z+ P3 J: v$ [Stream size                              : 145 MiB (0%)% T% M) P& ]0 ~" M3 M. n6 u
Title                                    : DD 2.03 s. \. R0 T* F6 ^: A: _. A% s
Language                                 : Spanish5 g7 |0 \- @7 m2 _, \
Service kind                             : Complete Main% {# S% @* L" F& v% T
Default                                  : No* @* r1 a4 g* y3 |3 k2 i
Forced                                   : No& J5 T" u! \$ P& E0 @  u
Original source medium                   : Blu-ray
, g1 p" s# a$ x7 z  V5 E* L' L. T/ z2 h7 k3 N6 z
Audio #9
! t* j# V& j' Q, Y1 a) c, c& |4 SID                                       : 104 E! Z* Y+ g3 i; @, m$ J1 I3 ]
ID in the original source medium         : 4360 (0x1108)
+ W# U( Z: _. Y5 ~6 n0 fFormat                                   : AC-3/ t# E! g. z6 t( Z
Format/Info                              : Audio Coding 34 \! ]3 ^* G1 |% s
Commercial name                          : Dolby Digital
$ p+ g9 g" ^9 P7 T( y2 }Codec ID                                 : A_AC3
' b' L# a2 H8 b) ~6 JDuration                                 : 1 h 45 min
- ]0 Y8 o0 q6 n- sBit rate mode                            : Constant
/ V, i, i9 e. _$ yBit rate                                 : 192 kb/s
* v) i1 _9 z  k* \% RChannel(s)                               : 2 channels
* L7 f) K+ c6 m" R# l- `Channel layout                           : L R& u  ]! Z1 g: z6 `% Y
Sampling rate                            : 48.0 kHz
+ b; x* y0 x4 o# c* J$ dFrame rate                               : 31.250 FPS (1536 SPF)% n  v* i0 [% B: h
Compression mode                         : Lossy* P. U# `- R( h+ Z  e  [# f, Y
Stream size                              : 145 MiB (0%)
* V7 ~# _2 g9 q5 d& j, Y  uTitle                                    : DD 2.0! l. h- R$ j: E' U3 ]1 J7 K
Language                                 : Spanish: G5 k+ g) \9 @, d  E+ U
Service kind                             : Complete Main
9 z; K( i" L$ |8 T! BDefault                                  : No
9 x% U6 L3 ?: zForced                                   : No
2 ~; ]4 e: w/ ~' L) BOriginal source medium                   : Blu-ray
3 e9 u2 Q) h, f: q3 B8 `$ q
$ J# q7 z) u" XAudio #10
& ?% }& l7 ~- r, A* JID                                       : 11/ g0 _0 w7 v7 b9 M! G5 C
ID in the original source medium         : 4361 (0x1109)1 Y) w1 [; h: L% ^
Format                                   : AC-3
$ L  g, D0 o! z+ fFormat/Info                              : Audio Coding 3! J! `7 x6 y! c' N
Commercial name                          : Dolby Digital+ l  N) F; c% m, q* i" b
Format settings                          : Dolby Surround4 y, @; q+ R" B; y1 f1 X1 p* u
Codec ID                                 : A_AC3/ p1 U- H& F) P9 e' L1 ?9 u
Duration                                 : 1 h 45 min' Y% H$ w: k3 R. U8 y. T
Bit rate mode                            : Constant- E* C7 |: j8 m- M9 p: H
Bit rate                                 : 192 kb/s
. B1 l: f$ |3 A; d1 EChannel(s)                               : 2 channels
- z+ @$ R  S6 }) ^Channel layout                           : L R! p  ~% p: v6 Q
Sampling rate                            : 48.0 kHz1 l; J& l1 S9 e2 }
Frame rate                               : 31.250 FPS (1536 SPF)
2 S8 N( p9 g/ Q8 z5 K- dCompression mode                         : Lossy
( c1 A& U5 X; Z. G% n% h4 c0 ~2 ~Stream size                              : 145 MiB (0%)
* Z; n2 Y& o4 [, y* s" [0 U6 qTitle                                    : DD 2.0+ s5 e8 D& k' j9 [, T. A" @$ g1 I- K
Language                                 : English: {! K2 U5 e& S
Service kind                             : Complete Main- y; w# S  l2 v" Y
Default                                  : No
+ ]  s& ]1 P$ F& Q1 FForced                                   : No+ Y! ^7 s# Z' ]( C
Original source medium                   : Blu-ray: @0 O9 x$ Q3 Q3 u1 O, M8 q( Z# E

# H. x% r! p3 ]; }/ m6 DText #16 D4 n' l) g9 f9 Q" U2 y
ID                                       : 12
3 R7 R' l+ s$ A# JFormat                                   : UTF-8  q# S9 c, Z( B- S2 w' @7 L% \
Codec ID                                 : S_TEXT/UTF8
$ S4 F2 h& R7 ~Codec ID/Info                            : UTF-8 Plain Text
9 S$ @; k' J# L8 ?" LDuration                                 : 1 h 39 min
0 ]' Z& i. o: A, \Bit rate                                 : 62 b/s
% z0 X+ m6 v0 e2 n( Q; n  B9 HFrame rate                               : 0.199 FPS$ K$ `5 z0 D( p  f+ v! F; _- X
Count of elements                        : 1185
- K' a& g+ _2 F6 o, {& G5 g7 CStream size                              : 45.3 KiB (0%), o: z" [7 }  y5 a
Language                                 : English
4 u% O' }- W/ M. i* P. VDefault                                  : Yes. U$ j7 b2 ~) T) g1 t' K* f
Forced                                   : No/ M7 E2 D% Y2 o% a- ?3 Z) G

5 m9 `# x+ A, g4 zText #2
/ r4 u4 K1 n# m" @ID                                       : 13" }- j  ?) v# s8 X- D
Format                                   : UTF-8" I. e& M' {2 w. c0 e
Codec ID                                 : S_TEXT/UTF8
/ V! ~+ U/ a5 ^2 Q3 d. pCodec ID/Info                            : UTF-8 Plain Text
& D: u+ [* m& k; U8 q& [4 e. m/ J; HDuration                                 : 1 h 45 min
4 Y3 L7 n# Y6 Y) W6 Z, J8 C$ L1 V- aBit rate                                 : 73 b/s
( z# o$ C9 |# B- ]- b( v( l9 V. UFrame rate                               : 0.232 FPS
4 _0 g8 F% K2 uCount of elements                        : 1467
9 D! c- c  m' z7 b& f" a+ iStream size                              : 56.8 KiB (0%)
6 n! p, `5 u/ O; Z) |( k" h* W) W3 yTitle                                    : SDH
( o* U( `+ W5 M9 |Language                                 : English
' w+ G/ |4 Q4 `, `8 P0 a0 fDefault                                  : No
; M9 I( R' X! E% F/ [# C. GForced                                   : No
" {2 X9 B! @5 K0 a/ d
$ k1 o8 y; t2 l' ~+ G# |Text #3
5 t$ o/ h) G- I# M. yID                                       : 147 e/ U" Q& y4 F. k8 z6 R! z2 w& W
ID in the original source medium         : 4608 (0x1200)2 L4 k& e9 g2 p* ?2 y$ E- a
Format                                   : PGS
4 J3 _: W6 w0 J6 o; ?1 W3 c- wMuxing mode                              : zlib
3 n: [* c* J2 b1 L& q7 h& ECodec ID                                 : S_HDMV/PGS
; Q( H- k4 I$ h2 A9 i4 |Codec ID/Info                            : Picture based subtitle format used on BDs/HD-DVDs
0 f# j$ B3 ?# s. l/ UDuration                                 : 1 h 45 min4 ]9 _4 E; B: }! y+ c# ^3 _
Bit rate                                 : 40.3 kb/s
1 G/ |% H# w1 j5 [; I& fFrame rate                               : 0.464 FPS0 [% O1 N6 S! m0 u4 s6 l
Count of elements                        : 2934
0 k9 |1 I4 p8 \1 n6 VStream size                              : 30.4 MiB (0%)* N% d% _0 ^1 W, C0 a
Title                                    : SDH
! @% g3 H1 O! u- e5 nLanguage                                 : English
8 L/ a8 [: s7 [, h1 eDefault                                  : No
1 C& q8 m/ c, b* A+ g: S4 _Forced                                   : No
+ P8 B2 ?* l* v6 d. FOriginal source medium                   : Blu-ray
8 j: S4 f& k# K
; [; E9 e4 E( S; l% C& _) U: s1 }Text #4
( m1 |. B+ }5 l8 s' Q( f0 mID                                       : 15
4 D* G7 j- a- s* B, CID in the original source medium         : 4609 (0x1201)
0 e" D) P1 |8 J0 ?" p. [) C6 EFormat                                   : PGS
, s) ^- L+ B; U8 F& \+ ?Muxing mode                              : zlib) }# \+ W5 S1 Q8 L3 ^+ N
Codec ID                                 : S_HDMV/PGS( Z  U" a: J( F; V% d7 n8 T
Codec ID/Info                            : Picture based subtitle format used on BDs/HD-DVDs3 ?- _' R( {6 F/ x& L4 s+ Z
Duration                                 : 1 h 39 min
% ^8 o" I1 r6 _" ^/ T, R0 Z6 N1 kBit rate                                 : 35.3 kb/s
( s% @# j9 J& ^' q4 L, R$ C  [Frame rate                               : 0.398 FPS
* T3 l% i( ?4 j4 c& f( HCount of elements                        : 2370
6 {2 }. h0 B9 }- L# g% k; A( P2 aStream size                              : 25.1 MiB (0%)1 `' F7 i* Y0 o- u
Language                                 : English5 L8 d& t6 Q6 X
Default                                  : No8 O5 L) y; G! j# B1 {
Forced                                   : No- @% ~7 i- m* W6 n
Original source medium                   : Blu-ray
% h6 v' d! |; G% t& E1 W% t% w, v2 {7 K5 A# y# u
Text #51 t8 `3 ?' N& L- _0 w3 h# P
ID                                       : 16. P7 ?) @7 @: j) |
ID in the original source medium         : 4610 (0x1202)
& G1 _; t. O2 U' x  e) SFormat                                   : PGS) d6 F" n! X( e* f+ ^
Muxing mode                              : zlib/ r2 P1 L( B. {/ \" \4 e  m6 U$ C
Codec ID                                 : S_HDMV/PGS
# U8 Y: {/ Z9 G5 q( }Codec ID/Info                            : Picture based subtitle format used on BDs/HD-DVDs7 Q. r3 a; ]5 |! [4 A5 H" ?# S
Duration                                 : 1 h 45 min7 a+ z6 g4 V9 H' ]4 Z
Bit rate                                 : 40.3 kb/s
4 @; ]: ^/ a1 o8 c2 m9 K( T2 F4 dFrame rate                               : 0.464 FPS
$ v. K: D, C3 H. KCount of elements                        : 2934
4 ?! l& y' g: e; V" nStream size                              : 30.4 MiB (0%)
" R) r! C1 Q# R3 a  `" ITitle                                    : SDH
! p7 L4 {1 u; wLanguage                                 : English
2 T* ^5 P; M& }Default                                  : No' V2 M3 R1 P2 E8 G; ]. f
Forced                                   : No
  u0 I1 Q  z. g3 w, [; mOriginal source medium                   : Blu-ray6 q4 Q% a1 {  g+ p
) a% s% L+ {: e& K' m+ d- ^% p
Text #6
$ s2 S/ S+ R/ iID                                       : 17# |) D* u& N, f0 M2 y. ~/ X
ID in the original source medium         : 4611 (0x1203)
) x% {# V! P* f# [; T3 XFormat                                   : PGS9 W& \) `# p% N; U
Muxing mode                              : zlib/ [( a3 O! ?7 n) @% S2 N
Codec ID                                 : S_HDMV/PGS
* t: i! K" j& ?% f; ICodec ID/Info                            : Picture based subtitle format used on BDs/HD-DVDs
5 ^3 m+ x( `! L7 _Duration                                 : 1 h 39 min
: v8 }0 j' A# B) P, P  y, KBit rate                                 : 35.3 kb/s
; Z$ ^3 ?! b6 j+ u% K2 ~, ~Frame rate                               : 0.398 FPS
- j, g1 {& [4 O' pCount of elements                        : 2370
/ d( \0 O3 W& _7 |$ B, ^$ O5 SStream size                              : 25.1 MiB (0%)
& Y7 z, P/ i9 O9 M6 R, J+ tLanguage                                 : English' w! P& Q. M0 A; M: c6 I& e, x
Default                                  : No
" B; N" V7 z0 `0 r" @Forced                                   : No
0 Q! `2 Q  d- y3 `/ tOriginal source medium                   : Blu-ray
8 O2 Q1 I/ y+ X. \/ Z$ E- c4 x5 f) H  e
Text #7" I1 M* f! ^7 u, f+ j3 s2 y& g
ID                                       : 18
0 d! q$ J5 G& s5 @ID in the original source medium         : 4612 (0x1204)* P( K- i5 t( M8 B& ?' H6 V5 k
Format                                   : PGS9 n" ^; m8 a7 a' Q
Muxing mode                              : zlib
! O4 q; g4 c0 n4 ACodec ID                                 : S_HDMV/PGS
! W% N! z, s' [6 j0 ]' [4 rCodec ID/Info                            : Picture based subtitle format used on BDs/HD-DVDs, K& X* I5 u4 X: V% u+ K
Duration                                 : 1 h 39 min
0 @: S; e7 _9 E; xBit rate                                 : 16.7 kb/s
$ K% ]3 f  Z- {3 hFrame rate                               : 0.361 FPS1 i* Y) B1 e" C* M
Count of elements                        : 2156) U8 G, p% K& Z4 A5 p6 t: `  g
Stream size                              : 11.9 MiB (0%)
( H/ c$ J- s# }Language                                 : Arabic
3 [+ i4 Z* h  w$ C+ bDefault                                  : No
0 D7 ?7 _* g4 a5 h# \Forced                                   : No
2 B) N( n# d6 T8 ]Original source medium                   : Blu-ray
* ?/ [) p& V/ Z9 U5 u8 o0 |- G, {0 S" I$ y; u
Text #8
; X0 @4 @5 E9 {* V1 J7 d$ U# wID                                       : 19
8 w& Q. C' y, z4 O4 j: E/ ]( h& @' BID in the original source medium         : 4613 (0x1205)
9 i& O% e  o# q: y- G8 a! Y# O+ QFormat                                   : PGS6 \, v) m' Z9 T. t7 D1 q
Muxing mode                              : zlib
9 Z4 E8 N7 T: t% G5 yCodec ID                                 : S_HDMV/PGS
  g# c4 M' p1 G! Z* G: SCodec ID/Info                            : Picture based subtitle format used on BDs/HD-DVDs. D& ?$ r' v) g0 m
Duration                                 : 1 h 39 min
5 z9 ~3 Q( k, \3 z, e- qBit rate                                 : 27.2 kb/s% Q; P7 Z  f% r6 T' c8 q
Frame rate                               : 0.348 FPS5 z5 r" x/ Z5 _" d5 E8 C# C: S
Count of elements                        : 20729 {# l. ^7 l  {: v, O0 p8 f
Stream size                              : 19.3 MiB (0%)
) K1 R6 W4 g) e! I. ^Language                                 : Czech0 d0 W& R: x% X; F& K% z8 p; U
Default                                  : No
  Z( ^, ~; `8 ?Forced                                   : No
- E4 E1 v( K+ x4 {Original source medium                   : Blu-ray5 J7 i7 {; t( M9 o, R

8 q2 J1 b( D' H( h( v% g* B9 FText #9
# x7 @" B. K# @. d" t; {/ pID                                       : 20
  Z# Q& W& [- O. SID in the original source medium         : 4614 (0x1206)8 V( r: {7 n8 [2 b# j( b- D6 A4 @
Format                                   : PGS" Q. t1 k9 X& P! ^
Muxing mode                              : zlib
; y( k- Z8 D* b8 j- v3 wCodec ID                                 : S_HDMV/PGS
7 c7 _- A2 m+ PCodec ID/Info                            : Picture based subtitle format used on BDs/HD-DVDs' [2 B6 [$ z0 O6 A2 ~. a: Y3 o
Duration                                 : 1 h 40 min
# n# m3 f% [. k! z3 C  b& n4 ^Bit rate                                 : 29.1 kb/s
. m3 V) V6 d/ Z* w$ ~Frame rate                               : 0.339 FPS- y: k0 E5 B; ]4 \; Q  `4 Y! S( |
Count of elements                        : 2050
6 g. t7 E* [$ ]4 @5 ]Stream size                              : 21.0 MiB (0%)
' }% F- }( V0 G! ]9 e1 J/ fLanguage                                 : Danish6 U' g* e, V* w. g- v
Default                                  : No
9 |7 p% W- C: J# Z- d5 Z3 P* TForced                                   : No+ x4 I% g" m7 |. F- ^
Original source medium                   : Blu-ray
* _1 y8 u. j$ `# y7 ]
2 L' j4 y* b3 `1 C( NText #10( T6 D5 T+ D7 {; `$ H" B
ID                                       : 21
8 ~9 i) D( t: L! QID in the original source medium         : 4615 (0x1207)
5 I( G. S* |: C# R( x5 wFormat                                   : PGS
# ?! K4 O$ b! n1 \( R* ~* kMuxing mode                              : zlib8 L) ^  ~5 ^9 d% _9 P
Codec ID                                 : S_HDMV/PGS& v7 b5 t. V% U/ {. w- q- J
Codec ID/Info                            : Picture based subtitle format used on BDs/HD-DVDs
2 P4 C7 A& e6 pDuration                                 : 1 h 43 min( C& Y$ y9 G: h( X3 v/ o
Bit rate                                 : 27.5 kb/s
/ A, a6 }+ ]! P& rFrame rate                               : 0.323 FPS6 {: ?; W. L! v' k
Count of elements                        : 2006
+ V1 C) H0 l" y+ sStream size                              : 20.3 MiB (0%)3 V" H& c. _/ i
Language                                 : Dutch
) F4 u! V+ B. I4 `3 o2 K' p. T5 oDefault                                  : No
& N% l( M$ ]7 |# u1 p8 EForced                                   : No
+ J. D0 H- B: N' k0 c. \Original source medium                   : Blu-ray7 X$ d6 y2 D" {/ m4 \1 U
) W" W7 j2 L, k* x9 S* T- u
Text #111 \1 ^6 I4 g: f7 U$ C' c4 i
ID                                       : 22
# T$ o& c& F, E: E" vID in the original source medium         : 4616 (0x1208)
! O) N8 K$ C; g7 qFormat                                   : PGS; |% ~2 r) Q' \1 c/ Q& @/ I1 f3 U) p
Muxing mode                              : zlib
2 }. A* ?7 m% E/ gCodec ID                                 : S_HDMV/PGS7 \( m) z6 |# {8 B! [  M3 X' x: O; Z
Codec ID/Info                            : Picture based subtitle format used on BDs/HD-DVDs
4 k4 Q, |* W5 ~( E% s8 W+ jDuration                                 : 1 h 43 min$ S/ j% l. ~3 k3 I- v+ V/ v2 h1 {: y
Bit rate                                 : 27.1 kb/s
% g4 q, p+ K& uFrame rate                               : 0.297 FPS
, ?% P) u3 m! l9 eCount of elements                        : 1842
" e- H4 T& O3 b; z1 O) Y. i+ ZStream size                              : 20.1 MiB (0%)
: Q) c4 Q, t- GLanguage                                 : Finnish
8 k/ }0 w: A0 K& g: b$ D7 UDefault                                  : No
1 |) I: [3 ]0 B6 p& @+ q1 ZForced                                   : No
: m! ?: \( h2 i; h' z7 kOriginal source medium                   : Blu-ray! {1 |0 V3 O# R- `( G* m$ j
9 Q& y  l8 M5 H4 C# P' @$ w; s! R! [' l
Text #12
. G  ~1 m4 i2 S  q1 O& eID                                       : 23
  @9 k( o! m6 E/ c6 d# |ID in the original source medium         : 4617 (0x1209): I  s* Q0 N/ q0 \3 P! E: B( [4 e
Format                                   : PGS' U7 |; X% x* o( l6 i
Muxing mode                              : zlib& ]% G: e! F+ w) w4 N0 m/ r) F
Codec ID                                 : S_HDMV/PGS& t9 l" a( g1 ~! L% M6 o% Y0 N% [
Codec ID/Info                            : Picture based subtitle format used on BDs/HD-DVDs7 l8 o, Y+ S5 o3 s( C, f  d4 P
Duration                                 : 1 h 39 min' a3 _! x! a5 j+ B" a& a
Bit rate                                 : 29.1 kb/s6 O0 S2 l0 _9 z2 r
Frame rate                               : 0.344 FPS
1 j: |7 Q6 c1 x9 i* i# M7 X6 |Count of elements                        : 2046
4 N% c" d) @! o; ]5 B3 p3 \8 X! KStream size                              : 20.6 MiB (0%)
1 w/ M' r0 D, ~. l7 x8 `Language                                 : French, g1 p* ?7 S2 q" c! P# i9 R
Default                                  : No5 ^+ g6 z9 z0 S7 a) h- o" p1 j& I
Forced                                   : No  G5 }+ Q/ m" D: }
Original source medium                   : Blu-ray. s  o3 |- }2 q* l# }

8 }8 z/ `; R3 c' e* [1 r! }: IText #134 d3 F/ i8 {2 r  I5 Q( r! \6 M
ID                                       : 24$ @5 e9 L" K- U, S
ID in the original source medium         : 4617 (0x1209)$ _! K0 o5 {1 I9 \8 F5 G
Format                                   : PGS4 q! v3 W) y( G8 Y6 g4 u. u
Muxing mode                              : zlib/ y: J0 f: l# `, U! C
Codec ID                                 : S_HDMV/PGS9 H7 F+ k0 _- d! J  i( m7 f  Y
Codec ID/Info                            : Picture based subtitle format used on BDs/HD-DVDs
# Q& l' I: I; p6 @Duration                                 : 1 h 26 min. X8 t0 c; _" O) O' g0 R% A" S
Bit rate                                 : 384 b/s3 K  d  g7 n& q/ ~9 x8 T% P
Frame rate                               : 0.005 FPS
1 f2 b) q. m9 n' U# z1 |Count of elements                        : 28
' g5 T( E, L  B4 Q$ \/ z2 ]Stream size                              : 244 KiB (0%)  f+ \  R# f9 I2 c
Language                                 : French( \2 E/ w! J1 L- q+ ?% B, L5 ^
Default                                  : No
/ f/ A; y) N  A1 v! \5 |* p' PForced                                   : No
2 r- m- j( Q4 E2 IOriginal source medium                   : Blu-ray
9 _, w6 J. V' @, F
. M. E& m2 F% y" {5 R. sText #140 [4 T; x# Q5 }; c/ p
ID                                       : 25
5 j  ^- v4 m7 _' M, b3 DID in the original source medium         : 4618 (0x120A)/ ~5 _' L6 g6 c9 P+ \. L) ~
Format                                   : PGS
- \* O9 f& t. N5 s0 vMuxing mode                              : zlib; T9 a# S5 @' \3 x( V& k5 d
Codec ID                                 : S_HDMV/PGS. a- K0 z9 A  `6 m7 U; P$ ~
Codec ID/Info                            : Picture based subtitle format used on BDs/HD-DVDs7 J. p& n: B% s5 ^6 f1 t
Duration                                 : 1 h 39 min$ n2 |: Q+ C* H3 N) k6 {
Bit rate                                 : 34.3 kb/s5 ]7 g' m( V# r: E5 E, `& L( v' A
Frame rate                               : 0.373 FPS
2 I, [. u8 a7 l' XCount of elements                        : 2222+ Y% c9 o8 z+ @- Q# P4 I# |* j8 t3 e
Stream size                              : 24.3 MiB (0%)
/ D% s" W" s- P, V5 f7 t8 RLanguage                                 : German
& Z' ^* b- G4 @$ G0 T. Z0 fDefault                                  : No
, M( [+ P/ E+ q: R/ T/ Y( E2 {* x  k. ZForced                                   : No
! N" T, {4 B4 _2 FOriginal source medium                   : Blu-ray6 v5 U. T2 B/ x

& Z5 c3 G( r' h5 ^; C( l8 rText #15/ r& F: [5 u+ Y, I$ I
ID                                       : 261 {3 Y- B% ?/ N; r/ L
ID in the original source medium         : 4618 (0x120A)3 F, F; |; T+ D8 S; a
Format                                   : PGS
4 z9 v, T* @# B3 h- c, c$ PMuxing mode                              : zlib
9 Y0 t1 l/ m5 m. _$ m( SCodec ID                                 : S_HDMV/PGS
; w3 ^! ]% B" bCodec ID/Info                            : Picture based subtitle format used on BDs/HD-DVDs3 C% j; O" f* p, L0 `+ F
Duration                                 : 1 h 9 min
( L! F5 E% U+ e$ a$ gBit rate                                 : 314 b/s, D- \' n0 u" Y6 T- z6 @
Frame rate                               : 0.004 FPS) r7 z$ w3 H  k. [( M: G
Count of elements                        : 16
- R/ z2 |4 ~7 oStream size                              : 159 KiB (0%)6 E/ t1 T+ p, d  n
Language                                 : German9 A" n7 P7 h% H. u% A( U' y. F
Default                                  : No2 P8 p9 Y1 s. R+ P
Forced                                   : No
3 Q/ e1 u& k3 A: {5 xOriginal source medium                   : Blu-ray
, z5 L* z. I/ y; P6 ]7 Z1 c; r
4 b# f& A0 R8 `2 \5 B" p8 UText #163 k; F  I4 {& G# U( n# z
ID                                       : 27# A: u5 m5 K/ W1 T& i' \0 ?8 }/ I
ID in the original source medium         : 4619 (0x120B)0 B2 L8 F* L3 V
Format                                   : PGS
* m6 x1 ^4 e* C7 SMuxing mode                              : zlib, [& C/ L  {7 H+ n9 W' s; g
Codec ID                                 : S_HDMV/PGS+ ^* A6 F# K& [! o+ e" Q1 O
Codec ID/Info                            : Picture based subtitle format used on BDs/HD-DVDs2 X( w4 E% v. A/ I4 o
Duration                                 : 1 h 39 min" J# N# Y- i" v8 w( B) _! U: r
Bit rate                                 : 31.4 kb/s
) ^: C) v0 _7 j2 [/ `Frame rate                               : 0.379 FPS
3 _4 j: A+ \& g2 @1 QCount of elements                        : 2256, M/ O( z( ~1 ?; G
Stream size                              : 22.3 MiB (0%)
, ^7 E  Q$ v' }1 Q' kLanguage                                 : Greek- b+ O& ]1 S- h) z8 A
Default                                  : No
- O0 M+ W) N/ F8 B2 D% NForced                                   : No5 l9 K: ]( F% h. H
Original source medium                   : Blu-ray& d* q1 d( C7 r' l& y) X' T1 M6 I

4 C, K7 O: Y6 t) KText #17
% }* j' d4 B) S4 C$ y& K, CID                                       : 28, ?# H$ Y# k' F& V8 |" z
ID in the original source medium         : 4620 (0x120C)
, n3 C+ P4 t# A, a9 ]Format                                   : PGS8 e  j" _  Y) J+ Z0 J
Muxing mode                              : zlib5 b+ R) u. n; j4 k
Codec ID                                 : S_HDMV/PGS5 h# b2 l+ ]& H+ d5 V6 d
Codec ID/Info                            : Picture based subtitle format used on BDs/HD-DVDs( U2 j4 u: o9 C4 P8 _
Duration                                 : 1 h 45 min
( H/ F  H  u$ {) w0 }( VBit rate                                 : 23.6 kb/s0 n4 B' j/ l1 x8 l! T2 I9 s
Frame rate                               : 0.382 FPS
/ C3 e/ B' w$ L0 K4 RCount of elements                        : 2412
. I9 `1 r6 K: j8 S  U/ _/ G+ GStream size                              : 17.7 MiB (0%)
3 w2 j" q2 i0 rLanguage                                 : Korean! j' g7 o' L( }' U- V$ \
Default                                  : No
. O+ M9 X5 g1 }5 K6 r1 ?' CForced                                   : No
! G( M8 W4 h% j% P6 c# [! KOriginal source medium                   : Blu-ray. ]7 D- ~: A$ `" y
6 p! g$ @' ]2 r: A1 t0 j
Text #18
, S# U9 N. b& ~. `4 VID                                       : 29) z4 x. w! d4 s/ S8 n3 Z
ID in the original source medium         : 4621 (0x120D)/ N9 `" [* H" R5 R% I* B
Format                                   : PGS
& @; R+ ?" {1 i, R) VMuxing mode                              : zlib4 b. `2 b2 x; O
Codec ID                                 : S_HDMV/PGS7 G- b! [+ S, l& A5 m
Codec ID/Info                            : Picture based subtitle format used on BDs/HD-DVDs
# Z/ L5 U/ N- y3 a+ z7 x0 {/ VDuration                                 : 1 h 39 min
9 P9 O' i# h* ]' P1 ]6 {5 b- ~) L* b' XBit rate                                 : 23.8 kb/s, `0 g8 v( V" N  d; e
Frame rate                               : 0.381 FPS' `7 ]: M' C- f" M( M
Count of elements                        : 2271
9 F7 e) i) O6 K% A9 [5 NStream size                              : 16.9 MiB (0%)" w5 }1 \0 a: \" ]
Language                                 : Hindi/ G! w5 e8 y& Z5 H4 n2 E% s9 h* N. x
Default                                  : No8 Z3 D. E+ A9 ^7 O
Forced                                   : No
5 S4 H$ y) O& E' l; kOriginal source medium                   : Blu-ray2 R7 }5 ?5 A0 E5 a9 G! o

' F: g& j/ y1 d6 ~0 f* oText #19
0 C0 e- _: f- I$ ^( F/ _' z- c* sID                                       : 30
2 I- s' w/ ?6 H- r, B! u* c0 k8 V* C: j* zID in the original source medium         : 4622 (0x120E)
3 c# M, C0 \# J! j  j( j: l4 `Format                                   : PGS/ }1 k- c( ?* Z& d/ z% E" ~
Muxing mode                              : zlib
2 P+ u6 k) Z( F/ H1 I& f" y, ^Codec ID                                 : S_HDMV/PGS
. r1 W6 j  e, M8 |Codec ID/Info                            : Picture based subtitle format used on BDs/HD-DVDs
/ n2 u5 E" P5 i/ z$ P  W. ]Duration                                 : 1 h 39 min
' N1 _+ V- c9 L$ h* h2 s% zBit rate                                 : 26.8 kb/s1 A- K1 ~+ P; T- u/ W
Frame rate                               : 0.367 FPS
8 Y; g' H0 k2 U1 W3 ~0 K( o3 r; |Count of elements                        : 2182
& v% T3 v6 r9 }& B- D7 X* J% |$ `Stream size                              : 19.0 MiB (0%)
8 x) X. o% q$ mLanguage                                 : Hungarian
% |+ Z0 ~* {- X4 rDefault                                  : No. K- n, s: ?# |9 W& \
Forced                                   : No, Z( }1 x1 R' t5 V! E( c* L
Original source medium                   : Blu-ray. Q: Y+ w. Q" }5 A, z) t
9 ?  r! A1 ^' e" k
Text #20
  J" G9 v6 R- c5 A  h2 O  ]ID                                       : 31; Z1 k* w/ ]1 P
ID in the original source medium         : 4622 (0x120E)
2 i5 J5 \  M/ BFormat                                   : PGS
$ K% ?# a" ]& l1 _+ lMuxing mode                              : zlib
$ z$ h+ `9 i8 z6 xCodec ID                                 : S_HDMV/PGS
3 v$ _- ]1 s$ C8 @7 R0 CCodec ID/Info                            : Picture based subtitle format used on BDs/HD-DVDs" K6 _( g0 ^% ]
Duration                                 : 1 h 9 min
+ u; c$ l5 H0 l5 i! O2 ^Bit rate                                 : 224 b/s
% l& \) j) a# h8 h( Y5 ]' ZFrame rate                               : 0.004 FPS
8 A3 g1 F( K! gCount of elements                        : 162 h* g& i- p5 v  G% q" d2 v. b
Stream size                              : 114 KiB (0%)
# i! W2 w/ ?7 O( O4 {% @6 O& `7 TLanguage                                 : Hungarian
2 [3 }1 K6 ~7 X& UDefault                                  : No% M& g; y; f& n
Forced                                   : No
- Y5 W1 u, `4 M8 X  FOriginal source medium                   : Blu-ray! h* T6 ^8 M' t6 `3 p2 [
1 y" m' ?# Q! q4 K- V1 a1 u' w
Text #21
" `" t4 b  K* bID                                       : 32
% N- u& {  J; p% n/ P: z6 b# _7 K" EID in the original source medium         : 4623 (0x120F)# u+ D  c# s8 H( F# V
Format                                   : PGS
. X; ]4 k' x4 K& q, E+ gMuxing mode                              : zlib
$ s& t" C3 q) r2 }9 q% ?7 p% pCodec ID                                 : S_HDMV/PGS& l% U9 \) j  {
Codec ID/Info                            : Picture based subtitle format used on BDs/HD-DVDs' B- t; ?' b" \
Duration                                 : 1 h 39 min
# C( Q) D3 ]  |4 H& H1 j/ NBit rate                                 : 28.0 kb/s! e+ J% g+ P# m6 b9 W
Frame rate                               : 0.340 FPS
  e; T0 i# n% ]( @4 tCount of elements                        : 20228 q2 n7 V, U2 _4 q- M# G
Stream size                              : 19.9 MiB (0%)4 d; }( g4 D- p
Language                                 : Icelandic# g: Z3 y6 Q" M$ f! @$ F
Default                                  : No
' o# t- e/ G: p! p  JForced                                   : No  [+ w, ?; d* S' j$ U
Original source medium                   : Blu-ray
; d- O; c# x3 Q+ e
5 j0 s& q. U( RText #222 }% N; x# d1 h
ID                                       : 33
9 b, x9 K( X/ I& P" BID in the original source medium         : 4624 (0x1210)
2 B) h  {$ c) l, `  _  W6 q: {8 aFormat                                   : PGS
$ o5 x- _0 O8 [. q; M4 q4 `Muxing mode                              : zlib: g$ Z3 K( Z. E. J
Codec ID                                 : S_HDMV/PGS% \. ^6 `, t9 Q: W
Codec ID/Info                            : Picture based subtitle format used on BDs/HD-DVDs$ O% F3 p: L/ X
Duration                                 : 1 h 39 min
) i8 v1 A/ N  J( y* i, ?  zBit rate                                 : 32.9 kb/s* x: H- _, p* K- W+ m+ A
Frame rate                               : 0.362 FPS
6 E% b' @0 z8 e. h% E9 nCount of elements                        : 21539 j0 o2 g) }6 [" T
Stream size                              : 23.4 MiB (0%)
& z! w# S( t4 K5 s3 hLanguage                                 : Italian2 |  Z3 I/ _8 g3 W: s" d& @
Default                                  : No
8 K. f0 e1 G6 {3 f# B( W; hForced                                   : No% {0 O" I6 t2 t5 h3 u
Original source medium                   : Blu-ray
% D+ ]8 K+ S8 ?5 B+ X
5 W, v6 W8 y  T$ U4 RText #23
: g! H0 A( ~$ y$ oID                                       : 34, N! O$ `) X1 N
ID in the original source medium         : 4624 (0x1210). ~  K% p9 e" p' h6 q+ j3 Y
Format                                   : PGS! }  I/ e* X% J
Muxing mode                              : zlib
( c2 F1 c( T+ R; m& g9 K; QCodec ID                                 : S_HDMV/PGS
) |  _3 u; n2 a5 VCodec ID/Info                            : Picture based subtitle format used on BDs/HD-DVDs) e5 l& X- B5 a8 H& W! G2 z, W
Duration                                 : 1 h 9 min- Z( Q9 w. x2 `5 u
Bit rate                                 : 295 b/s
+ p) Z5 W& e# ]3 LFrame rate                               : 0.004 FPS+ t5 A* D5 n5 R( S" u$ t
Count of elements                        : 164 G# j  P8 D# `5 |
Stream size                              : 150 KiB (0%)0 _( m/ W+ u# h: {
Language                                 : Italian# N( Q% w% a' w* s3 d8 ~! `8 a* }2 b0 C
Default                                  : No
6 M$ l5 q  l- G  S/ W$ c! bForced                                   : No
: ~0 k' m1 U5 q! C$ T3 |8 ?& H( [Original source medium                   : Blu-ray; |9 `0 a1 p1 M( p5 @3 t. `
1 W0 @# T* c$ U- Q* o
Text #24; |% ~& R3 B) X& [5 Z
ID                                       : 355 P$ u. e1 F/ f
ID in the original source medium         : 4625 (0x1211)# H- D$ P5 {7 k" @7 r1 B
Format                                   : PGS- x3 F& a+ u' n! \7 L
Muxing mode                              : zlib+ Q- C, B5 S. L6 y
Codec ID                                 : S_HDMV/PGS8 B5 P: ?8 k/ F9 o0 \& G8 a' H* `
Codec ID/Info                            : Picture based subtitle format used on BDs/HD-DVDs
& ?; Q+ {- ]0 S' `, y& e! `Duration                                 : 1 h 39 min
# l4 d- v! v0 ^- f4 T# N% I) D. ?; JBit rate                                 : 25.8 kb/s( Q' U$ d/ u1 A8 F: \8 S* W" [- P
Frame rate                               : 0.309 FPS9 h: E: W; `; Z' O' @
Count of elements                        : 1842
3 F8 c- \- u0 I- a$ eStream size                              : 18.3 MiB (0%)# g% h  X  a) l' w, U
Language                                 : Norwegian
+ O( m7 j. v5 N$ X( i5 [! s. jDefault                                  : No
4 T. Y  @) L6 D* `: I2 K3 L: Z1 {Forced                                   : No. o7 G; z) C! F" P
Original source medium                   : Blu-ray9 i# B2 e; z% _
6 H; h! V% g5 t& h( K
Text #25
9 ]% j9 L, Q; t" [ID                                       : 36  P2 D5 C( s! ?, ]
ID in the original source medium         : 4626 (0x1212)! q( l0 F# I) |) F
Format                                   : PGS  F" h$ W3 [- v. y% }' G
Muxing mode                              : zlib
6 X4 ~  ^9 |+ kCodec ID                                 : S_HDMV/PGS
5 n1 k/ T; f7 o6 WCodec ID/Info                            : Picture based subtitle format used on BDs/HD-DVDs) t# r- h- G! `8 Z- ^
Duration                                 : 1 h 39 min
7 X% Y! j$ a1 t: j& G( k; D; i: o( wBit rate                                 : 27.0 kb/s% G/ i$ F7 P# ~$ l4 x  b8 n
Frame rate                               : 0.340 FPS
0 G$ H4 T& L; P0 qCount of elements                        : 20225 H2 d4 l3 m5 x- t& q0 W% O/ d
Stream size                              : 19.1 MiB (0%)* M  D0 y3 o  x; l/ g# o5 U
Language                                 : Polish
( Q4 S' A7 ?% J: m( a; g5 }& hDefault                                  : No5 f  W. F8 J' T6 Y# k* \( K+ H
Forced                                   : No
& C0 Q8 }; E* \3 t. h. l. O$ Z3 fOriginal source medium                   : Blu-ray- B3 W# f( M7 q, c4 Q3 G- i

- E+ K8 H4 m9 B8 ~/ V# n; pText #260 u0 f: g) s  }+ o% i. j
ID                                       : 37
% \& v3 c. ]' i5 k( s- D& SID in the original source medium         : 4627 (0x1213)
9 e$ o- a- H% q; i% W/ M2 ]Format                                   : PGS
4 j+ j0 c9 F0 t, y/ Y% ]: }3 Z$ KMuxing mode                              : zlib
  I5 B' t8 s0 L! A7 ~2 ?5 P3 {Codec ID                                 : S_HDMV/PGS# t; b7 b8 }; n  n% B% {1 q
Codec ID/Info                            : Picture based subtitle format used on BDs/HD-DVDs6 C9 Z; V0 ]/ y8 F4 t$ V8 c' }* b
Duration                                 : 1 h 39 min
" o; D6 \% d, J+ m- kBit rate                                 : 28.0 kb/s
+ e# e" p# v6 P' R3 Y# n2 i2 Q3 AFrame rate                               : 0.363 FPS
; G+ m3 e8 ?( N, Y# `" D% v3 oCount of elements                        : 2158' G) _) T0 ?5 @% a" i
Stream size                              : 19.9 MiB (0%)
  A8 {4 t/ r. k8 x* vLanguage                                 : Portuguese
( f" ^4 Y" l: s$ d! M  l0 K+ I+ n! j" zDefault                                  : No
$ y2 i  q! Q+ IForced                                   : No- m+ }  d6 M8 R6 X/ F  L
Original source medium                   : Blu-ray
  T( [0 l% `1 A! G) C8 u
& Z( n) m  t6 [# T' wText #27  c* w  P$ p7 ^$ ~2 A8 A" }
ID                                       : 385 i7 R! P& T! L% Z: l
ID in the original source medium         : 4628 (0x1214)7 N6 F& ]! f* N2 l+ `& Y- w
Format                                   : PGS3 j5 ?2 p/ |, e6 z
Muxing mode                              : zlib
9 R5 M2 p/ D. y6 F4 HCodec ID                                 : S_HDMV/PGS
: [$ ~* e3 j& {- }: @% ZCodec ID/Info                            : Picture based subtitle format used on BDs/HD-DVDs5 d5 K2 Y6 D( m  @4 c% Y0 |
Duration                                 : 1 h 39 min
  [: F9 w& _/ n2 |Bit rate                                 : 29.5 kb/s% x7 U# h6 M; U8 V
Frame rate                               : 0.341 FPS
9 _: q' [) T! O" ?Count of elements                        : 2032+ q( O& u/ t, O9 @
Stream size                              : 20.9 MiB (0%)
) x( {4 g' {" \Language                                 : Portuguese
: p  x, ?+ [0 c; z$ WDefault                                  : No7 ]* d. N- B+ S+ i
Forced                                   : No
8 m6 X1 n. n( S) OOriginal source medium                   : Blu-ray
/ x& R( Z0 y( ]& A7 D7 f- ^4 \" u2 R
Text #28) p1 g* y5 K5 r1 c0 z) V/ O
ID                                       : 39
4 J0 U" W( D7 _& m+ P2 HID in the original source medium         : 4629 (0x1215)& m9 a" T, I$ d) \( r
Format                                   : PGS' t5 [" N+ g; Q5 F- b
Muxing mode                              : zlib/ L3 U" K, V9 e2 e0 o4 a$ G
Codec ID                                 : S_HDMV/PGS
3 p) c& W3 f: t4 y  N6 _$ BCodec ID/Info                            : Picture based subtitle format used on BDs/HD-DVDs3 e4 `( Y0 l0 c( f) z  @- D
Duration                                 : 1 h 40 min
- O; ?/ [. @0 A3 `- oBit rate                                 : 25.7 kb/s
$ `& y/ r& x" i" D3 l7 ?, |& SFrame rate                               : 0.333 FPS
; w( u* A( v- W" r' [" v  YCount of elements                        : 20167 G8 Y0 J+ y. \  N: k
Stream size                              : 18.5 MiB (0%)
8 t6 l  F7 r  l) a/ ^Language                                 : Spanish
# J6 m3 i! C- e. ?  GDefault                                  : No
* \: ~# Q% s4 E. J! FForced                                   : No1 j  M; u4 P1 P; f  V8 q* m& h
Original source medium                   : Blu-ray
# a  ^- {: M5 w4 t+ O6 `8 a% W% k- O4 ?6 D# Z3 @
Text #29& x2 o+ o' _# i
ID                                       : 40
' C* {; b! k+ VID in the original source medium         : 4629 (0x1215)
* E0 q( u7 Y% l8 JFormat                                   : PGS
: Z* l3 g1 E9 XMuxing mode                              : zlib
! R+ h1 m- d3 @5 uCodec ID                                 : S_HDMV/PGS
# Y7 m0 n, X0 A9 G) c4 yCodec ID/Info                            : Picture based subtitle format used on BDs/HD-DVDs
& `. O) Z& [4 K- W1 nDuration                                 : 1 h 9 min
/ s: x5 l" R  t" c/ K. GBit rate                                 : 304 b/s
8 V( d- Q8 h% b$ [8 t! CFrame rate                               : 0.004 FPS
0 R( f- [1 r2 s7 y1 |9 vCount of elements                        : 16
9 p! K& V( z3 v, o% }6 o; NStream size                              : 154 KiB (0%)3 R) I' q) k1 ^
Language                                 : Spanish; s! p# e6 h& t& H9 ?( X
Default                                  : No2 H: ]: U# E7 r/ J0 ~6 E2 ~( s
Forced                                   : No
" X3 w* G/ n6 \, r; V" iOriginal source medium                   : Blu-ray
5 k. q$ B0 k8 Q! N1 h5 O% A0 r  ~4 @7 j2 w$ e
Text #30+ A) x: q0 ^/ N; H
ID                                       : 41: y' N/ J' r2 Y& l5 v) V0 A
ID in the original source medium         : 4630 (0x1216)
/ g/ f# j7 n' f! M1 |; KFormat                                   : PGS
# V! A- `* a% ~3 c* [; ?. BMuxing mode                              : zlib
. X. Q( b) `& i2 J0 s  b$ B3 dCodec ID                                 : S_HDMV/PGS! o. R5 y1 V8 R% R) o
Codec ID/Info                            : Picture based subtitle format used on BDs/HD-DVDs/ t9 P% J# A' i" M
Duration                                 : 1 h 40 min) I* `9 B; |+ w# t
Bit rate                                 : 31.1 kb/s5 E4 n; c' I0 g& e/ `
Frame rate                               : 0.384 FPS, V2 J% B4 z# h, P& v9 v$ N
Count of elements                        : 2324
4 d6 g& a, Q* f7 T" J# vStream size                              : 22.4 MiB (0%)( M6 W. u% [9 r$ m& K
Language                                 : Spanish5 q$ ~" x5 F) M0 N0 Z) i
Default                                  : No; u$ X' i- o' m$ j6 I
Forced                                   : No
6 K# t2 G5 l3 N2 ~( \, }Original source medium                   : Blu-ray
0 v/ R6 G" H. y' D3 Y, ~" E4 U) p2 M7 p' r. c1 R* T5 y
Text #31: O$ v. q3 R6 R% M
ID                                       : 42; E* s7 l( q2 l% z$ ~5 _2 b
ID in the original source medium         : 4630 (0x1216): C% V2 z0 X% a, x% F# L  B- a
Format                                   : PGS
7 i- v2 z$ q2 _5 Y8 U3 x& m( \: vMuxing mode                              : zlib
) ?8 Q0 H' @# SCodec ID                                 : S_HDMV/PGS  Y& ^! y" O/ o9 n! C; P0 q* w9 \( u
Codec ID/Info                            : Picture based subtitle format used on BDs/HD-DVDs8 F, v' P1 q: {+ X$ I8 r
Duration                                 : 1 h 29 min
0 t8 o% `1 m+ t& u& m& m& `, XBit rate                                 : 452 b/s
; o7 G: t3 O( p3 T8 eFrame rate                               : 0.005 FPS
6 h, g$ l# v. y4 v4 e* n: KCount of elements                        : 28! x: i- G: h$ j1 U, v0 B- z
Stream size                              : 295 KiB (0%)
3 e* d; v" h9 D; W7 m: fLanguage                                 : Spanish( J) w3 c) T2 X& N
Default                                  : No
# u+ m. l7 Y+ U8 W0 cForced                                   : No  R1 g+ G& m+ j1 k; G" t+ j- l( I
Original source medium                   : Blu-ray1 f8 S0 @% k* b7 A7 S. i& l
, D% q1 }  e$ `9 `" }7 l9 G
Text #32
. i- s* O. o1 h) w* |( U# n+ VID                                       : 43. ~( H/ P; o2 q8 W# {5 {
ID in the original source medium         : 4631 (0x1217)
) a+ O1 x( ]6 \$ R/ aFormat                                   : PGS
3 F) K) @4 c# t/ AMuxing mode                              : zlib6 a; i$ |& {9 j( s9 R
Codec ID                                 : S_HDMV/PGS
1 v0 D3 m# B- F4 NCodec ID/Info                            : Picture based subtitle format used on BDs/HD-DVDs
" f1 n0 X, c9 iDuration                                 : 1 h 43 min
8 H6 z$ q' P, J1 QBit rate                                 : 24.7 kb/s
$ I! s2 }1 O7 X- a% v. wFrame rate                               : 0.278 FPS: G: V9 H7 {0 l8 o& D2 c9 q) U
Count of elements                        : 1724
7 C7 n7 D- V+ K* ~0 _( `% M7 g3 FStream size                              : 18.3 MiB (0%)
& l& z6 o3 M) S) ?" RLanguage                                 : Swedish
5 V1 {8 x; Q2 n5 F3 T0 y/ RDefault                                  : No4 a6 z- E0 c6 j& R7 N5 O' R: J; ?
Forced                                   : No* _0 z4 }, R0 I( c+ m; Y
Original source medium                   : Blu-ray, Y6 M1 {3 y  ]
5 E" l! h7 k( i2 f" N. f
Text #33
, P5 V) X9 L1 `ID                                       : 44( O4 s8 ?8 ^- e$ N5 R
ID in the original source medium         : 4632 (0x1218)0 m9 Q7 \/ D2 e5 p5 K) r- s  [
Format                                   : PGS
/ W% |$ i+ v, C: dMuxing mode                              : zlib$ f3 q* q2 i8 z% D5 a) k9 t0 e4 q
Codec ID                                 : S_HDMV/PGS
& B  r2 A. g  T: x: y4 oCodec ID/Info                            : Picture based subtitle format used on BDs/HD-DVDs
& j. J2 [- t3 w( U. w- nDuration                                 : 1 h 43 min. w. |2 O# s* q" a8 ~2 ~
Bit rate                                 : 26.6 kb/s( P, k! q8 j$ D; ]( r/ S
Frame rate                               : 0.326 FPS
3 t. {0 B: V" U* h% r) j2 sCount of elements                        : 2026
" J! K1 C* v8 k8 W% S2 jStream size                              : 19.7 MiB (0%)2 X- e" P2 k/ t% a" S7 x7 U9 X
Language                                 : Turkish* n+ Z  G+ h3 b# _
Default                                  : No! S" A# u" [9 U& O$ l
Forced                                   : No
5 L% X+ f5 R3 R& TOriginal source medium                   : Blu-ray" L8 i+ T& }! x$ y) R

& N+ c+ ]( y1 o. T) c' X% f: `2 XText #34
& s( ^$ o) q6 ^4 A( u5 V6 hID                                       : 45+ S/ h& V" l( P9 c! Q3 p+ d
ID in the original source medium         : 4633 (0x1219)
- g: p7 C. @5 I7 E# |Format                                   : PGS
2 a* B( I/ K7 w+ ~( O3 wMuxing mode                              : zlib
4 D: S1 v! }4 k  S, OCodec ID                                 : S_HDMV/PGS
4 c1 c5 [, ~8 A. u( n5 w! N0 XCodec ID/Info                            : Picture based subtitle format used on BDs/HD-DVDs, V4 Z3 D: H7 W, y% x7 i
Duration                                 : 1 h 39 min
, v2 t" U1 e; U) N) b4 ^& p5 M, LBit rate                                 : 28.7 kb/s
  T, Y6 @! ~' ]5 A& q! s3 j8 y" h6 m7 hFrame rate                               : 0.339 FPS( R( `+ t: g+ G( C3 g3 }- a
Count of elements                        : 2016
3 P/ b" {+ r7 v& ]' u  VStream size                              : 20.4 MiB (0%)$ Z. }1 A4 z" X( ]  S' Y: c3 u7 H& ?
Language                                 : French4 y( ?1 ?$ g. a8 }4 T6 [( q
Default                                  : No5 l) B/ B' ^9 R7 O& l* B
Forced                                   : No
8 G; b' {! W7 |' i4 W4 gOriginal source medium                   : Blu-ray. o9 G% ^; v: l$ C

5 \! d$ @# J- u$ [; o4 \4 S( oText #355 u) c6 m7 @: |" ]  ^
ID                                       : 468 N: s! ^3 i: c) g% M6 N
ID in the original source medium         : 4634 (0x121A)
& t* u2 \- S0 r2 dFormat                                   : PGS4 t9 }0 p4 r0 a6 t
Muxing mode                              : zlib
$ Z* K% N. T9 }+ t! J2 o- }/ d! o1 _0 OCodec ID                                 : S_HDMV/PGS
8 D4 C; X1 K! N! O6 E  ECodec ID/Info                            : Picture based subtitle format used on BDs/HD-DVDs( @) Q( D" w  {& L- F' `
Duration                                 : 1 h 45 min1 Y$ r+ F$ e7 M; B# I
Bit rate                                 : 58.1 kb/s' e- H) M6 e- L
Frame rate                               : 0.530 FPS
4 |2 _+ \; O" x* B8 l/ w2 z6 i8 |Count of elements                        : 33517 L) `+ K* z' e
Stream size                              : 43.8 MiB (0%)/ _" _, l$ p. ?' ~% \7 L
Title                                    : COMMENTARY
1 Y9 n! e0 L$ |% e$ j% s) C& U7 tLanguage                                 : English9 W* p. I+ c) q' U# {. [) U1 c) N
Default                                  : No
- m" m% V1 ~* W3 O+ GForced                                   : No
7 C" s+ e  [6 a' w0 A4 R7 t; N$ TOriginal source medium                   : Blu-ray
0 K8 K  V8 R, Y& ]# P% j. |' z( Q: m9 a
Text #36
' z$ s( `5 i( c4 m- I  @6 fID                                       : 476 H( w% W/ {2 P/ c
ID in the original source medium         : 4635 (0x121B)8 C( b, V& X" ~
Format                                   : PGS+ w3 l. p) L1 B8 Q
Muxing mode                              : zlib' H/ N1 }7 @" T4 X
Codec ID                                 : S_HDMV/PGS
$ {6 [9 f' `4 `( J: RCodec ID/Info                            : Picture based subtitle format used on BDs/HD-DVDs
* k6 t+ a$ X0 X' H$ J8 D9 m+ uDuration                                 : 1 h 42 min, i2 L. X8 {" i% f( @# h
Bit rate                                 : 57.7 kb/s
0 D7 U+ c# F2 f6 B$ T/ x& aFrame rate                               : 0.529 FPS% I# o# F' o2 h" I
Count of elements                        : 3255
, G) z1 o) i+ v1 |Stream size                              : 42.3 MiB (0%)
  C# t" u' E, k! w( d/ ?  C. {Title                                    : COMMENTARY7 X- H% N% \3 V$ r
Language                                 : English* u# q( i: ~9 J# K6 Y5 c
Default                                  : No
! C- }4 D  v; l  gForced                                   : No5 v9 o; U/ X3 Y
Original source medium                   : Blu-ray' g; R. r; n: b% h

1 Q1 Z# Y( N4 N* n& i. ]7 _6 \Text #37
8 ?, U( r: v3 x" GID                                       : 48
' N8 W- n+ f  ~ID in the original source medium         : 4636 (0x121C)
8 H# r( h! Z' s2 |  mFormat                                   : PGS, N; S5 G% R( g( @& @
Muxing mode                              : zlib
! T4 m5 k% h, ]2 s* P' H' C2 `# z' MCodec ID                                 : S_HDMV/PGS
; F) a% [) \! S7 B1 {Codec ID/Info                            : Picture based subtitle format used on BDs/HD-DVDs6 ]! B8 h) w% B2 s6 i% K
Duration                                 : 1 h 42 min
4 U2 ?4 v/ z! m8 M/ H  \9 I4 ~Bit rate                                 : 52.2 kb/s8 l; z  x9 }8 o; g  h
Frame rate                               : 0.520 FPS1 |/ w  \% u, u0 F! f! b) ~, G4 p5 J
Count of elements                        : 31957 p9 ~3 X- R0 E1 Y" d  N4 }" d$ k1 t
Stream size                              : 38.3 MiB (0%)
5 g3 a7 b7 ^2 R) u0 C. DTitle                                    : COMMENTARY
% L: e* p* C, d! ZLanguage                                 : French
: |. j% g* B5 u" ^2 DDefault                                  : No
* q8 M6 D/ l5 R! L  Z, N5 KForced                                   : No% W! i1 h9 _- m4 I, p
Original source medium                   : Blu-ray3 F8 v0 c8 K4 C" W; G9 J2 p/ k# A

% ^' i, p* ]* x& s# MText #38
$ \* Z0 L* C  J+ [, C7 oID                                       : 49
( F& ^9 z- @" J$ T2 C! [ID in the original source medium         : 4637 (0x121D)% W$ u' K" r' E% i7 p  L
Format                                   : PGS
1 E' y6 G; \9 Z! m) hMuxing mode                              : zlib% r/ ^4 j# k  l: q; b
Codec ID                                 : S_HDMV/PGS
6 T' m8 A  v$ ~+ ICodec ID/Info                            : Picture based subtitle format used on BDs/HD-DVDs
- S7 f+ ^5 W6 n( }' s9 TDuration                                 : 1 h 42 min
* r1 ?7 t# F  U# KBit rate                                 : 55.4 kb/s
( |$ L9 i% J* n0 o, PFrame rate                               : 0.527 FPS
) A4 j7 |8 F8 I  K: n  ^; ~8 [Count of elements                        : 3239: g; _  {% a$ ?
Stream size                              : 40.6 MiB (0%)8 I2 t( t+ G) B: v2 ~( g
Title                                    : COMMENTARY
* v1 q0 v) o/ L) w4 M3 gLanguage                                 : German
$ u$ G0 T/ N& z- YDefault                                  : No' S& r$ }) k- w5 C
Forced                                   : No( r& k' e/ Z& U$ ~
Original source medium                   : Blu-ray
! m) y% e6 S; b% n8 i
+ z  R9 R0 X" B6 C4 q! X" bText #39* r. r& L1 e$ n/ \6 s4 o, P
ID                                       : 50
+ w) g5 k1 u3 d6 @8 w) ]ID in the original source medium         : 4638 (0x121E)" z  A" u2 o, ~1 L1 [
Format                                   : PGS
# @/ @' @) H) a/ vMuxing mode                              : zlib
2 C6 C3 t) [/ {2 K3 _) {, WCodec ID                                 : S_HDMV/PGS
" U# S" S) q4 c* n; b" rCodec ID/Info                            : Picture based subtitle format used on BDs/HD-DVDs1 r0 D. L/ j- ~8 Q
Duration                                 : 1 h 42 min
( l: z- F% v7 C8 sBit rate                                 : 57.3 kb/s2 b  i  m# I9 |6 v) h0 l
Frame rate                               : 0.525 FPS
/ \2 x% T0 }7 S2 v; a) kCount of elements                        : 3231: W: N- {- K) l; V
Stream size                              : 42.0 MiB (0%)
& Y0 k9 i' m0 i; ]$ aTitle                                    : COMMENTARY
" _  z- ~; x- c" P; H% YLanguage                                 : Italian/ c) R4 \, r, l9 Y3 z* y
Default                                  : No$ Z+ H8 m9 \: s; P. z& M/ R$ s" W
Forced                                   : No
8 @1 j8 W' j" `+ AOriginal source medium                   : Blu-ray9 C, D/ a+ Y. A* Z- h% y
4 s% s& r" l) R4 n1 G. N) a8 q* i
Text #40
' I* Y- o+ Y+ v/ H' GID                                       : 51
3 i' U* k4 v6 u* QID in the original source medium         : 4639 (0x121F)
$ X  p# |  ~2 C! w5 ZFormat                                   : PGS
' o; G2 Y% a( bMuxing mode                              : zlib
& Y# g* f  r: S6 H4 xCodec ID                                 : S_HDMV/PGS
5 }0 t$ t! p8 J5 q( v: {Codec ID/Info                            : Picture based subtitle format used on BDs/HD-DVDs
: S9 ]# u: q7 ~$ C" `Duration                                 : 1 h 42 min5 G2 C/ d; b0 L4 U
Bit rate                                 : 48.8 kb/s
( U9 d! [3 K/ U0 S3 XFrame rate                               : 0.527 FPS
* v# H8 R; g2 R% O# NCount of elements                        : 3241
, b# p1 C, l, Q$ d" gStream size                              : 35.7 MiB (0%)0 Z! x" Q: v8 t7 l$ q& I
Title                                    : COMMENTARY
7 @# Z7 o9 G- m( B4 fLanguage                                 : Spanish
$ a. V1 I# @! k1 `Default                                  : No: ^3 Y% ]) a+ _9 Z2 B  s3 l, y( U
Forced                                   : No* D& K: E" r1 H5 D
Original source medium                   : Blu-ray1 J( f9 K( \6 g5 o

" _4 x/ S7 G; m# mMenu& b7 I3 A4 X$ e( s
00:00:00.000                             : en:Chapter 01
5 o4 L# G' R! U00:05:52.060                             : en:Chapter 02
6 V" y# s' e8 f9 n00:12:00.678                             : en:Chapter 03- l) L; c1 x4 U* L  h; C
00:19:19.992                             : en:Chapter 04- i5 U: o& O5 b" |- E
00:26:55.280                             : en:Chapter 059 L7 d/ }) B# W( d" [: r
00:32:59.185                             : en:Chapter 06) A6 i# s8 Y3 J- I# ~
00:40:46.026                             : en:Chapter 077 A7 _8 |7 _" [* c- z3 W
00:47:58.000                             : en:Chapter 08+ T$ y& N, d9 Y( M  A/ P) s
00:52:49.916                             : en:Chapter 09
: w4 o) @( G  Z( I01:00:27.624                             : en:Chapter 10! N, S) I) m0 K. l3 A8 D, Y
01:05:56.202                             : en:Chapter 11- h$ ?8 _2 g# P. @4 o. t% F) }
01:18:15.524                             : en:Chapter 12) b! ^) @* k" B
01:26:06.244                             : en:Chapter 13& U& E7 k7 I- u8 i( U3 g3 C$ A+ k
01:32:36.801                             : en:Chapter 14
6 ^3 a6 c* j) |8 }01:36:46.175                             : en:Chapter 15' u+ R! C1 {" @- |
01:39:59.660                             : en:Chapter 16
6 r6 _1 @$ k- f  o
游客,查看本帖隐藏内容请回复 | 加入VIP可免积分免回复 了解详情 | 还不是会员:点击获取邀请码 Invitation Code

3

主题

601

帖子

2565

积分

Sponsor

金币
588 枚
体力
874 点
211 发表于 2022-9-24 00:44:32 | 显示全部楼层
果断回帖,如果沉了就是我弄沉的感觉很有成就感!" A' i7 e9 |: d4 _, {+ L6 w0 Y( J
The decisive Replies sink is I get the sinking feeling great sense of accomplishment!2 D' s4 P) ]  x$ C6 |

本版积分规则

小黑屋|Archiver|4K蓝光论坛

GMT+8, 2022-12-4 09:22

Copyright © Tencent Cloud.

快速回复 返回顶部 返回列表