BluRayCD Forum

 找回密码
 立即注册【分享大片】
查看: 13|回复: 1
收起左侧

[剧情悬疑] 萨德侯爵 De Sade 1969 1080p BluRaycd x264-EUBDS 10.60GB

[复制链接]

1万

主题

1万

帖子

10万

积分

Post Share

金币
171 枚
体力
26705 点

卓越贡献勋章VIP黄金勋章诚信会员勋章

mvods 发表于 2022-9-26 15:02:59 | 显示全部楼层 |阅读模式

  n. ~. X2 g' l& S
) k# A+ \8 I3 }; {, O% G% H4 w◎译  名 萨德侯爵
( J6 N4 f* N2 V4 K◎片  名 De Sade / Das ausschweifende Leben des Marquis de Sade
' U1 |) A3 |6 _, }◎年  代 1969) [, V5 Y) Z8 d) p5 l
◎产  地 西德/美国
  ^% X* x) g5 l9 p; l◎类  别 剧情/历史/惊悚/传记
8 e( N0 G+ Z: w4 u7 ~/ d) a8 B◎语  言 英语
' J) v% Z8 c# S) ^3 ~+ X+ u◎上映日期 1969-08-27(美国)
3 B1 G1 R" @/ |# l; S) K◎IMDb评分  4.1/10 from 707 users
! E  ^% T, n8 @1 h9 N0 ^◎IMDb链接  https://www.imdb.com/title/tt0064212/
7 r2 _* `* p. y) j; X" V' L◎豆瓣评分 0/10 from 0 users
3 m1 b7 a: d" D/ g, p) _◎豆瓣链接 https://movie.douban.com/subject/3063508/
& Z  y# {( q: n8 I! ?◎片  长 1 h 43 min
  o* q* G& w. j◎导  演 罗杰·科曼 Roger Corman3 D5 C7 Q9 J( Y) K8 ?
       赛·恩菲尔德 Cy Endfield7 z  p$ l/ ]' T9 K7 F# `2 s
       戈登·贺斯勒 Gordon Hessler. c4 X: O# P# F; i3 R9 }
◎编  剧 理查德·麦瑟森 Richard Matheson
7 o/ ?' S% c2 m  |1 T, v% F, P◎演  员 莉莉·帕尔默 Lilli Palmer# U( L" i- G! A7 L, ^
       Susanne von Almassy+ z- ]6 I3 R- h, z5 }" O
       索妮娅·齐曼 Sonja Ziemann
( Z# m) k- x5 z9 y" d* f3 [       弗里德里·希肖恩菲 Friedrich Schoenfelder
5 K, x+ F" b( I       Uta Levka
1 ~8 O7 j9 S* Y/ X0 L       Tilly Lauenstein
6 p" R- V4 h4 [$ E6 n( \2 c       Susanne Hsiao
4 e) s: i& Y. ^       Rolf Eden % z, H0 i5 Y3 Q& l# g. V8 f6 a
       凯尔·杜拉 Keir Dullea
9 M3 M: f3 N0 q5 @. j& B       Herbert Weissbach
. H! N4 A2 A: d" S1 u% D       约翰·休斯顿 John Huston. q. w2 P9 [! T& I& z1 E
       克里斯蒂亚娜·克吕格尔 Christiane Krüger  X' t  a4 P! x
       安娜·玛西 Anna Massey# K3 }9 W1 ~0 `$ a8 z4 `  Z
       森塔·伯格 Senta Berger5 ^6 `/ n" }0 y
       James H. Nicholson 1 T% ?$ E7 ]- K: x* H8 I: g
       路易斯·M·海沃德 Louis M. Heyward
5 Q# ]0 j! @! ~2 \( l. Y& ]       萨缪尔·Z·阿克夫 Samuel Z. Arkoff
2 G' T( G) _& i& k3 _" H, l) X       艾特·布奥尼 Artur Brauner
- w( i+ z4 O" r       Billy Strange * M/ e. Y& I* T7 g$ W
       Richard Angst
$ u/ p& x5 [  v6 c       Hermann Haller 8 x. E5 }/ O- H' |8 K8 `4 i/ k
       汉斯·于尔根·基巴赫 Hans Jürgen Kiebach$ M% V4 C3 Q( i9 d! Q; f8 Z
       Evangeline Harrison
% T: O- S3 l; f; d1 D  a- U, K( f6 A  Y# e! a; M
◎简  介   6 n' j1 |$ F) o4 x3 \( N& u

) w0 I5 O' O! Y% S; V5 n  Hounded by the police on charges of inflammatory writing, the once handsome Marquis De Sade seeks refuge in an abandoned family mansion. This colorful movie depicts DeSade's life from childhood to manhood. A life infamous for erotic behavior, going from woman to woman, seeking a love that eludes him., z9 S, e2 p( k+ X  P
Video) {) \9 K% K5 W" P& W( S% U8 U) |& F
ID                                       : 1
1 g3 S, u( _# u7 ~: O- BFormat                                   : AVC( \7 M4 [% U' s" u- C1 y+ M
Format/Info                              : Advanced Video Codec8 E0 ^$ r/ z2 L9 L/ s" V
Format profile                           : [email protected]
: {1 }6 y: a, e, I7 CFormat settings                          : CABAC / 4 Ref Frames
. g  z; X% N8 H, m; B8 s: u/ R* L+ kFormat settings, CABAC                   : Yes
0 O, r7 w$ ]1 I: M" L" LFormat settings, Reference frames        : 4 frames; H) V* _- @. f2 P. C* S
Codec ID                                 : V_MPEG4/ISO/AVC4 g7 o0 ]) |5 ~; G
Duration                                 : 1 h 43 min
6 n4 a1 u' q! W) [- \Bit rate                                 : 13.9 Mb/s
1 m; Z5 G0 ~/ s8 D! _/ ~1 uWidth                                    : 1 920 pixels
! R/ N3 N& \! W' a" l' ^Height                                   : 1 080 pixels
2 Q2 W6 f% J# [* L2 w) Q, YDisplay aspect ratio                     : 16:9; E0 S/ u3 D: G, x8 E
Frame rate mode                          : Constant* s( a2 }' O$ m9 w$ u
Frame rate                               : 24.000 FPS
5 p" b/ O: J3 D' U  n( RColor space                              : YUV
  i- X2 }9 `4 e$ l3 {5 rChroma subsampling                       : 4:2:0" h6 j( o  Z5 L6 n. j( Z0 \
Bit depth                                : 8 bits/ L4 H9 f+ B: B  H7 s% x9 n* \
Scan type                                : Progressive# |* K# k# S; ]7 T
Bits/(Pixel*Frame)                       : 0.280
9 @* q  F4 O- l5 `Stream size                              : 10.1 GiB (95%)
8 J5 \$ h% T4 V. NWriting library                          : x264 core 164 r3095 baee400
; v6 `2 W4 }  r8 _4 G  w: NEncoding settings                        : cabac=1 / ref=4 / deblock=1:-3:-3 / analyse=0x3:0x133 / me=umh / subme=11 / psy=1 / psy_rd=1.02:0.00 / mixed_ref=1 / me_range=32 / chroma_me=1 / trellis=2 / 8x8dct=1 / cqm=0 / deadzone=21,11 / fast_pskip=0 / chroma_qp_offset=-2 / threads=34 / lookahead_threads=8 / sliced_threads=0 / nr=0 / decimate=0 / interlaced=0 / bluray_compat=0 / constrained_intra=0 / bframes=16 / b_pyramid=2 / b_adapt=2 / b_bias=0 / direct=3 / weightb=1 / open_gop=0 / weightp=2 / keyint=250 / keyint_min=24 / scenecut=40 / intra_refresh=0 / rc_lookahead=250 / rc=crf / mbtree=0 / crf=18.8 / qcomp=0.60 / qpmin=0 / qpmax=69 / qpstep=4 / vbv_maxrate=62500 / vbv_bufsize=78125 / crf_max=0.0 / nal_hrd=none / filler=0 / ip_ratio=1.30 / pb_ratio=1.20 / aq=3:0.80
4 v6 R8 m1 V; LDefault                                  : Yes
; q$ R9 p& T4 O: X! s' E! U/ gForced                                   : No+ K- g, N) S0 [1 c$ g( K
Color range                              : Limited
* \9 U% _3 _! m  @* s+ C; `& pColor primaries                          : BT.709+ h) o1 }# \! e. c* ?, c
Matrix coefficients                      : BT.709. P! l  g/ T; L1 R! e4 d

% x; U$ ]% E3 [, PAudio #1- }5 O5 M+ B9 Q  Y+ v- n% o! N
ID                                       : 2
0 A8 H; o' K. `1 G' _Format                                   : FLAC
0 [& F4 D3 F: t0 f8 n' }Format/Info                              : Free Lossless Audio Codec; m7 x3 c' p$ c# N
Codec ID                                 : A_FLAC) A# d) \5 b0 U8 y. B0 x/ A* B' g; q6 ]
Duration                                 : 1 h 43 min* V6 N- T. Q; `9 @
Bit rate mode                            : Variable
. \# d# ^. J' i, jBit rate                                 : 665 kb/s
- W. @/ C3 |0 A0 t( W/ tChannel(s)                               : 2 channels
8 q& Y! P0 b( m) K  Y' c7 g, nChannel layout                           : L R
6 t) a/ J1 d$ \2 r: b3 \) xSampling rate                            : 48.0 kHz; J  J0 e6 }4 D2 D6 K0 Z/ B( J
Frame rate                               : 11.719 FPS (4096 SPF)) ~, I0 R/ A  F1 D6 K0 T
Bit depth                                : 24 bits, j0 j  w' L- C
Compression mode                         : Lossless5 w* V7 h* ]; O, N0 ?
Stream size                              : 492 MiB (5%)- b+ O: i" k# B2 }0 q5 ^5 P5 q2 S
Writing library                          : libFLAC 1.2.1 (UTC 2007-09-17)8 w$ ?4 U" C" t
Language                                 : English4 G% J% Y$ {6 U2 x9 P
Default                                  : Yes
* @. w5 \3 H  l  @Forced                                   : No/ P( \( p3 I2 q2 H, L% ?
6 Y3 y) ~* H3 J2 w! l5 q
Audio #2
' M+ u' M; |, u8 c; L- t- OID                                       : 3
( c* v- U! M- I! EFormat                                   : AAC LC' v& o. h1 t; B: g
Format/Info                              : Advanced Audio Codec Low Complexity
# N, W8 }- c0 y0 k# F8 BCodec ID                                 : A_AAC-2
% G  @. F6 h6 S* f1 fDuration                                 : 1 h 43 min8 d+ W( u  }* _' ^
Bit rate                                 : 77.6 kb/s& n3 h+ B# U: s+ h; F. g& x. R
Channel(s)                               : 2 channels
# F: R+ x$ [# G8 d0 DChannel layout                           : L R
8 c) `, g4 N4 pSampling rate                            : 48.0 kHz  U2 n" h1 j- t! `
Frame rate                               : 46.875 FPS (1024 SPF)
- m% m+ K0 p4 Q" c2 u9 _2 M$ HCompression mode                         : Lossy, }4 g9 x, z+ r( P
Stream size                              : 57.4 MiB (0%)1 G7 \$ l9 W/ l" @  u
Title                                    : Commentary by novelist and critic Tim Lucas
, D* `  m1 \$ G  h# N  \- F- Z( tLanguage                                 : English
  _3 v" p+ T6 NDefault                                  : No, h2 S: m6 Y( R; S
Forced                                   : No
& D+ j$ {, P+ z0 [# T: a! ~# N8 P  N" q7 ^1 \" G
Text2 v+ _5 p. e. w; p4 T4 L* H/ P  q. h
ID                                       : 4
% ~1 g/ Z/ q5 Z$ e* S3 ?Format                                   : PGS
9 h5 y  A$ u4 j, K4 x/ WMuxing mode                              : zlib
6 {* K8 Y8 l  f, l: Y$ iCodec ID                                 : S_HDMV/PGS
" z& \0 ^( g# Z# XCodec ID/Info                            : Picture based subtitle format used on BDs/HD-DVDs4 [* v0 m& P& q6 B7 ]4 R* o, V
Duration                                 : 1 h 42 min: o/ C5 P; E& X; X: Q
Bit rate                                 : 15.6 kb/s
# c& k# |" c+ E+ g$ r( y$ UFrame rate                               : 0.390 FPS, ]( ^) T9 s3 V) a/ x: L
Count of elements                        : 2397
1 j# J- t4 F  L+ A, G/ @Stream size                              : 11.4 MiB (0%)
, f# W; s. |6 ~$ U* R% OLanguage                                 : English
6 p& X1 z" N, dDefault                                  : No; o9 M& V" H& {5 T7 r
Forced                                   : No
% v: j4 g' `$ e; U6 N  C
- M" d3 _5 Z6 y  e% X5 IMenu+ I" Z! `0 u" q) o- m' @6 f0 {* M
00:00:00.000                             : :Chapter 018 H+ D1 F1 f3 D8 F5 X( {* W7 x
00:05:02.208                             : :Chapter 02* P$ |* J/ ]$ Q' I( ]8 p9 M
00:12:15.042                             : :Chapter 03
! v$ @. i+ b! }+ X, M& ^! d$ F00:20:39.458                             : :Chapter 04" @& D( \' G% t, B* Q
00:27:29.167                             : :Chapter 05+ o! l3 g% k4 l
00:35:22.875                             : :Chapter 064 A, `% A, q  T* p
00:45:28.333                             : :Chapter 074 t: ]' y+ e9 _  }+ f- X* t% `' q
00:53:48.375                             : :Chapter 08
  W& g- g# y3 [/ l2 w+ p01:02:12.333                             : :Chapter 09
5 x/ P  s6 M+ x+ a- ~01:07:54.125                             : :Chapter 10
% y1 r9 q: G. s+ D; o1 i01:15:03.083                             : :Chapter 11
' x: e/ ~, |# q8 P9 x. R01:22:53.583                             : :Chapter 123 ^& i3 O3 C# h: O
01:32:27.042                             : :Chapter 13
1 W! T9 u6 w$ G% e01:42:45.750                             : :Chapter 14
, O& t' e" D- ]7 C! S6 M
游客,查看本帖隐藏内容请回复 | 加入VIP可免积分免回复 了解详情 | 还不是会员:点击获取邀请码 Invitation Code

0

主题

143

帖子

785

积分

Sponsor

金币
4 枚
体力
494 点
QQ
一见哈哈笑 发表于 2022-9-26 18:23:09 | 显示全部楼层
感谢楼主,感谢

本版积分规则

小黑屋|Archiver|4K蓝光论坛

GMT+8, 2022-12-4 09:45

Copyright © Tencent Cloud.

快速回复 返回顶部 返回列表