BluRayCD Forum

 找回密码
 立即注册【分享大片】
查看: 17|回复: 2
收起左侧

[剧情悬疑] 新旧 New Old 1979 FRENCH 1080p BluRaycd x264 DD2.0-NOGRP 6.39GB

[复制链接]

1万

主题

1万

帖子

10万

积分

Post Share

金币
171 枚
体力
26705 点

卓越贡献勋章VIP黄金勋章诚信会员勋章

mvods 发表于 2022-9-26 16:35:51 | 显示全部楼层 |阅读模式
6 |# s4 o7 n: u# ?
1 T7 `( V/ |  b, a* k
◎译  名 新旧
% X2 _0 ^8 O9 r! v  U5 }: u. m3 y◎片  名 New old / New old ou les chroniques du temps présent3 L2 `+ h0 O9 f: I' v% M8 D. b$ V
◎年  代 1979% r, F; P% v$ _0 e! {( {0 n
◎产  地 法国9 K$ l, y: N/ v
◎类  别 剧情
" Z! c) k5 {6 g9 [5 S/ x, |◎语  言 法语* m/ R7 `: ?' N2 P
◎上映日期 1979-11-21(法国)# t/ i9 |1 r( v2 R  S) e: Q
◎IMDb评分  6.9/10 from 86 users9 f: h. Z& o! S9 y
◎IMDb链接  https://www.imdb.com/title/tt0228637/9 d! L) ~$ a7 g# n# @# ~/ l7 ^
◎豆瓣评分 0/10 from 0 users
& u8 Z4 V# F. b6 ?( a+ w' T◎豆瓣链接 https://movie.douban.com/subject/3920372/
  e8 A+ E$ C2 S2 V9 E0 Z◎片  长 1 h 6 min
% P& p8 k- Z/ f◎导  演 皮埃尔·克里蒙地 Pierre Clémenti; C9 a/ g/ c& K, G1 [. W3 g
◎编  剧 皮埃尔·克里蒙地 Pierre Clémenti; K6 U6 m/ C( d/ }- v- Q, C9 x
◎演  员 皮埃尔·克里蒙地 Pierre Clémenti+ s! i& g+ O' R( s3 }: R# e
       Maurice Béjart
2 S- p4 V6 j: ~       维娃 Viva
0 e1 o( u  h3 l       皮埃尔·克里蒙地 Pierre Clémenti% X5 m  A5 j( D- S" ]
" |* ]7 F# Y  X# \
◎简  介   ! h% U. X- s4 @9 A

& N9 N6 `$ I5 h+ u) S. T9 u- [  "Chronicles of the Present Times" - An experimental trilogy comprising 'Visa De Censure No.X', 'Livre De Famille' and 'Anima Mundi'. New Old flows together footage from more than a decade of his wandering between scenes, sets, and drugs, an accelerated world tour through various iterations of the counterculture.
- p% f/ G  k2 z# y' D' }
Video
& U3 X$ j. n: qID : 1, |  s/ M# C# l7 u
Format : AVC  S- r6 X( q# ?
Format/Info : Advanced Video Codec
- s. J5 p; V; o" M, ^, O8 ^Format profile : High@L4.13 {! |5 n" s- {* v3 q2 T
Format settings : CABAC / 5 Ref Frames
! B0 n1 E5 d4 q3 ^% c; ~7 A: xFormat settings, CABAC : Yes" U" `  W1 X; I* D, M
Format settings, Reference frames : 5 frames
. K: {5 m7 Z* A+ s" M, `5 TCodec ID : V_MPEG4/ISO/AVC2 \. [; o# V6 p! i
Duration : 1 h 6 min
' F5 u! c* M, T7 |- R) a  nBit rate : 13.2 Mb/s
5 G3 i! P1 r( T' [+ \) qWidth : 1 440 pixels  ]* V1 A, g0 Q$ U
Height : 1 080 pixels
2 P$ _5 y9 f7 t2 v2 a6 u7 fDisplay aspect ratio : 4:3/ x* r# I( n! A6 D. ^, {
Frame rate mode : Constant
# W9 Q4 Y' h! WFrame rate : 24.000 FPS
9 n1 P/ H4 g( l# F1 q3 `9 hColor space : YUV/ J1 B4 Z# p- p+ B2 k
Chroma subsampling : 4:2:0) F1 C. `# j( S" l2 ^9 Z$ l
Bit depth : 8 bits! l- O1 H- r1 Q  _, {* |0 d
Scan type : Progressive
# R7 O2 x4 t1 ?! K9 [* }! F1 xBits/(Pixel*Frame) : 0.355
0 H: Z( `! I3 O9 tStream size : 6.17 GiB (97%)4 A) q0 ~. n$ L$ N
Writing library : x264 core 164 r3065 ae03d92  c. Y7 ?) Z, d4 X% W
Encoding settings : cabac=1 / ref=5 / deblock=1:-3:-3 / analyse=0x3:0x133 / me=umh / subme=10 / psy=1 / psy_rd=1.00:0.00 / mixed_ref=1 / me_range=32 / chroma_me=1 / trellis=2 / 8x8dct=1 / cqm=0 / deadzone=21,11 / fast_pskip=0 / chroma_qp_offset=-2 / threads=9 / lookahead_threads=2 / sliced_threads=0 / nr=0 / decimate=1 / interlaced=0 / bluray_compat=0 / constrained_intra=0 / bframes=16 / b_pyramid=2 / b_adapt=2 / b_bias=0 / direct=3 / weightb=1 / open_gop=0 / weightp=2 / keyint=240 / keyint_min=24 / scenecut=40 / intra_refresh=0 / rc_lookahead=60 / rc=crf / mbtree=0 / crf=21.8 / qcomp=0.60 / qpmin=0 / qpmax=69 / qpstep=4 / vbv_maxrate=62500 / vbv_bufsize=78125 / crf_max=0.0 / nal_hrd=none / filler=0 / ip_ratio=1.40 / pb_ratio=1.30 / aq=1:1.00
1 c  b( Z# _9 N* k4 A; w* ]Default : Yes) |1 p: K5 e; |) F) c+ O
Forced : No
' V' p& @) J+ T% S" ~, ~8 {% F$ RColor range : Limited! }  E. B; e0 n+ I5 X# o( H
Color primaries : BT.709
9 M% U- i% u9 g( fTransfer characteristics : BT.709
7 ^/ J7 {7 U1 h' @# tMatrix coefficients : BT.7091 Y# a% U& N5 A4 y& r+ I' k' C3 m

5 k/ C' }, \3 c2 BAudio/ d6 @8 @9 H. x( C
ID : 2" U& i) p* [$ q! ]; _9 O; }& y
Format : AC-3
2 X4 T, C; @; `0 aFormat/Info : Audio Coding 3
: h! |. v7 T9 M! I. }5 O% zCommercial name : Dolby Digital
( _2 o2 `- B9 Q$ u& e7 _Codec ID : A_AC3
* M  B3 W# z3 c9 BDuration : 1 h 6 min% ?/ h6 w: q5 m. N3 @. X
Bit rate mode : Constant
) D  D% x: d  I1 [Bit rate : 448 kb/s
$ _2 k. }2 \. g# Q; A6 N- U; ^4 SChannel(s) : 2 channels  G6 d2 F) E% U- E% P
Channel layout : L R) m/ W0 X! `# @& t& Z% B- b
Sampling rate : 48.0 kHz
0 L! o7 v) P8 kFrame rate : 31.250 FPS (1536 SPF)
3 A$ [. o2 ]+ YCompression mode : Lossy- C0 h7 ?' @1 n- {0 M
Stream size : 214 MiB (3%)
0 B( N1 V& g, `Language : French
3 v) J0 f: g! V) c2 Y0 t3 BService kind : Complete Main
3 g0 |& I& ~, s$ O; Y4 y* }Default : Yes0 S: d9 S0 X* P/ @, F  M: L" W* U" J- `2 A
Forced : No# C3 x1 V/ v8 B/ _( c" G4 a8 Y1 C

' e4 v+ F7 U0 ]( C' NText #1# Y4 w/ `7 x- }) W% N4 s7 n
ID : 3' R9 }( w1 N+ Q. j
Format : UTF-8
( _* N% @- d& K( C. RCodec ID : S_TEXT/UTF8
+ O. l/ E- f: y; ]2 s$ ?Codec ID/Info : UTF-8 Plain Text# d/ E! o( ?( D/ o$ s9 o- D9 M
Duration : 1 h 5 min
$ [6 ^0 i3 w9 Y/ Y9 D7 ]0 kBit rate : 16 b/s
5 H0 P+ L9 ^( F4 V1 |4 V; W7 c6 zFrame rate : 0.062 FPS2 F& d0 Z: s: m( F  C; [
Count of elements : 243$ o5 U& a  _9 [5 x' T5 @: ]. x
Stream size : 7.74 KiB (0%)" x( u! i' `% j6 Y+ K7 \" a' Q
Language : English/ K+ R: u( u# C0 \# @7 ^
Default : Yes. l6 U# r1 _7 r& B3 q
Forced : No
  s- N# _  G  a8 m# R
$ d2 c+ [+ V- S+ RText #2
( ?/ k4 X8 c$ h% [. W0 ?# D/ a0 jID : 4. W( ^1 m. y& P' D- h
Format : PGS0 k3 D# z# `$ |) `7 e9 m1 R
Muxing mode : zlib2 z+ T1 k* |: _- z7 N
Codec ID : S_HDMV/PGS/ [* ?/ r/ ?( N+ T
Codec ID/Info : Picture based subtitle format used on BDs/HD-DVDs
" F# i& }+ I' g3 ADuration : 1 h 5 min
" D0 Z4 H( T" I) y' I0 K* eBit rate : 8 877 b/s) N9 I4 m1 G6 U
Frame rate : 0.124 FPS2 N/ F( }; S- t1 s" ^9 \" C2 K3 f
Count of elements : 486  `' Y9 u( @+ m; W6 e
Stream size : 4.13 MiB (0%)
. K. @1 e9 Q" d7 M. T; JLanguage : English9 c( j, Q/ i. L+ s8 g+ k9 _  h
Default : No, U/ {4 h$ v0 v, r* [3 a5 B# c
Forced : No
# ~3 t; B+ D" }1 W4 C6 p  x3 O, z
Text #31 E# U, H" e  |9 V1 ]  B/ y- N( {
ID : 5
& O1 s0 \+ S- N/ F/ Z3 W$ `Format : PGS
$ H3 G- w- o. c+ VMuxing mode : zlib
8 w- v8 w+ c+ B' @# }/ ]" cCodec ID : S_HDMV/PGS
' ?5 }' q! a* L+ d, LCodec ID/Info : Picture based subtitle format used on BDs/HD-DVDs, }  u' Z) N' U0 X5 f
Duration : 53 min 43 s
' Y9 ^3 G' q- h$ R  BBit rate : 12.9 kb/s
; w. D% g6 u! p4 r( J1 @: LFrame rate : 0.170 FPS' S( b4 p5 C! q+ E# _+ r
Count of elements : 5485 V" N5 i) w+ c$ Z! n
Stream size : 4.94 MiB (0%)8 C6 }4 g$ q: V% L
Language : French
2 ~$ \& h1 k7 rDefault : No
. b8 S$ i# Y& ?, k* ?, x: EForced : No6 Q- j. m8 u4 E1 a8 Q* q4 f; i
# m7 }, ?% D! u( I5 A& f5 Z( f6 n& N' u2 B
Menu
$ p6 ~2 ^, w" S00:00:00.000 : :Chapter 1
. m8 d1 S( e' X3 c0 \/ g) X) d00:00:22.000 : :Chapter 2
' u& g# n- x& x/ C! L. T+ u00:10:36.833 : :Chapter 3
9 S0 Q8 T% V# S7 ^2 c- v% z00:20:56.083 : :Chapter 4
- J  K+ K6 t$ j00:31:58.708 : :Chapter 5' V* I- ?- v' g! v
00:42:00.250 : :Chapter 6
" I) V7 X, Z0 m3 W% U" S00:51:35.583 : :Chapter 76 X3 s3 B4 j' M5 w
01:00:05.250 : :Chapter 8
) f- _) @- u7 @
游客,查看本帖隐藏内容请回复 | 加入VIP可免积分免回复 了解详情 | 还不是会员:点击获取邀请码 Invitation Code

0

主题

143

帖子

785

积分

Sponsor

金币
4 枚
体力
494 点
QQ
一见哈哈笑 发表于 2022-9-27 11:12:55 | 显示全部楼层
感谢楼主,感谢

31

主题

2549

帖子

1万

积分

Sponsor

金币
1803 枚
体力
6847 点
QQ
shiji1973 发表于 2022-9-27 13:29:29 | 显示全部楼层
沙发是抢的而不是占的!) [0 S+ Y0 t. S, b
至少是现在,我一天没有访问蓝光电影论坛就不爽!At least now, my day did not visit the Blu-ray Film Forum on unhappy!7 I, U3 l) `  ]; E5 L% F

本版积分规则

小黑屋|Archiver|4K蓝光论坛

GMT+8, 2022-12-4 08:59

Copyright © Tencent Cloud.

快速回复 返回顶部 返回列表