BluRayCD Forum

 找回密码
 立即注册【分享大片】
查看: 21|回复: 1
收起左侧

[喜剧爱情] 梦想者四夜/一个梦想者的四个夜晚/一个男人的四个夜晚/白夜 Four Nights of a Dreamer 1971 FRENCH 1080p BluRaycd x264 FLAC 2.0-HDS 10.73GB

[复制链接]

1万

主题

1万

帖子

10万

积分

Post Share

金币
171 枚
体力
26705 点

卓越贡献勋章VIP黄金勋章诚信会员勋章

mvods 发表于 2022-9-26 17:00:05 | 显示全部楼层 |阅读模式

( m5 t3 d1 R1 ]* Q" x8 r: y$ M( u& P, H- {
◎译  名 梦想者四夜/一个梦想者的四个夜晚/一个男人的四个夜晚/白夜
6 y& u5 L% A5 Q; Y, M4 r/ `◎片  名 Quatre nuits d'un rêveur / Four Nights of a Dreamer
; s1 A# Q) O5 ^+ E◎年  代 1971
$ m7 ~% G# J6 C) v3 g1 A: {. k◎产  地 法国/意大利; E1 g7 C0 X& u% i
◎类  别 剧情/爱情* A  Q1 U, i0 H0 y" X" H& o
◎语  言 法语/ {5 s/ G# D7 |  _9 ~
◎上映日期 1971-06-29(西德)/1972-02-02(法国)! V. k" }) w2 s2 ]$ e
◎IMDb评分  7.4/10 from 2,676 users( c; g; s0 y. w, Z: L
◎IMDb链接  https://www.imdb.com/title/tt0067641/* U$ X6 S: u) J) J; h) {5 O; o3 T( g
◎豆瓣评分 8.1/10 from 3,593 users 2 [  i- d+ p( H) m0 M1 x. V
◎豆瓣链接 https://movie.douban.com/subject/1440978/6 ~# z. `2 z* C% k  x
◎片  长 1 h 22 min' F2 I0 u; e1 y4 ~8 i
◎导  演 罗伯特·布列松 Robert Bresson7 Z6 U) u! _; g
◎编  剧 罗伯特·布列松 Robert Bresson, ]+ r' V5 x1 m# @% m
       费奥多尔·陀思妥耶夫斯基 Fyodor Dostoyevsky
  m; l. C% P  Z, w3 D7 f. M* m◎演  员 Isabelle Weingarten
! I/ C  @: S) e: g" X# ~# n: J- N- {2 [       Guillaume des Forêts
8 r& L* w' _- u( C2 j6 F* ~       Jean-Maurice Monnoyer
9 B0 n% F5 P; _, t       帕特里克·让内 Patrick Jouané
3 I! V, E' P3 _1 U$ v, g6 E       F.R. David F.R. David
2 A" p8 i5 s( g       米歇尔·马涅 Michel Magne. O2 }6 Q. B8 H  {
       皮埃尔·洛姆 Pierre Lhomme
' Q2 M; K, u4 H1 V  b$ m( Y; }! o9 J) s  m& _8 B2 K& M
◎简  介   
, o0 ?' V8 K7 ^! N* \. L. [# A0 y; d: p/ @# h' P, J' I4 Y
  年轻的画家雅克从乡间搭车前往巴黎。在到达巴黎的那个夜晚,他偶遇了正想投河自杀的玛尔特。雅克救下了她,并陪她回家,他们相约转天晚上再见面。第二个夜晚,雅克和玛尔特交换了彼此的人生故事,在玛尔特的请求下,雅克成了玛尔特和她情人间的信使。然而,那位绝情的情人并没回信,这让玛尔特非常失落。在接下来的两个夜晚,雅克对玛尔特的衷情终于得到回应,玛尔特也向雅克倾诉了爱意。第四个夜晚,正当两人挽手同行时,他们偶遇了玛尔特原来的情人…… 本片改编自费奥多尔·陀思妥耶夫斯基的短篇小说《白夜》。
- }8 K( v/ F8 V
) `1 Z# h6 }. N  The 'dreamer' is Jacques, a young painter, who by chance runs into Marthe as she's contemplating suicide on the Pont-Neuf in Paris. They talk, and agree to see each other again the next night. Gradually, he discovers that her lover promised to meet her on the bridge that night, and he failed to turn up. Over the next couple of nights, Jacques falls in love with her - but on the fourth night her original lover returns...3 ]  R0 L- f: F4 [7 S
Video
+ v; G% [% K- z, c+ r! J3 a6 YID                                       : 18 b; n. U) [. @/ k; n; p9 C; d. D
Format                                   : AVC- ^2 U. E$ x6 k3 x! f& @
Format/Info                              : Advanced Video Codec! Q% B" A- c% X: `
Format profile                           : [email protected]' }: B, M7 ^) g1 r+ b1 c
Format settings                          : CABAC / 4 Ref Frames
/ c/ Y; r2 g7 g1 R* n$ G, {Format settings, CABAC                   : Yes
0 u* }% n" M& Y" T% b* k; x2 P: mFormat settings, Reference frames        : 4 frames
4 H' a( F) H: n2 {: G, L6 r4 jCodec ID                                 : V_MPEG4/ISO/AVC
* q4 A6 E6 b7 X% c. M# X0 S. PDuration                                 : 1 h 22 min
' L3 n* ~4 H) ~$ Q# K; rBit rate                                 : 17.8 Mb/s9 L" |' i% B  Q! ~4 R% V3 Q
Width                                    : 1 800 pixels/ K2 X/ m! k- e9 m5 ]4 n- c- H
Height                                   : 1 080 pixels
8 A5 B4 M8 ?( `' z6 W8 a' d$ p( u# [Display aspect ratio                     : 5:3
( v- L  i' E  f" Z! T5 bFrame rate mode                          : Constant1 T% ^3 I/ Y$ A" ^
Frame rate                               : 23.976 (24000/1001/189150) FPS
7 B; x/ }* ]2 _# EColor space                              : YUV  Q0 I! k( m4 Z& J" e/ c0 K
Chroma subsampling                       : 4:2:0
( b. T) k. j9 [. A; UBit depth                                : 8 bits0 o( k0 T: c, F4 O' c! ?1 G
Scan type                                : Progressive6 a# j% ]: ?! F; W, R. y
Bits/(Pixel*Frame)                       : 0.383+ c5 b5 G% F, ?3 Y# O) w
Stream size                              : 10.3 GiB (96%); d  ]$ v0 e& x8 a, w% U
Writing library                          : x264 core 148 r2699+6+41 29a38aa Yuuki [[email protected]:2:0 X86_64][GCC 5.3.0]
+ I6 C6 v4 n7 ^" }4 }9 uEncoding settings                        : cabac=1 / ref=4 / deblock=1:-3:-3 / analyse=0x3:0x113 / me=umh / subme=11 / psy=1 / fade_compensate=0.00 / psy_rd=1.00:0.05 / mixed_ref=1 / me_range=32 / chroma_me=1 / trellis=2 / 8x8dct=1 / cqm=0 / deadzone=21,11 / fast_pskip=0 / chroma_qp_offset=-2 / threads=32 / lookahead_threads=5 / sliced_threads=0 / nr=0 / decimate=1 / interlaced=0 / bluray_compat=0 / constrained_intra=0 / fgo=0 / bframes=8 / b_pyramid=2 / b_adapt=2 / b_bias=0 / direct=3 / weightb=1 / open_gop=0 / weightp=2 / keyint=250 / keyint_min=23 / scenecut=40 / intra_refresh=0 / rc_lookahead=40 / rc=crf / mbtree=0 / crf=19.2000 / qcomp=0.60 / qpmin=0:0:0 / qpmax=69:69:69 / qpstep=4 / vbv_maxrate=50000 / vbv_bufsize=40000 / crf_max=0.0 / nal_hrd=none / filler=0 / ip_ratio=1.40 / pb_ratio=1.30 / aq=3:0.904 ]3 m! N7 n+ c+ P/ J" f, x
Language                                 : French1 K3 S: ^+ x" k8 g7 S) C
Default                                  : Yes) G' D$ g9 {/ }
Forced                                   : No
- O$ n0 Z/ Q; b1 k8 Q# @8 x% r; P* g. P3 a# Y4 i
Audio; a- i5 Q2 h. p) u
ID                                       : 23 |: M- F3 Y& x' E5 K, g- ?8 _. ?
Format                                   : FLAC
6 g* A' U. C* T# c, A, G9 ]  I0 hFormat/Info                              : Free Lossless Audio Codec$ V+ ^* w# i# w! A3 Z% \8 g4 k
Codec ID                                 : A_FLAC( m' L& ~$ I6 D
Duration                                 : 1 h 22 min
. t2 N, V2 m/ @5 V7 HBit rate mode                            : Variable' L  L9 ^& f* n- n; [
Bit rate                                 : 790 kb/s4 e8 H  R4 ^! H' x4 L% R
Channel(s)                               : 2 channels
: O1 |% S  \0 ~! WChannel layout                           : L R
7 q' G& T8 ^/ m; YSampling rate                            : 48.0 kHz
: S: e* F9 @& J5 |5 EFrame rate                               : 11.719 FPS (4096 SPF)
2 ]& X# Y1 G) {. KBit depth                                : 24 bits
! ~% p& `& k: e  DCompression mode                         : Lossless
: ]$ c8 {9 J5 s7 \Stream size                              : 466 MiB (4%)
+ @6 r/ i$ c6 RTitle                                    : Original4 w! B7 N& S9 S0 }. g5 X0 v
Writing library                          : libFLAC 1.3.1 (UTC 2014-11-25)
3 m4 ~$ U9 ^- L7 L& vLanguage                                 : French
( o' K+ a' W% N1 Z/ hDefault                                  : No0 v& C$ M2 K! i9 u0 M
Forced                                   : No4 l. y+ y1 T3 p% r3 p) A( Y9 P
6 C! i5 r4 |% H5 P
Text! T) m4 _4 @2 l! v5 @. x
ID                                       : 3
4 f6 L, t* O3 WFormat                                   : UTF-85 R/ e4 ~! x" m; y: k
Codec ID                                 : S_TEXT/UTF8; P- Y; e- Y& M9 b
Codec ID/Info                            : UTF-8 Plain Text( O) Z# J/ M/ `6 y% ]; p2 p
Duration                                 : 1 h 21 min; F' t3 ^* s" X  O
Bit rate                                 : 19 b/s) _2 I: R6 k1 l. ]' p
Frame rate                               : 0.080 FPS
: t- b& k  H- fCount of elements                        : 391" Y8 ~6 @/ w" B0 |
Stream size                              : 11.8 KiB (0%)
7 P! q. }* D' B) j. O* gLanguage                                 : English. w2 {9 W* l' ^& M" _7 b
Default                                  : Yes
/ t4 g& T% f7 n2 c$ dForced                                   : No; W3 C$ s' Z: O2 r. w) q9 D
9 J/ @# R) [: X* k* v( |
Menu
5 W6 E- d* ?* T2 C0 u! J00:00:00.000                             : en:Chapter 011 B! M9 a1 }7 b. Q2 j% k& B9 X
00:02:16.136                             : en:Chapter 024 x' V. X: s  M; f( [
00:04:12.252                             : en:Chapter 03  p" j, n5 ^6 n' |3 u9 C
00:07:37.582                             : en:Chapter 040 o4 e: s6 P6 m* w; E8 _/ X: }$ m
00:09:25.773                             : en:Chapter 05( ^# z) G* j! |. `  x" T! B! L
00:13:51.956                             : en:Chapter 06
0 Z( L* G3 {( d$ f: f1 z) Y- Q0 F00:16:58.851                             : en:Chapter 07
2 \! r! C0 i& g  `1 H9 O* j7 w00:24:00.105                             : en:Chapter 08
/ V" d% @) ?# P; l00:27:59.219                             : en:Chapter 09
; U  t5 ^4 @5 O' _00:33:12.532                             : en:Chapter 10
# N  C7 t' C( L# N8 g. A00:38:25.136                             : en:Chapter 11
& ?& Q. n: B+ F. W6 A; U00:46:51.600                             : en:Chapter 12% g8 y( J) W; l* E) m; n
00:51:16.698                             : en:Chapter 13
, H9 D) p+ j, B0 S0 c2 a# f" R00:53:30.790                             : en:Chapter 14. R- n5 S7 G2 K3 V( k) p
01:04:00.086                             : en:Chapter 15
9 B7 p1 F" y0 z( N3 g$ k% l( W, J01:08:19.178                             : en:Chapter 16
4 P7 E& B1 ~( J" a  ]01:15:43.914                             : en:Chapter 17
% l8 s3 g" n. E: H& p3 I& P& k01:18:57.065                             : en:Chapter 18

* [& }2 ~  w" r& {+ F  V
游客,查看本帖隐藏内容请回复 | 加入VIP可免积分免回复 了解详情 | 还不是会员:点击获取邀请码 Invitation Code

0

主题

1085

帖子

4269

积分

Sponsor

金币
263 枚
体力
1851 点
zzk980220 发表于 2022-9-27 13:11:58 | 显示全部楼层
啥也不说了,楼主就是给力!$ Q4 e' ~7 F+ `' Q7 U
Blu-ray Film Forum is now my home!
1 |: M+ Y* Z# o, X

本版积分规则

小黑屋|Archiver|4K蓝光论坛

GMT+8, 2022-12-4 10:50

Copyright © Tencent Cloud.

快速回复 返回顶部 返回列表