BluRayCD Forum

 找回密码
 立即注册【分享大片】
查看: 24|回复: 5
收起左侧

[剧情悬疑] 一岛九命 Nine Guests for a Crime 1977 ITALIAN 1080p BluRaycd x264 AAC2.0-PTP 7.91GB

[复制链接]

1万

主题

1万

帖子

10万

积分

Post Share

金币
171 枚
体力
26705 点

卓越贡献勋章VIP黄金勋章诚信会员勋章

mvods 发表于 2022-9-26 17:15:45 | 显示全部楼层 |阅读模式

* ^, \2 o% z1 K2 C* {8 C  W+ M" o
/ B8 q1 Q: y$ T9 p# M◎译  名 一岛九命6 U+ |; Y! N/ Z# K2 y6 t
◎片  名 Nove ospiti per un delitto / Nine Guests for a Crime# o- {2 o) P8 [0 W- R$ k! @+ ~
◎年  代 1977
4 C: ]# D/ P0 [3 v◎产  地 意大利4 F$ n' G" u+ `% L3 y
◎类  别 犯罪/悬疑/惊悚3 u, r. g5 A3 ?/ h! h; B3 [0 ]$ C
◎语  言 意大利语3 i% R" E8 B5 U9 r# f
◎上映日期 1977-01-12(意大利)
* Z4 c; O! h7 h- X◎IMDb评分  6.0/10 from 373 users8 r8 J& s/ {3 X5 Q8 W( S& J
◎IMDb链接  https://www.imdb.com/title/tt0074979/
  W) H% ^1 _# P) {* t; _( \. E, R1 o◎豆瓣评分 6.0/10 from 91 users
% \. N2 f/ R: w. r/ O◎豆瓣链接 https://movie.douban.com/subject/3910997/5 s2 H7 }1 v4 P) ]% p, S
◎片  长 1 h 31 min! q5 f& o4 D: D9 ~
◎导  演 费迪南多·巴尔迪 Ferdinando Baldi
! m5 p% X, N3 Y9 [◎编  剧 Fabio Pittorru
/ t1 B& _  }7 _2 ~. \% b◎演  员 阿瑟·肯尼迪 Arthur Kennedy
' L9 ], T  Q. t2 O       索菲娅·迪奥尼西奥 Sofia Dionisio
6 x( J) C$ I7 N" Q5 |       约翰·理查森 John Richardson
6 I: K, Q1 A: b       达娜·吉亚 Dana Ghia
6 m0 z- R  c" g2 S% `. S& o       韦朗第洛·维朗迪尼 Venantino Venantini5 p& j8 d9 I, A& `
       卡洛·萨维纳 Carlo Savina
9 S7 t( [' `6 V       Giovanni Licheri
  h8 |2 Y8 m0 L
( b" O0 U- `1 M  X. k8 v% Z8 k6 A◎简  介
5 L5 Z4 U" b; g3 Y( \5 s# O% e5 Z) t; Z) ^6 W9 U9 L! K1 _( R
  While vacationing on a remote Mediterranean Island, nine guests from bourgeois family are stalked and killed one by one by a mysterious killer.& }' V! B6 {1 {& C9 V0 M
Video
: R+ i9 a# d+ S# d8 N9 o: U& ?" uID                                       : 1
' |; M% {' o1 R, @6 u' ~Format                                   : AVC# J4 S8 |, b4 i' [1 H. }% k. \. N
Format/Info                              : Advanced Video Codec
2 M% t8 P3 t! ^) p# {Format profile                           : [email protected]
4 J, {* O; S, uFormat settings                          : CABAC / 4 Ref Frames) d' O+ K6 Z4 |: o+ \5 Z5 c
Format settings, CABAC                   : Yes
! [6 w& {) S" ]; ?; r- DFormat settings, Reference frames        : 4 frames
2 @# m& e1 F  |9 `7 kCodec ID                                 : V_MPEG4/ISO/AVC
6 q% ]9 W" [( zDuration                                 : 1 h 31 min
  A  {# U' T' g7 s- {Bit rate                                 : 12.0 Mb/s: Y4 n& X9 }2 d/ M6 c
Width                                    : 1 920 pixels' P7 m+ m. i! T
Height                                   : 1 036 pixels
8 t( D3 s( b% b8 XDisplay aspect ratio                     : 1.85:1. J% z! l3 T7 f. |! _9 j$ T4 n+ G
Frame rate mode                          : Constant: J: d' h9 q+ |' w0 c
Frame rate                               : 23.976 (24000/1001/189150) FPS. ~. o0 ~4 ]" L2 W. b! b- `. u
Color space                              : YUV
- {$ l. k8 b, o7 }Chroma subsampling                       : 4:2:0
6 a1 y7 E8 q2 q7 ~/ G1 t$ dBit depth                                : 8 bits/ Z$ x6 k$ _8 R! s
Scan type                                : Progressive! ^( g1 c% r5 m0 o! Y# Z
Bits/(Pixel*Frame)                       : 0.252
+ n! |( e( k% n9 I1 G( w- V: EStream size                              : 7.68 GiB (97%)* Z/ ~' H& @6 \. h% p9 u
Writing library                          : x264 core 164 r3065 ae03d92( V+ C: I( ?4 x5 N( l& t
Encoding settings                        : cabac=1 / ref=4 / deblock=1:-3:-3 / analyse=0x3:0x133 / me=umh / subme=10 / psy=1 / psy_rd=1.00:0.00 / mixed_ref=1 / me_range=32 / chroma_me=1 / trellis=2 / 8x8dct=1 / cqm=0 / deadzone=21,11 / fast_pskip=0 / chroma_qp_offset=-2 / threads=15 / lookahead_threads=3 / sliced_threads=0 / nr=0 / decimate=0 / interlaced=0 / bluray_compat=0 / constrained_intra=0 / bframes=16 / b_pyramid=2 / b_adapt=2 / b_bias=0 / direct=3 / weightb=1 / open_gop=0 / weightp=2 / keyint=240 / keyint_min=24 / scenecut=40 / intra_refresh=0 / rc_lookahead=60 / rc=2pass / mbtree=0 / bitrate=12000 / ratetol=1.0 / qcomp=0.60 / qpmin=0 / qpmax=69 / qpstep=4 / cplxblur=20.0 / qblur=0.5 / vbv_maxrate=62500 / vbv_bufsize=78125 / nal_hrd=none / filler=0 / ip_ratio=1.40 / pb_ratio=1.30 / aq=2:1.00
0 E9 ~2 Z5 X/ J+ q; O/ s6 }0 oDefault                                  : Yes
3 r5 O, K5 F8 H* oForced                                   : No
8 G  n: a, s; d( d8 @: N. j+ N+ NColor range                              : Limited) I7 ?7 H" U" O& `; x
Color primaries                          : BT.709
1 m9 X: ^0 }/ RTransfer characteristics                 : BT.709
( A1 `" k$ S+ i& S5 o# y; FMatrix coefficients                      : BT.7090 ~1 @2 e( k- [% U$ [

  [+ f7 D) O- j5 l, V9 ]Audio #1
# U$ _; l: e" U3 h, I3 zID                                       : 2# g6 q1 ?' g, \7 o; y! |
Format                                   : AAC LC
( P) V# t3 w# ?* m% T9 M! eFormat/Info                              : Advanced Audio Codec Low Complexity
+ M/ }- m( x% O& T" d' M  WCodec ID                                 : A_AAC-2
' t$ B( W  I9 E) j6 s+ A$ QDuration                                 : 1 h 31 min
$ |+ @, L3 E8 Q" s  dBit rate                                 : 171 kb/s) _5 M( b  q. X* l# M/ k
Channel(s)                               : 2 channels
/ i( Z: k5 j" rChannel layout                           : L R
. M9 g: A+ W& m8 S7 L1 j5 sSampling rate                            : 48.0 kHz
9 B8 S2 Q  S$ [& N' v. e- {$ wFrame rate                               : 46.875 FPS (1024 SPF)
7 r& A2 R: }, k& n/ w( C: A% SCompression mode                         : Lossy$ a( ^8 G4 |& q0 H0 m8 ~
Stream size                              : 112 MiB (1%)
9 S' D$ ?  }" zLanguage                                 : Italian
& |; z' L9 D$ \. g! z: p- `! }Default                                  : Yes% M% b# I5 @+ q% s
Forced                                   : No
$ N# D5 M) O7 y( K9 x" X5 `
: \' p: Q+ h, {' K7 |8 y; b9 CAudio #2
" O) O: Z" E  `! A9 g  FID                                       : 3) r/ ?: s  `" ?( ^/ z1 Z
Format                                   : AAC LC
6 i# k( c% {* H3 Z( H$ @/ O! WFormat/Info                              : Advanced Audio Codec Low Complexity
0 b) e( d( x# uCodec ID                                 : A_AAC-2( c$ r7 H5 I/ l/ v
Duration                                 : 1 h 31 min$ y  L7 ^, @& t1 U
Bit rate                                 : 179 kb/s
, T/ [+ {  S  A# v5 `; m. ]Channel(s)                               : 2 channels' A6 [2 ~% c9 }" X# W* _1 `
Channel layout                           : L R
2 {6 H& Q  F/ K' oSampling rate                            : 48.0 kHz
8 @, P2 N9 `+ TFrame rate                               : 46.875 FPS (1024 SPF)  T. r0 Z# u0 L  N! b  R. I  B# W
Compression mode                         : Lossy
. I0 R, ]' J- o7 P; KStream size                              : 117 MiB (1%)
7 h: s* y* ~3 Y9 @6 eLanguage                                 : English  t' E' E# t3 U
Default                                  : Yes# b+ c: n5 e) @, O- m3 K6 K
Forced                                   : No, v; X' U  J  r
/ {- f9 s! t& u
Text #1
, f  `9 q3 B4 C/ L0 ]- q& `/ FID                                       : 4
3 \) t2 N) Q; m; l3 mFormat                                   : UTF-80 r# j, ?. z# y! {! T: ~8 p
Codec ID                                 : S_TEXT/UTF8
6 w) R2 X9 C8 E  J) m7 `Codec ID/Info                            : UTF-8 Plain Text( {$ g) C2 e! T$ [& h# t* j3 }! V
Duration                                 : 1 h 22 min
0 k+ e% Z) R( WBit rate                                 : 40 b/s
- F& W0 ^; w; Q/ e' q9 P( Q9 F: [Frame rate                               : 0.133 FPS5 T7 K# ~) Z$ C* T: c1 _% p' q/ U
Count of elements                        : 654) L/ }% v# Q4 g$ I) }7 S
Stream size                              : 24.0 KiB (0%)+ ?% T5 S' j* I% k
Language                                 : English
7 M$ \3 H/ x0 y2 JDefault                                  : No8 B! @0 K& W8 Q2 G; }
Forced                                   : No+ F9 ~, h1 n7 i8 G

5 P, a( I' f- S# XText #2: o- X' j* W" l2 R2 Y. I
ID                                       : 5
$ l# U0 n' ?& O3 EFormat                                   : UTF-8
$ ~/ a) f% J2 @$ ^- y* K1 OCodec ID                                 : S_TEXT/UTF8
. m! p3 a0 V7 E* s3 xCodec ID/Info                            : UTF-8 Plain Text# ]6 J! P8 c6 f5 P. x/ V& X
Duration                                 : 1 h 29 min0 x, J( K4 d! U1 E* j4 Q
Bit rate                                 : 40 b/s
+ c$ q4 C: @4 D: o, xFrame rate                               : 0.153 FPS
) E% @# P9 P% O- i3 V7 t+ _: B+ F) yCount of elements                        : 827
# F( X& b7 n  Y5 KStream size                              : 26.9 KiB (0%)
, P$ X6 `# E7 a8 f5 w' \* o8 NLanguage                                 : English: D- H! t+ [# x& c$ F* F0 c$ J
Default                                  : No7 r, u6 s' i6 m# d
Forced                                   : No
3 `" Y9 O& C  y/ A! F- ]" R+ `* Y% ?5 a6 B* Z9 v
Text #3
( I- J2 |/ a6 H) }+ ?: n, eID                                       : 6
  X1 ~9 Y; V! D- V4 A* aFormat                                   : UTF-8- f7 s1 c8 W$ V( D; J  h+ F) W
Codec ID                                 : S_TEXT/UTF8
9 N* M% F# I# ?2 DCodec ID/Info                            : UTF-8 Plain Text
  G- S) R) D+ t  F- ^- Z% ^Duration                                 : 1 h 24 min" U! z8 J7 Z) `, X% ?
Bit rate                                 : 36 b/s
4 O8 j3 D1 ~; t, a9 `% m! b$ {1 cFrame rate                               : 0.122 FPS+ I2 @4 }  J1 r7 }( o# o
Count of elements                        : 622
$ u+ X* U) }) }# fStream size                              : 22.9 KiB (0%)
! {9 R) l2 ?' t! {Language                                 : English) ?4 a# ]# y* i1 U: _. V9 S# r
Default                                  : No/ j2 V: C2 m- ^* d$ f1 @4 f( E
Forced                                   : No
9 r4 {4 j9 d+ Q
6 P( a4 Y; E6 R7 XText #4
2 E/ d$ Z8 r- ]1 R$ OID                                       : 76 D1 C( {, t$ ~! O, m! l8 e$ I, E; J
Format                                   : PGS: }8 \/ y0 B( V% Q! N/ @1 o
Muxing mode                              : zlib7 B! T% K: T. s: F6 _# y9 d/ F+ O' B
Codec ID                                 : S_HDMV/PGS" }# l* c/ V$ U- \! ?) ]
Codec ID/Info                            : Picture based subtitle format used on BDs/HD-DVDs
; Y8 Q3 Y$ j: C, y$ p2 b; RDuration                                 : 1 h 31 min
* R- ~  ~! I! o: Y9 K  G' OBit rate                                 : 18.6 kb/s; X# f# S' K) l  p5 @7 R
Frame rate                               : 0.228 FPS6 k1 L" L) A5 V) Z3 n5 h% u
Count of elements                        : 1247
5 _7 o$ |7 I+ a4 s( G4 g0 SStream size                              : 12.2 MiB (0%)
1 r9 \7 V. n. |( J3 m% f6 KLanguage                                 : English) F0 |* ^2 W  x8 P
Default                                  : No
- F9 B/ O4 p6 L( v# rForced                                   : No
7 P4 E$ y& b: s2 i. b9 N
( L' G& j; _& Z% KText #5- n4 C; S9 Z' T
ID                                       : 8
( {5 o+ Q" l/ C- S0 SFormat                                   : PGS1 w% O7 x0 @$ q* U- g2 z
Muxing mode                              : zlib
9 f& T5 b" O0 L: C& lCodec ID                                 : S_HDMV/PGS
1 b/ J' O: ]( n, R5 ?- c' xCodec ID/Info                            : Picture based subtitle format used on BDs/HD-DVDs
" I) Z0 A& q% K# kDuration                                 : 1 h 30 min
+ ^8 X" N& k4 _4 K- r# l8 NBit rate                                 : 22.6 kb/s
# ]0 P/ c8 O& e* \: h% H% M8 _Frame rate                               : 0.306 FPS
0 j; u, w1 E$ P- P/ P$ X% ~Count of elements                        : 1655
( _* c: q$ i$ H; BStream size                              : 14.6 MiB (0%)1 J, n& U4 B# M/ \
Title                                    : SDH
0 |8 t; i: `; m/ r6 S( R, x2 oLanguage                                 : English" a8 a! b! n3 z7 `( |3 [% C
Default                                  : No1 L, M( K) C9 u1 a, \
Forced                                   : No
: F& d/ C+ ~: K- f7 G* S6 {. X
5 n3 N" q4 z3 V% N/ lMenu% a: o( r# B/ w  `) j
00:00:00.000                             : :Chapter 1" c: h/ J6 a" P0 a# L  K" ?
00:21:08.142                             : :Chapter 2
6 g' _( U, A4 u) H2 |8 A6 ?00:40:47.987                             : :Chapter 3
$ Z5 Q6 J' G3 o) H! c3 _4 j01:00:31.169                             : :Chapter 4% |. D; ?8 |( i) V- T2 Z" R
01:20:10.306                             : :Chapter 5
& _  d1 \  |) f. y
游客,查看本帖隐藏内容请回复 | 加入VIP可免积分免回复 了解详情 | 还不是会员:点击获取邀请码 Invitation Code

31

主题

2549

帖子

1万

积分

Sponsor

金币
1803 枚
体力
6847 点
QQ
shiji1973 发表于 2022-9-27 13:24:51 | 显示全部楼层
没有看明白,我是菜鸟,不足之处先请多包涵!
" q; w. m$ ~/ q- |Thank you for sharing such a good resource polite reply, very sorry for myself!6 A$ f1 U  b8 e' U/ ^& z

0

主题

594

帖子

2286

积分

Sponsor

金币
31 枚
体力
970 点

签到达人勋章

QQ
jiyugen8180 发表于 2022-10-1 21:34:30 | 显示全部楼层
每天都来蓝光论坛看看,我爱蓝光电影。8 q" V# V/ ^0 r) W: \0 o& h' B
Your resources, well, I am very satisfied!: @: Q  \. i/ N$ b' P( j) B8 d# D

0

主题

50

帖子

218

积分

Sponsor

金币
0 枚
体力
115 点
bill0531 发表于 2022-10-11 21:45:32 | 显示全部楼层
非常喜欢这个好看的电影啊,太喜欢了

31

主题

2549

帖子

1万

积分

Sponsor

金币
1803 枚
体力
6847 点
QQ
shiji1973 发表于 2022-10-12 15:55:59 | 显示全部楼层
沙发是抢的而不是占的!
" m$ ?) A* A& Q9 d6 O; ?bluraycd forum, a lot of Blu-ray movies!! d; `2 [7 f+ Q+ n' d

0

主题

108

帖子

491

积分

Sponsor

金币
0 枚
体力
272 点
chamroenlee 发表于 2022-10-13 12:05:52 | 显示全部楼层
意大利 惊悚片少見,謝謝分享!

本版积分规则

小黑屋|Archiver|4K蓝光论坛

GMT+8, 2022-12-4 10:21

Copyright © Tencent Cloud.

快速回复 返回顶部 返回列表