BluRayCD Forum

 找回密码
 立即注册【分享大片】
查看: 27|回复: 4
收起左侧

[喜剧爱情] 最美年华/最美的年华/一个男人和一个女人2/浮生年华 The Best Years of a Life 2019 FRENCH 1080p BluRaycd x264 DTS-SbR 13.31GB

[复制链接]

1万

主题

1万

帖子

10万

积分

Post Share

金币
171 枚
体力
26705 点

卓越贡献勋章VIP黄金勋章诚信会员勋章

mvods 发表于 2022-9-28 07:16:58 | 显示全部楼层 |阅读模式
" }5 r8 y: v1 F
$ R0 Q& s- M1 I0 }$ D
◎译  名 最美年华/最美的年华/一个男人和一个女人2/浮生年华(台) * D8 I! l# L5 n# H! C
◎片  名 Les plus belles années d'une vie / The Most Beautiful Years / Un homme et une femme 2 / The Best Years of a Life' s: J" L7 |8 u# n2 y* w* O! E
◎年  代 2019
# C4 R, H2 C, h, E8 ^! T+ }! z◎产  地 法国+ i% R, h  s+ z6 V8 ^
◎类  别 剧情/爱情
7 ?, q+ e( I# S; T5 `$ i$ N+ [◎语  言 法语
0 w) u- G  G: `+ u6 ~◎上映日期 2019-05-18(戛纳电影节)/2019-05-22(法国)
' F8 z8 q4 u3 H8 a1 f8 ?: ?) f2 y* m+ b◎IMDb评分  6.7/10 from 1,204 users
, [7 j- w  e$ T1 `/ p◎IMDb链接  https://www.imdb.com/title/tt9075612/5 f3 y% U7 N) Y# ]  A4 y! f" X
◎豆瓣评分 7.6/10 from 1,269 users7 @. J' {% o# e  z6 V6 \& j$ d
◎豆瓣链接 https://movie.douban.com/subject/30336533/
5 f/ x9 ~2 }4 n8 S+ o+ ~) D4 Y' g9 N◎片  长 1 h 30 min
1 v+ l! E$ Y$ K) g/ S% L◎导  演 克洛德·勒卢什 Claude Lelouch! {0 w* G8 W$ g7 {8 z
◎编  剧 克洛德·勒卢什 Claude Lelouch6 ~& z3 }- X# B2 u% N/ l
       Valérie Perrin9 H% ~! E) E4 p! F& x* l$ j  W' D
◎演  员 让-路易·特兰蒂尼昂 Jean-Louis Trintignant3 }5 z+ K/ |0 ]# @% p7 t9 ~5 ^
       阿努克·艾梅 Anouk Aimée0 v- x1 n# M1 X; y) D: q3 V% I
       玛丽安娜·德尼库尔 Marianne Denicourt1 v/ R4 a7 S3 A! D* ?* k) H5 v
       莫妮卡·贝鲁奇 Monica Bellucci$ s/ G6 B- I4 ^
       苏德·阿米多 Souad Amidou* O! T# c8 [9 j4 j2 N7 e
       Antoine Sire* v% M2 @+ y: L0 ]# }9 ^! u
       Tess Lauvergne
# B& s: Z5 f9 P4 e8 R- U8 r       Vincent Vinel
( n6 W/ l# m6 ~7 Y' {- ?# o5 f" [- ?( I3 S2 U, A7 o4 y
◎简  介     r. {8 ], A# G1 C: R! T
4 I+ w7 {; I2 L/ @7 [, \' F
  安妮(阿努克·艾梅 Anouk Aimee 饰)和琼(让·路易·特兰蒂尼昂 Jean-Louis Trintignant 饰)曾经是一对非常相爱的恋人,然而造化弄人,他们的爱情最终没有能够开花结果,两人落得分道扬镳的下场。一晃眼50年过去,已经垂垂老矣的琼患上了阿尔茨海默症,严重的症状令他连自己的女儿也不认识了。琼混沌的大脑里唯一记得的人,只有安妮。0 d3 B6 c" U4 q1 q8 P& m

7 O5 z! o5 ]4 G0 |; `6 c  为了缓解父亲的病情,琼的儿子安东尼(Antoine Sire 饰)想方设法和安妮取得了联系,希望她能够来看一看父亲,以解父亲的思念之苦。谁知道安妮同样对曾经的那段感情难以释怀,两人一见面,压抑在他们内心里多年的情感死灰复燃。
) \6 A, z7 a% q! _3 x- s- ~, J3 |) K+ J
  An old man is having memories of a former lover who is still alive. Images of their affair showing them young combine with dreams and poetry.
& _. ?- `& x/ n7 O
The.Best.Years.of.a.Life.2019.FRENCH.1080p.BluRayCD.x264.DTS-SbR 13.31 GB
+ ~. q  F1 G$ E' g* l$ e7 \$ R- ]
) ^* {; ^$ f8 |$ BVideo3 |, d. J- {! o
ID                                       : 19 o/ \; J0 I8 m
Format                                   : AVC
1 X& v% _2 W. n9 q" o8 q% PFormat/Info                              : Advanced Video Codec7 e& w. p: H# E9 F5 U
Format profile                           : [email protected]* r! L+ Y9 x6 w5 j5 G: Q5 D
Format settings                          : CABAC / 4 Ref Frames
5 h0 }/ a' E9 b% c8 {Format settings, CABAC                   : Yes4 s: h0 r% r- e  w
Format settings, Reference frames        : 4 frames/ \8 m& K( a( n1 N
Codec ID                                 : V_MPEG4/ISO/AVC
, l, E& H. ?- YDuration                                 : 1 h 30 min+ k( z, m3 U6 V8 i) n
Bit rate                                 : 19.5 Mb/s5 k, k8 _) O2 O9 K# S0 c3 W+ v
Width                                    : 1 920 pixels
: U; W8 j' ]+ @3 `Height                                   : 804 pixels
$ R9 Y8 x) H8 Y' a+ K2 q: i2 qDisplay aspect ratio                     : 2.40:1
  }* ?3 ~& O  |0 {8 o! IFrame rate mode                          : Constant% X: ~! l0 _  [- j3 [
Frame rate                               : 23.976 (24000/1001/189150) FPS) s9 W' c- K& M/ _* ^  {2 w
Color space                              : YUV# g1 @  k$ Q' g1 Z1 n9 e
Chroma subsampling                       : 4:2:0$ U9 i0 i: f, ?5 P# ~
Bit depth                                : 8 bits. Q# W2 g" I. K% v' @+ f
Scan type                                : Progressive
( b# b2 [2 n3 r- I& T- qBits/(Pixel*Frame)                       : 0.5281 r! D3 Z" N6 R- e9 u' j+ N
Stream size                              : 12.4 GiB (93%)( `. b4 J7 C$ _/ |+ L, F9 B" U
Writing library                          : x264 core 152 r2851kMod ba24899
1 G5 \& {4 {2 f5 ]% u8 LEncoding settings                        : cabac=1 / ref=4 / deblock=1:-3:-3 / analyse=0x3:0x133 / me=umh / subme=11 / psy=1 / fade_compensate=0.00 / psy_rd=1.00:0.00 / mixed_ref=1 / me_range=32 / chroma_me=1 / trellis=2 / 8x8dct=1 / cqm=0 / deadzone=21,11 / fast_pskip=1 / chroma_qp_offset=-2 / threads=25 / lookahead_threads=6 / sliced_threads=0 / nr=0 / decimate=1 / interlaced=0 / bluray_compat=0 / constrained_intra=0 / bframes=10 / b_pyramid=2 / b_adapt=2 / b_bias=0 / direct=3 / weightb=1 / open_gop=0 / weightp=2 / keyint=250 / keyint_min=23 / scenecut=40 / intra_refresh=0 / rc=crf / mbtree=0 / crf=16.0000 / qcomp=0.65 / qpmin=0 / qpmax=69 / qpstep=4 / ip_ratio=1.25 / pb_ratio=1.20 / aq=1:0.60
: T# ?3 K7 P# ~. k" F' c# ULanguage                                 : French6 S( t5 f4 P) D2 B2 V9 }/ t0 Y
Default                                  : Yes6 h+ t0 A( M# B& o9 c
Forced                                   : No% r/ q$ l7 r4 k8 Z" P

$ R) e1 Y8 M  O6 QAudio( f, T9 ?( y8 i- {
ID                                       : 2
1 b6 z$ @9 M: Q& h( zFormat                                   : DTS' b2 x' E. E! O6 _! I2 }6 r
Format/Info                              : Digital Theater Systems. B$ d: h, o$ V# ^- R& L8 @7 m
Codec ID                                 : A_DTS' i6 o( j' m. p, R2 M4 Q" F
Duration                                 : 1 h 30 min( W( i7 w/ Z1 r6 U
Bit rate mode                            : Constant
- w) R7 `! i4 I$ k) Q$ gBit rate                                 : 1 509 kb/s& [' c& f) Z+ ~+ Y
Channel(s)                               : 6 channels
/ O& S" L/ u0 I' G: l  AChannel layout                           : C L R Ls Rs LFE2 v$ S2 T$ B6 _+ J
Sampling rate                            : 48.0 kHz: `. K7 R8 m. u7 b& J
Frame rate                               : 93.750 FPS (512 SPF)
7 e% ~5 E# F+ |1 |+ GBit depth                                : 24 bits4 Q, n3 ?; C6 I) ^" h& O7 P) D3 t: D
Compression mode                         : Lossy
* L9 t2 l  I8 {% `' }Stream size                              : 977 MiB (7%)# p! S" A) `6 {$ Q8 L
Language                                 : French
0 G5 c# I  M0 ]$ R6 _! v% J8 L: ODefault                                  : Yes% r# I! }% N" t/ z0 K! V4 L! t' W- o
Forced                                   : No9 t* v# ]3 h/ F6 ]
+ g6 k( \3 p3 Q3 B4 d
Text #1% s: t% s8 }( m" g8 y+ ?; g; w: q
ID                                       : 33 u% D& d+ e: g3 Q
Format                                   : ASS# J" B8 [# A) H6 X' ]
Codec ID                                 : S_TEXT/ASS
$ r% z6 W8 \1 @3 g. J6 ?' ZCodec ID/Info                            : Advanced Sub Station Alpha
) A- A- @2 x7 c! E: A2 Z+ x) `Duration                                 : 1 h 29 min5 o; E& a6 z" d+ a( p+ U
Bit rate                                 : 90 b/s, `& @- P; e  r5 G8 ^  q
Frame rate                               : 0.231 FPS
; a3 v# S" O: j' u9 U+ Y( a# VCount of elements                        : 12446 ~$ K! D6 S0 T3 Q: E$ L& S+ s1 `* Z
Compression mode                         : Lossless
3 [# z3 E1 B& d* A! y) mStream size                              : 59.8 KiB (0%)& R. V* K" m& B9 H& A
Language                                 : English4 Z0 l8 Z# S( j) E3 ], w$ O' X2 F5 k' i
Default                                  : No
' G' w8 I) b4 f3 m: @) FForced                                   : No
& b/ i) a1 R, v& D# u
, \5 l% G, L' @" Q9 N0 s! BText #29 O; ?/ K' o0 \" v
ID                                       : 4& D* l- D  [/ @6 _8 Q# L
Format                                   : UTF-8/ @  w* w; U8 |' S/ F8 z8 _' }
Codec ID                                 : S_TEXT/UTF88 g9 D* P& k' Q9 `" g
Codec ID/Info                            : UTF-8 Plain Text  |7 O- O2 C) g3 z  G
Duration                                 : 1 h 29 min
& o& z: X7 v1 y5 ]Bit rate                                 : 49 b/s+ m, [) a. n8 g
Frame rate                               : 0.231 FPS: }# A: M2 P  g8 }( ?
Count of elements                        : 12447 |% |+ ?( _% _: p* Z
Stream size                              : 32.4 KiB (0%)/ P, F# Q; {; z# l8 ~* p$ ~; J
Language                                 : English
" ^. I/ I- n: WDefault                                  : No
" O, i9 Y  G! H  H+ u( _  rForced                                   : No0 n% a/ ^4 N" k9 w

" z8 M* s" G+ _' z, D$ OText #3
+ s1 h6 q$ I7 y. `ID                                       : 5
1 B3 r# _4 G9 \" xFormat                                   : ASS
3 E6 X, ]; G( I% G3 E9 VCodec ID                                 : S_TEXT/ASS0 Y5 j: }# ?: O: @+ Y" e  o
Codec ID/Info                            : Advanced Sub Station Alpha
. B9 T) z* F  z% r- }1 U! C$ mDuration                                 : 1 h 30 min
# A! Q9 x6 C+ f3 P( j. ?, N9 k5 c9 fBit rate                                 : 202 b/s; Q' Z: E" A" c5 d: p) X8 I
Frame rate                               : 0.323 FPS% p3 V$ k9 J6 P% Z, n2 s% Q
Count of elements                        : 1750/ u  K, I  U6 s. A9 l. m. d
Compression mode                         : Lossless
. t. N' H, R) j+ X6 s; wStream size                              : 134 KiB (0%)% i5 R; ~+ z/ i1 W6 p: z
Language                                 : French' K3 k% @( Y/ p1 d$ [+ w6 K
Default                                  : No. v# o9 j' U2 G  U( \8 P6 {- e: v
Forced                                   : No
: x5 a. e/ R  R/ ?% V' e- ]1 V, P2 O- i
Menu1 r& `- I: p4 J' V& o
00:00:00.000                             : en:Chapter 013 Z% E! R- p8 i; @. Q6 o
00:08:45.734                             : en:Chapter 02
2 l0 c8 R9 n4 S2 d; m00:15:22.338                             : en:Chapter 03
2 t- H4 i* R' O8 _2 Q( M' a5 ?00:24:30.302                             : en:Chapter 049 U( N4 c$ r" v+ ]: N; J- _
00:32:26.570                             : en:Chapter 05
6 e, }3 L  b/ A% o! `' |8 F00:39:33.496                             : en:Chapter 06
9 A5 ?) V- z! \8 V. z1 [1 }00:45:18.716                             : en:Chapter 07
+ W4 [2 P* J5 P/ Y7 K00:51:58.240                             : en:Chapter 08
- r8 y& M9 v8 X  G& `: J4 N01:00:44.099                             : en:Chapter 09% T% e2 V: u6 r6 E: S
01:07:22.664                             : en:Chapter 10
1 r6 B, }: Y! o) U# T" c# q1 A) u' H8 J01:15:55.718                             : en:Chapter 11
! _  Y1 F3 A# [8 A/ r2 v; @) u01:26:14.795                             : en:Chapter 12

$ J# p- N* U% B* C  {9 \3 Y$ F' j9 _
游客,查看本帖隐藏内容请回复 | 加入VIP可免积分免回复 了解详情 | 还不是会员:点击获取邀请码 Invitation Code

0

主题

104

帖子

1109

积分

Sponsor

金币
4 枚
体力
890 点
paopichao 发表于 2022-9-29 08:28:51 | 显示全部楼层
Thank you for sharing such a good resource polite reply, very sorry for myself!
% J2 n$ g+ N* Q8 A& Y9 m* P6 k$ Y8 r

3

主题

883

帖子

4278

积分

Sponsor

金币
1 枚
体力
2395 点
myg0123 发表于 2022-9-30 11:23:19 | 显示全部楼层
每天都来蓝光论坛看看,我爱蓝光电影。
! A8 b0 [: n! N- |* `0 vbluraycd forum, a lot of Blu-ray movies!
$ m! D/ F$ A+ l; u! z9 g; n; x
蓝光论坛里 ...

0

主题

881

帖子

3390

积分

Sponsor

金币
251 枚
体力
1360 点
lfvvzc 发表于 2022-10-2 09:20:55 | 显示全部楼层
哥顶的不是帖子,是孤独!- U! q) [$ l! L' |
The decisive Replies sink is I get the sinking feeling great sense of accomplishment!
$ |  ?; P! _" x

3

主题

883

帖子

4278

积分

Sponsor

金币
1 枚
体力
2395 点
myg0123 发表于 2022-10-6 18:32:43 | 显示全部楼层
每天都来蓝光论坛看看,我爱蓝光电影。" \5 U. h/ I/ O
祝愿蓝光社区越办越好!I wish Blu-ray communities better and better!
) F( p* X: `5 E( ?$ A
蓝光论坛里 ...

本版积分规则

小黑屋|Archiver|4K蓝光论坛

GMT+8, 2022-12-4 09:40

Copyright © Tencent Cloud.

快速回复 返回顶部 返回列表