BluRayCD Forum

 找回密码
 立即注册【分享大片】
查看: 18|回复: 2
收起左侧

[喜剧爱情] 曾经有一次,两次 The Belgian Job 2012 FRENCH 1080p BluRaycd x264 DD5.1-JKP 11.81GB

[复制链接]

1万

主题

1万

帖子

10万

积分

Post Share

金币
171 枚
体力
26705 点

卓越贡献勋章VIP黄金勋章诚信会员勋章

mvods 发表于 2022-9-28 08:27:34 | 显示全部楼层 |阅读模式
01.jpg : T+ O! ^8 x8 k2 b" o
2 G. }- R) P0 [' c5 O2 K. C0 p9 f$ A
◎译  名 曾经有一次,两次
) `% o5 M( A1 u3 d+ H/ y◎片  名 Il était une fois, une fois / The Belgian Job
; n/ A& j& u9 ~$ S0 o4 {◎年  代 2012
. d- S6 z2 W1 r) M◎产  地 法国
3 v8 ?+ _" G2 `# K◎类  别 喜剧
9 B$ m0 F" Z- ]- d◎语  言 法语
0 W9 U' |5 O5 E+ m) ^' p  G◎上映日期 2012-02-15(法国)
9 K' ?+ U* K: P- D5 B! ]◎IMDb评分  5.2/10 from 499 users4 E0 f: P  |  `7 U& F
◎IMDb链接  https://www.imdb.com/title/tt1998245// A% Y  K& D" W! H1 \6 Y# K; e
◎豆瓣评分 0/10 from 0 users5 e# J# d1 o, O/ s+ O8 H3 S) N
◎豆瓣链接 https://movie.douban.com/subject/6877741/9 M0 ]. k. ^% |8 H. ?6 L
◎片  长 1 h 35 min
* h7 |0 h! Z' F◎导  演 克里斯蒂安·梅雷特-帕尔梅尔 Christian Merret-Palmair  ~2 S0 A7 m. R" `
◎编  剧 马修·德拉波特 Matthieu Delaporte
3 U% G  l# J; m4 e$ r/ d/ l+ E       亚历山大·德·拉·巴特里耶 Alexandre de La Patellière
4 i7 s! Q) a$ f! j: Q◎演  员 安·玛丽文 Anne Marivin) t/ B- X' O0 X" z
       弗朗索瓦-格扎维埃·德梅松 François-Xavier Demaison
) {: h1 g. p3 J9 w: h       查理·杜邦 Charlie Dupont& l! u5 y  b" l3 s3 ^' a
       乔纳森·科恩 Jonathan Cohen* k, Z2 [' s' E: K
       奥利维埃·钱特里奥 Olivier Chantreau
) L' r; f, h# w4 u& }0 H       卡米尔·科坦 Camille Cottin
1 [; Q$ w1 {1 B       Jean-Luc Couchard( |. E, J; H/ g7 {/ N0 D

- R9 x# @, [3 P) K8 f9 |" i' z2 X◎简  介   " n! q; V4 V( k

' `. r/ M9 T6 d( i, D5 u* @  By pretending to be heir to the Belgian throne, Willy and his gang set off a series of joyful events in the Parisian 5-star establishment.
3 U2 m1 S# z: D) S
Video+ ]9 U0 i7 Y# _* r/ q9 |: l1 s
ID                                       : 1
7 J8 G0 k# A0 O% V- s* ^& R$ EFormat                                   : AVC
+ F' f5 l2 C0 \. [! N$ EFormat/Info                              : Advanced Video Codec
5 Y" c" r: f2 H3 V/ nFormat profile                           : [email protected]
/ W+ F6 I  A& G5 MFormat settings                          : CABAC / 4 Ref Frames+ G' m; g5 ~2 x: C! N; H
Format settings, CABAC                   : Yes
% T! U, E  Y2 xFormat settings, Reference frames        : 4 frames
' ^9 a6 k6 Q/ |8 Y$ ^Codec ID                                 : V_MPEG4/ISO/AVC9 F; |8 l3 `; y* Y7 t
Duration                                 : 1 h 35 min
. F6 s! C' k9 q& v" e3 l6 s! `& @Bit rate                                 : 16.7 Mb/s
4 Z9 s& t* |- i0 t+ a5 U* CWidth                                    : 1 920 pixels; m$ ]0 V9 B. @7 u
Height                                   : 1 038 pixels
7 @1 X. Z! l6 E7 c2 wDisplay aspect ratio                     : 1.85:11 X4 x- D+ o* X
Frame rate mode                          : Constant
6 \  Q' l2 Y; YFrame rate                               : 24.000 FPS
0 f( ?" t/ r) GColor space                              : YUV2 g5 C4 i7 N+ F% M/ G0 m
Chroma subsampling                       : 4:2:0
8 x! W0 J; p6 X2 ]! t4 ^; K# YBit depth                                : 8 bits
, g) P0 n" l/ yScan type                                : Progressive
! f* ]! F& L% `Bits/(Pixel*Frame)                       : 0.348
6 _' N1 t9 M' }- Z  }2 VStream size                              : 11.1 GiB (94%)
! K4 x% B* l' H, s2 kWriting library                          : x264 core 164 r3075+55M 97d28bb t_mod_New [(8 & 10)[email protected] X86_64]' {6 I# e2 I- Z, u- b7 d
Encoding settings                        : cabac=1 / ref=4 / deblock=1:-3:-3 / analyse=0x3:0x133 / me=umh / subme=11 / psy=1 / fade_compensate=0.00 / psy_rd=1.00:0.08 / mixed_ref=1 / me_range=48 / chroma_me=1 / trellis=2 / 8x8dct=1 / cqm=0 / deadzone=21,11 / fast_pskip=0 / chroma_qp_offset=-3 / threads=12 / lookahead_threads=3 / sliced_threads=0 / nr=0 / decimate=0 / interlaced=0 / bluray_compat=0 / constrained_intra=0 / fgo=0 / bframes=16 / b_pyramid=2 / b_adapt=2 / b_bias=0 / direct=3 / weightb=1 / open_gop=0 / weightp=2 / keyint=250 / keyint_min=24 / scenecut=40 / intra_refresh=0 / rc_lookahead=60 / rc=crf / mbtree=0 / crf=18.5000 / qcomp=0.70 / qpmin=0:0:0 / qpmax=69:69:69 / qpstep=4 / vbv_maxrate=62500 / vbv_bufsize=78125 / crf_max=0.0 / nal_hrd=none / filler=0 / ip_ratio=1.30 / pb_ratio=1.20 / aq=1:0.85 / aq-sensitivity=10.00 / aq-factor=1.00:1.00:1.00 / aq2=1:0.60 / aq2-sensitivity=7.00 / aq2-factor=1.00:1.00:1.00 / aq3=3:[0.50:0.50]:[0.50:0.50]:[0.50:0.50]:[0.50:0.50] / aq3-sensitivity=10.00 / aq3-factor=[1.00:1.00]:[1.00:1.00]:[1.00:1.00] / aq3-boundary=192:64:247 q( [' ^3 I4 A& q
Language                                 : French
5 i) }: `7 d, {) ^- m, oDefault                                  : Yes
9 p: W$ j; L4 @9 B- `% }2 D  r+ P1 mForced                                   : No
) [$ G) f1 @% NColor range                              : Limited. B& T6 z2 \. }0 {3 K
Color primaries                          : BT.709
/ h3 V4 H& o/ FTransfer characteristics                 : BT.709
. W/ d% @. S( k6 K  r: o4 `2 T1 dMatrix coefficients                      : BT.709+ G2 S3 p' v# S4 E

) C; T- K% D6 [3 o1 \' nAudio #15 H. \2 L4 s8 Y8 w6 l
ID                                       : 29 n, L& `. g& b/ ~4 t
Format                                   : E-AC-3$ I+ m4 J, d% S0 n
Format/Info                              : Enhanced AC-3: D9 G3 A+ F' ^8 @# _# ~# W
Commercial name                          : Dolby Digital Plus
7 a9 _7 e  D8 u( _" R) e/ \Codec ID                                 : A_EAC3+ y: Q/ P6 [* L/ @- m
Duration                                 : 1 h 35 min
- {; g2 @9 W: z2 [. o6 Q2 DBit rate mode                            : Constant
% F) U5 c" W) b# [+ dBit rate                                 : 1 024 kb/s. A" N: p# r, e2 o+ T( m. b0 }
Channel(s)                               : 6 channels' g$ K( Y" b) b" M- S0 _. S
Channel layout                           : L R C LFE Ls Rs3 M1 @8 ^: e# N
Sampling rate                            : 48.0 kHz
6 }9 M  b6 {% W* E/ VFrame rate                               : 31.250 FPS (1536 SPF)
; m8 Q0 {- F+ Z& OCompression mode                         : Lossy
; H( L8 E  g' j) TStream size                              : 697 MiB (6%)
( d& I; L5 E$ _* L% eLanguage                                 : French
% O( I& U7 J+ ~, LService kind                             : Complete Main" ]5 L/ [5 a- ^. b# j. L
Default                                  : Yes: ?( ?) z" O. H. d+ i
Forced                                   : No
1 u6 H, z, T3 g, V+ A. i, z, \+ l3 S/ C* ]2 b
Audio #2
7 [! P) J% ^( [4 D! hID                                       : 35 i0 }' Z! p/ ]. P
Format                                   : AAC LC SBR
6 Z5 s5 `* g" MFormat/Info                              : Advanced Audio Codec Low Complexity with Spectral Band Replication; ]% ?9 j, T0 ^, b; P3 b
Commercial name                          : HE-AAC- |; w5 y9 R8 f1 [' F# z
Format settings                          : Explicit
& k" f& Z! X. X8 [6 b; a6 b( UCodec ID                                 : A_AAC-2
3 q' [0 X9 n5 w1 _Duration                                 : 1 h 35 min7 f& l, y; ]+ V7 Q6 A7 @1 Y
Bit rate                                 : 63.5 kb/s
  b5 W2 y' j/ ?) m6 qChannel(s)                               : 2 channels3 R8 t& ?- l/ D; H4 q! ]1 D& {
Channel layout                           : L R: K% B, r  v. \& n( I8 ]
Sampling rate                            : 48.0 kHz$ n# \6 t* s, x0 j  W* D
Frame rate                               : 23.438 FPS (2048 SPF)3 r% k! {! _  X( P2 N6 ]$ s
Compression mode                         : Lossy. G3 }1 r5 C7 A( O( }
Stream size                              : 43.3 MiB (0%)9 Y6 Y7 q$ N5 l( p7 J
Title                                    : Audio description Commentary written by Lauriane Chaleur and Laetitia Brossand with Elois Chouraqui and narrated by Damien "Koshro" under Franck Louis direction for Media Dub International". p0 _; ?/ X- z
Language                                 : French( B8 ^2 z1 x* q
Default                                  : No
: m( L) x1 o) y2 u7 g+ pForced                                   : No
5 P2 u& r$ S$ p  D' A
- g4 b/ E6 s: j7 a' R7 UText #1
$ \8 Y$ Y  W( ?1 e' bID                                       : 44 z5 i+ b, x- P- m* C: ^  }! e  E2 X
Format                                   : UTF-8# N+ t' \, \, E- r: \' f" i1 X
Codec ID                                 : S_TEXT/UTF8
# f0 c* u% g, k5 F3 y! OCodec ID/Info                            : UTF-8 Plain Text6 i3 y* x% o! K  R4 X9 X7 b  @
Duration                                 : 1 h 34 min3 o4 I+ B; Q& G: H0 a
Bit rate                                 : 55 b/s
1 k  b: J$ N0 E9 UFrame rate                               : 0.265 FPS5 o1 V. D" Y0 \% r' Z
Count of elements                        : 1504
, C# b2 ], o0 Z( G: H1 ZStream size                              : 38.1 KiB (0%)  R" Y0 ~  s% c5 g. @
Language                                 : English3 x5 y, `4 M' P4 K( B
Default                                  : Yes% c5 U( t% B% g$ E
Forced                                   : No: s( s' m: i0 H
" J+ m: r- }& h6 ]) z- x) b
Text #2
3 L) x7 X8 r) s1 AID                                       : 59 t& O. o' H7 T8 J# S
Format                                   : PGS% m* h5 P, k) N9 L& M
Muxing mode                              : zlib
1 ^5 _) J. k; I3 }3 v+ F' uCodec ID                                 : S_HDMV/PGS
( M) f2 G' w# }7 ECodec ID/Info                            : Picture based subtitle format used on BDs/HD-DVDs. a5 @- I1 i# M5 H/ T1 a
Duration                                 : 1 h 34 min( M. {0 D6 ?( s* @" A6 E
Bit rate                                 : 43.2 kb/s
7 S8 E+ a; J9 E2 y# e* I  eFrame rate                               : 0.623 FPS
! J8 t5 F; _- ]$ B0 `/ _5 `Count of elements                        : 3542/ N! H8 U  J4 k! m+ E
Stream size                              : 29.3 MiB (0%)$ G4 T5 `' V  |, F. ]& k3 d$ b
Title                                    : SDH$ z4 o0 p0 t) O; N0 F; c( K; o0 V
Language                                 : French: e" F, C: B$ |5 ~$ W) A5 U9 X( G
Default                                  : No
/ ?3 I' E. `0 y5 V! UForced                                   : No
9 Q  k5 ~6 ?5 L- G* y+ T
) e0 K7 D! Q; D+ z5 K6 d/ WMenu
0 B4 ~( L2 t' Z00:00:00.000                             : fr:Chapter 01
  l3 e' Y+ @% k3 d- K' s00:08:05.833                             : fr:Chapter 02
* v2 k7 q6 _" u00:17:37.625                             : fr:Chapter 030 E8 I- N: J: X+ L7 z
00:25:09.999                             : fr:Chapter 04
6 N& E: ~6 B. R1 ^: d00:34:40.458                             : fr:Chapter 05
) Z) x; [' G, h2 ?" N' b+ V* K00:43:34.958                             : fr:Chapter 06
! ]/ q' E4 h( C1 g0 v0 t. |00:54:52.416                             : fr:Chapter 07
, d% l9 l/ t6 n; C# _# P01:01:28.875                             : fr:Chapter 08
" r, w7 k+ i) d$ M3 t01:09:03.416                             : fr:Chapter 09
# h8 v$ U' {% W7 Y01:16:23.124                             : fr:Chapter 10
( C' y) O7 q8 J4 u" u* G0 W# S01:24:18.833                             : fr:Chapter 11/ B* m8 @1 x! m' ?$ M; ]. m
01:31:00.875                             : fr:Chapter 12

# X: R1 |, Z7 N/ z1 L4 n
游客,查看本帖隐藏内容请回复 | 加入VIP可免积分免回复 了解详情 | 还不是会员:点击获取邀请码 Invitation Code

31

主题

2549

帖子

1万

积分

Sponsor

金币
1803 枚
体力
6847 点
QQ
shiji1973 发表于 2022-9-29 12:09:09 | 显示全部楼层
沙发是抢的而不是占的!6 h0 u. T+ C. ~& \
I love your Blu-ray movies Forum!# ?9 p* {/ K" p. c( a; N7 T

31

主题

2549

帖子

1万

积分

Sponsor

金币
1803 枚
体力
6847 点
QQ
shiji1973 发表于 2022-9-29 12:09:54 | 显示全部楼层
沙发是抢的而不是占的!0 _1 x$ l9 w- M! l- y4 x+ l7 u
Blu-ray Film Forum is now my home!: Q( n. @5 E: ]

本版积分规则

小黑屋|Archiver|4K蓝光论坛

GMT+8, 2022-12-4 09:09

Copyright © Tencent Cloud.

快速回复 返回顶部 返回列表