BluRayCD Forum

 找回密码
 立即注册【分享大片】
查看: 56|回复: 6
收起左侧

[喜剧爱情] 纯真时代/情欲王朝/纯真年代 Empire of Lust 2015 KOREAN 1080p BluRaycd x264 DDP5.1-c0kE 17.58GB

[复制链接]

1万

主题

1万

帖子

10万

积分

Post Share

金币
171 枚
体力
26702 点

卓越贡献勋章VIP黄金勋章诚信会员勋章

mvods 发表于 2022-9-28 09:01:44 | 显示全部楼层 |阅读模式
4 E' a9 R5 |( ]1 f0 D7 y8 l
7 P% L! V6 V$ S" G
◎译  名 纯真时代/情欲王朝(台)/纯真年代3 t7 g! |  p+ t3 ~& u5 X
◎片  名 순수의 시대 / Empire of Lust% U1 d' f6 w5 S- D
◎年  代 2015
$ J5 j% u/ A1 ?2 t+ ?- U◎产  地 韩国
6 }/ j/ `. F  ~2 P: Q◎类  别 剧情/爱情/情色/历史
/ B! l2 u0 N; C& N( K' X$ E4 R◎语  言 韩语
- j- W9 N, [, v: |* L◎上映日期 2015-03-05(韩国)7 d" \% Z5 ?  Q/ [: Q6 [( k
◎IMDb评分  6.0/10 from 655 users$ _+ X1 U% X2 h
◎IMDb链接  https://www.imdb.com/title/tt3544326/
  L" @1 n" z7 b◎豆瓣评分 6.0/10 from 7,198 users0 ]9 H2 `) h1 \3 l2 p& B2 J4 A/ {
◎豆瓣链接 https://movie.douban.com/subject/25789453/0 Q0 l$ V" k' C! _9 S* \8 B# Y2 E
◎片  长 1 h 53 min/ b1 k, [6 m3 ?/ M7 y
◎导  演 安相勋 Sang-hoon Ahn% y3 p( A$ m% B' p' F, {
◎编  剧 Se-hee Kim& c; ?$ `, }, W1 S- m
◎演  员 申河均 Ha-kyun Shin
) G3 V: n6 k' L5 V, O0 ]3 n9 n. p& V       张赫 Hyuk Jang
3 {6 v3 @/ a, D  w) k, A) S' J       姜汉娜 Han-na Kang
( A8 L9 k& x7 }  G# ?; _       姜河那 Ha-neul Kang7 j% v; \  I! h5 B5 {( [( N
       朴贞允 Jung-yoon Park
. k# l- E3 _5 Z, K1 A4 {7 X2 ?       朴俊英 Joon-yeong Park  j: e! q& {, K( X  E5 Y" S
       文英东 Young-dong Moon
- a. Q/ [0 C5 u/ j8 W       姜京宪 Kyeong-heon Kang+ }' G/ ]. Z2 q- a: T7 ]
       池成媛 Seong-won Ji
+ [) J& h2 y, W1 A3 q' y       吴荷妮 Ha-nee Oh
4 V' ^8 O; r8 D       河智恩 Ha Ji-eun3 f# s! {) p# k( R) m0 A
       奇周峯 Joo-bong Ki
8 {/ G: G( v3 q' x0 N       金多艺 Da-ye Kim0 Y" a2 L' b: Q; L
       韩旻 HAN MIN
! \* R7 O. u2 O! c' @/ k: [' D
  H/ d7 Z, u. ?7 G◎标  签 韩国 | 情色 | 韩国电影 | 古装 | 历史 | 爱情 | 2015 | 剧情! S2 K" O1 j1 U( r' Z# V+ N1 `8 O' V

7 n, P% T8 U& s4 D◎简  介   1 M5 c+ l, r: ]- J$ x( ?; P7 Q

% J4 p& U' f* U; `& z% W: y  本片以1398年发生在朝鲜李氏王朝的"戊寅靖社"事件为背景,讲述了三个男人的欲望和野心。还有一名为了报复而接近男主人公的妓女,却爱上仇人男主人公。四个人将身心投入到犬色声马中,无法自拔…… 三个男人更是沉浸在自己的世界中,在历史的洪流中谱写一幕幕血雨腥风……9 R: S  b. N  W+ F3 i' b9 K
  b, b2 \3 ^: `
  Kim Min-jae (Shin Ha-kyun), is a brilliant general who's distinguished himself by protecting the borders of the recently established Joseon dynasty. He keeps a close eye on Yi Bang-won (Jang Hyuk), the fifth son of King Taejo (Son Byong-ho), whom he believes has ambitions of seizing the throne, Jin (Kang Ha-neul), is Kim Min-Jae's son and the King's son-in-law. Due to his position as the King's son-in-law, he is unable to take part in politics and only seeks out pleasure. Yi Bang-won was instrumental in helping his father overthrow the Goryeo dynasty and founding Joseon, but was passed over when Taejo chose his successor. Meanwhile, Kim Min-jae falls in love for the first time with a gisaeng (an artist who worked to entertain others, such as the yangbans and kings. They were also courtesans, providing sexual services) named Ka-hee (Kang Han-na), whom he takes as his concubine, not realizing that she aims to carry out a vendetta against him.
! }+ N  O' f6 J! x: [
Empire.of.Lust.2015.KOREAN.1080p.BluRayCD.x264.DDP5.1-c0kE 17.58 GB* c9 s% H6 ~) e4 L' _

) \" |1 R/ U: J/ Q% z4 NVideo3 U, D# Q2 b3 ]
ID                                       : 1
+ S( @  J, r9 V/ U* T% D7 c( ^Format                                   : AVC# T& z& S7 R1 \- }6 G4 ^- ]
Format/Info                              : Advanced Video Codec
, c. H2 S; z: TFormat profile                           : [email protected]4 E2 g( E5 g- d/ k. c6 I
Format settings                          : CABAC / 5 Ref Frames
6 \  n3 w$ O8 X; r, x  bFormat settings, CABAC                   : Yes
. i1 A$ u! ?# m0 b6 yFormat settings, Reference frames        : 5 frames: ]( k& U# R1 D$ u; {. X/ ?" _
Codec ID                                 : V_MPEG4/ISO/AVC% B  W' x2 W6 Y0 b) ^' h
Duration                                 : 1 h 53 min6 n2 J1 u+ S/ X, b7 W( U8 P
Bit rate                                 : 21.2 Mb/s' u' u, U" k2 `% C$ }4 m0 L
Width                                    : 1 920 pixels
; ^! t% _4 t! t* Z5 ]Height                                   : 818 pixels
/ \; k# ]1 Y) m1 t) s% U7 lDisplay aspect ratio                     : 2.35:1
( f" k' [3 y5 e6 e& WFrame rate mode                          : Constant
9 ~7 m  i2 q' |0 wFrame rate                               : 23.976 (24000/1001/189150) FPS
( t7 ?, S$ n9 j. G$ rColor space                              : YUV3 |' D3 L% G' J: N% P
Chroma subsampling                       : 4:2:06 \" f$ d' S5 L1 y% |/ g
Bit depth                                : 8 bits+ s* v/ w/ b- p
Scan type                                : Progressive+ M5 G+ r4 q2 E# v+ T
Bits/(Pixel*Frame)                       : 0.563' J9 ^8 O5 i9 d1 N9 S% @: S5 A! I, u9 Y
Stream size                              : 16.8 GiB (95%)
  d: p& a4 j' ?; ATitle                                    : Sunsu-ui sidae (2015) | Euro Video Blu-ray | c0kE
$ M' U: N/ L& B: NWriting library                          : x264 core 164 r3094+49M 0246926 devel [(8 & 10)[email protected] X86_64]7 o% d0 a4 ]6 L$ _( M
Encoding settings                        : cabac=1 / ref=5 / deblock=1:-3:-3 / analyse=0x3:0x133 / me=umh / subme=10 / psy=1 / fade_compensate=0.00 / psy_rd=1.00:0.00 / mixed_ref=1 / me_range=32 / chroma_me=1 / trellis=2 / 8x8dct=1 / cqm=0 / deadzone=21,11 / fast_pskip=0 / chroma_qp_offset=-2 / threads=12 / lookahead_threads=2 / sliced_threads=0 / nr=0 / decimate=0 / interlaced=0 / bluray_compat=0 / constrained_intra=0 / fgo=0 / bframes=9 / b_pyramid=2 / b_adapt=2 / b_bias=0 / direct=3 / weightb=1 / open_gop=0 / weightp=2 / keyint=250 / keyint_min=23 / scenecut=40 / intra_refresh=0 / rc_lookahead=60 / rc=crf / mbtree=0 / crf=15.5000 / qcomp=0.60 / qpmin=0:0:0 / qpmax=69:69:69 / qpstep=4 / vbv_maxrate=62500 / vbv_bufsize=78125 / crf_max=0.0 / nal_hrd=none / filler=0 / ip_ratio=1.30 / pb_ratio=1.20 / aq=3:0.80 / aq-sensitivity=10.00 / aq-factor=1.00:1.00:1.00 / aq2=0 / aq3=0
5 i. P, i6 c' Y/ w5 `Language                                 : Korean
1 m5 }2 s0 E- M4 C7 pDefault                                  : Yes
$ ~+ B4 Q/ u; N% B/ K' BForced                                   : No
+ {' G" m. Z* ^$ G6 x8 `Color range                              : Limited
2 p6 k! P, z) H' pColor primaries                          : BT.709  S% m6 |7 D' }) C8 f
Matrix coefficients                      : BT.709
! S$ P3 V% t2 x
5 `' |; |5 f4 x* o6 e% r( }: YAudio) W2 o4 w$ D; H( t5 g. m  |
ID                                       : 2( {% f7 b1 V5 B% @& a( q" p
Format                                   : E-AC-3
; A7 v5 l, O* s* \6 FFormat/Info                              : Enhanced AC-3
% e7 M% [, [' l5 ~Commercial name                          : Dolby Digital Plus3 S2 b7 Z; b9 V
Codec ID                                 : A_EAC38 x- G& ]- s) {4 X6 ?& `* U
Duration                                 : 1 h 53 min
3 M6 v5 G# W; T2 uBit rate mode                            : Constant
3 x' O* r1 p6 \* @7 {. x2 WBit rate                                 : 1 024 kb/s
% b1 X  k. P3 bChannel(s)                               : 6 channels
- W- {6 M% v9 O' v' Y/ IChannel layout                           : L R C LFE Ls Rs2 Z' Q0 O( S$ H- Z% J+ u
Sampling rate                            : 48.0 kHz: s) r3 B0 ?. {' `7 X
Frame rate                               : 31.250 FPS (1536 SPF)' ]9 w5 v4 t+ z( x
Compression mode                         : Lossy1 P- n: i: a" V3 ~; d& m, J
Stream size                              : 830 MiB (5%)% y& \5 V; l: Q0 C1 e) e% e
Language                                 : Korean
" \: P* A9 }" a" XService kind                             : Complete Main0 D0 m3 k% C! p; X: c, d: i
Default                                  : Yes0 Y1 Y% t5 b, c- ^1 w
Forced                                   : No
2 P4 y0 I( I7 R4 C# J# `
, g* G, S, a. h7 V- i3 m& W# o: CText #15 q+ n6 X: G1 H$ W
ID                                       : 3  |$ N0 Q, I0 e. s( C0 Y; y. d; P
Format                                   : UTF-8
; f" K) c& R/ n9 i5 s9 \8 ]# @6 N8 nCodec ID                                 : S_TEXT/UTF8
7 Y0 e# o* n( O. qCodec ID/Info                            : UTF-8 Plain Text% u  N* L2 c2 O+ Y+ ^
Duration                                 : 1 h 52 min* Y& ?# S! l: y7 n9 o, [
Bit rate                                 : 37 b/s& U- C' J, ~% [* T# w
Frame rate                               : 0.143 FPS
- |% S& J  p! d; CCount of elements                        : 960
3 f' R  R0 ^3 Z6 F0 T1 d8 ZStream size                              : 31.2 KiB (0%)3 W3 w& ~5 @/ F% @& e
Title                                    : Netflix! Q6 p  m! ~+ w. ^+ z+ D
Language                                 : English/ M0 f" C) x8 f# Q7 d  m( d
Default                                  : Yes; X2 l. o7 S( f* D
Forced                                   : No
1 k) {  u6 L* g" ]& w2 `: l% ^" f
/ U: X; l2 B7 PText #2
9 _; y% t' f( h; [, WID                                       : 4
# b1 z9 L3 V2 Y1 b. ^" G  s$ HFormat                                   : UTF-8
4 B7 Y) O/ r  q# P, i. T! v# z0 S2 KCodec ID                                 : S_TEXT/UTF84 L0 O. X0 V. F7 C+ I
Codec ID/Info                            : UTF-8 Plain Text& k& _8 C. Y0 A" X8 u5 i
Duration                                 : 1 h 48 min
$ z1 b7 `2 L( \1 hBit rate                                 : 42 b/s% @' s  R! \/ ]9 S7 U* A
Frame rate                               : 0.168 FPS( k" M5 d# S, R
Count of elements                        : 1098: @# v* c: v# |; |4 I2 j7 G7 L1 C
Stream size                              : 33.7 KiB (0%)3 T  R$ m" ^* O  h1 e8 V
Title                                    : AMZN
# f8 E) _3 d6 e" v) J+ GLanguage                                 : English
+ @9 l1 s2 d# L6 u  x  O6 x' H  yDefault                                  : No) y) I( i% Y  G- r; O/ A
Forced                                   : No6 l' P% k, J# v3 s, E
9 x  e- ]& G1 o
Text #3+ y$ F; [  P0 Z) F# l- W
ID                                       : 5
0 ]- s6 g/ O' V; M$ C, Z& U8 Q; IFormat                                   : UTF-8
8 T- h& {, @5 S0 c* j7 aCodec ID                                 : S_TEXT/UTF8
# ~* ?: B6 b/ t( J9 `' c" O+ LCodec ID/Info                            : UTF-8 Plain Text$ q& @8 K3 }- \% _( u6 D: H9 b1 b
Duration                                 : 1 h 50 min' V, x0 u! W- b4 a( s+ R; ]
Bit rate                                 : 72 b/s9 D, e% R) d- Y3 a2 C  R( t! h
Frame rate                               : 0.218 FPS
7 `+ P, f8 e. E4 D/ ^Count of elements                        : 14496 l/ p  D" I! t' W$ m9 S
Stream size                              : 58.7 KiB (0%)' n2 L- |" F8 U0 s
Title                                    : SDH | Netflix
9 `2 S* P. z, ~  N- v( ELanguage                                 : Korean8 ]% }' w* V- y6 A  J; q8 C
Default                                  : No4 I8 E' J% U9 z+ h# S) A" ~
Forced                                   : No
1 i7 }# H& v( X& _% r/ L2 R: {8 l6 J) u& d# e% Y# ?
Text #4* F/ Q- e, k0 j) L
ID                                       : 6
4 A7 }6 {9 v; X4 h$ \* j/ I. DFormat                                   : UTF-8
2 s* I# L1 V, `1 q& b$ {Codec ID                                 : S_TEXT/UTF8
* r! k/ H% C/ ICodec ID/Info                            : UTF-8 Plain Text% P+ P! c( x! t$ |  `  R0 y9 ^
Duration                                 : 1 h 52 min
& C: X" |3 G' O; p$ o8 L6 VBit rate                                 : 49 b/s) u. t8 q1 T0 e  y3 t4 j" R% d
Frame rate                               : 0.142 FPS& I9 G6 J1 J. f9 o, V4 w" ]6 h5 P
Count of elements                        : 958
. k9 g3 \! L$ `  k2 PStream size                              : 40.9 KiB (0%)( R1 h; j1 T; A9 b, Z. }. l- Z' @
Title                                    : Netflix
* H  Y5 U4 M: K( m6 q+ o# KLanguage                                 : Vietnamese/ B  h& N4 ^6 }% L: y8 d, d
Default                                  : No
/ J9 c+ \# X, r( }5 K& J1 ?Forced                                   : No
; D- z* j; v; f) I+ N/ I$ B+ e2 u4 d
Menu5 b# B% q& t# c4 y/ f# p
00:00:00.000                             : en:Chapter 012 Z6 j3 k- u' \& N% P! f
00:11:07.750                             : en:Chapter 02. t  e  h& s8 R' m# h6 k  F( L
00:22:29.306                             : en:Chapter 03( W& E4 J" {1 K. U3 I2 U& G0 ?
00:34:09.506                             : en:Chapter 04
$ U- i; g& f) V$ Q6 r5 V00:45:13.836                             : en:Chapter 05
  R+ a. q9 p% Z8 Z  s& S# t% c00:56:48.196                             : en:Chapter 06/ K( L% |) X2 o$ B
01:07:44.519                             : en:Chapter 07& W1 ]3 C( D; y  O* Z
01:19:08.160                             : en:Chapter 085 f: b0 N6 Q( `: Q0 ~
01:30:35.555                             : en:Chapter 09& ~- o: ^0 [' Z9 U: r, \
01:42:12.626                             : en:Chapter 10

. d% ?' P( T# v8 h. ^* |  z' G' @
游客,查看本帖隐藏内容请回复 | 加入VIP可免积分免回复 了解详情 | 还不是会员:点击获取邀请码 Invitation Code

31

主题

2540

帖子

1万

积分

Sponsor

金币
1794 枚
体力
6817 点
QQ
shiji1973 发表于 2022-9-28 09:11:41 | 显示全部楼层
每天都来蓝光论坛看看,我爱蓝光电影。
! y% \& k- B, O! G1 r9 `1 L4 ~' _Blu-ray Film Forum is now my home!5 s0 w1 e5 ?) Y9 U( K

3

主题

601

帖子

2565

积分

Sponsor

金币
588 枚
体力
874 点
211 发表于 2022-9-28 12:18:33 | 显示全部楼层
楼主发贴辛苦了,I*老*虎*U!
& Z9 `7 B& ], L* Z) O0 fThe decisive Replies sink is I get the sinking feeling great sense of accomplishment!
# @, g4 m1 }, D+ j$ S& T0 T

0

主题

131

帖子

730

积分

Sponsor

金币
6 枚
体力
461 点
QQ
一见哈哈笑 发表于 2022-9-28 13:23:26 | 显示全部楼层
感谢楼主,感谢!

0

主题

589

帖子

2256

积分

Sponsor

金币
29 枚
体力
953 点

签到达人勋章

QQ
jiyugen8180 发表于 2022-9-28 22:07:29 | 显示全部楼层
每天都来蓝光论坛看看,我爱蓝光电影。
' u( s* ^! `' K0 H' g2 y要想蓝光电影论坛发展好,资源多,就靠你我他!To the development of Blu-ray movies forum, resources and more depend on you and me!1 Z# b  U7 e3 L: e( e

0

主题

1078

帖子

4233

积分

Sponsor

金币
261 枚
体力
1830 点
zzk980220 发表于 2022-9-30 16:02:29 | 显示全部楼层
啥也不说了,楼主就是给力!1 f2 \" d$ {4 }4 v" q5 o& {0 z8 ?+ q
至少是现在,我一天没有访问蓝光电影论坛就不爽!At least now, my day did not visit the Blu-ray Film Forum on unhappy!; y& {* F* Q7 k* U$ B! s5 q6 ^

1

主题

228

帖子

1095

积分

Sponsor

金币
105 枚
体力
525 点
bravehunter 发表于 2022-10-20 16:20:06 | 显示全部楼层
楼主发贴辛苦了,I*老*虎*U!( Q! g1 W! I1 G5 N& `
bluraycd forum, a lot of Blu-ray movies!
; c8 M8 P" A# u  E$ y1 k

本版积分规则

小黑屋|Archiver|4K蓝光论坛

GMT+8, 2022-11-27 01:07

Copyright © Tencent Cloud.

快速回复 返回顶部 返回列表