BluRayCD Forum

 找回密码
 立即注册【分享大片】
查看: 28|回复: 7
收起左侧

[科幻恐怖] 断魂小丑2/刽乐小丑2 Terrifier 2 2022 1080p AMZN WEBRip DDP2.0 x264-NOGRP 9.50GB

[复制链接]

1万

主题

1万

帖子

10万

积分

Post Share

金币
171 枚
体力
26702 点

卓越贡献勋章VIP黄金勋章诚信会员勋章

mvods 发表于 2022-10-26 05:24:38 | 显示全部楼层 |阅读模式

" z: Y7 r+ L$ v. J! R
6 T% R0 M# w0 l- o6 C5 U- F◎译  名 断魂小丑2/刽乐小丑2
" O- y# h. Z" E◎片  名 Terrifier 2 / Страховидло 23 k* n5 `- S8 W. x  n
◎年  代 2022
2 w) |, R' E9 v  E2 ^◎产  地 美国
: T) `' k" T0 r9 S! n; R6 C5 s7 I5 z4 D◎类  别 恐怖/惊悚
' }7 k  Q$ m+ [/ N◎语  言 英语
; D6 w) n( f  F◎上映日期 2022-08-29(英国)/2022-10-06(美国)
3 g5 H* m7 P$ N; R/ I) ~◎IMDb评分  6.6/10 from 5,644 users' P! o. {9 k( g2 P+ M& Y$ Z
◎IMDb链接  https://www.imdb.com/title/tt10403420/1 }* Y; C* N" X; [
◎豆瓣评分 6.1/10 from 2,903 users$ `- X6 B' y2 j; v0 P( H9 ~0 {# M$ s
◎豆瓣链接 https://movie.douban.com/subject/34816877/
5 U9 Q% g! f, L  z2 }◎片  长 2 h 18 min
( X/ w5 L+ M8 P( g◎导  演 达米安·利昂 Damien Leone: k' S* d6 J  i# L/ w8 K* }
◎编  剧 达米安·利昂 Damien Leone* u. S) T/ i! e2 o# V
◎演  员 珍娜·凯内尔 Jenna Kanell
3 T) K6 H& ~$ B8 W, o       劳伦·拉维拉 Lauren LaVera
& I2 G$ E" Y! t       戴维·霍华德·桑顿 David Howard Thornton+ e: a# {' ]6 }+ y, i
       凯瑟琳·科科兰 Catherine Corcoran
$ J' U6 K0 F+ L: S# K, ?* ?1 y0 O       格里芬·桑托彼得罗 Griffin Santopietro
+ k/ @2 X$ [4 S$ s- E; p9 X       费莉莎·罗斯 Felissa Rose# w: Z% x' y4 [6 Z7 u
       萨曼莎·斯卡菲迪 Samantha Scaffidi- B4 ]( w% E" E* S7 D
       塔玛拉·格林 Tamara Glynn
* C5 d! d% h1 ?! c4 b! O3 P3 ^       凯莉·海曼 Kailey Hyman, W. m# t! D% z
       凯蒂·马奎尔 Katie Maguire
0 z# g- L) |7 z" T       埃利奥特·富勒姆 Elliott Fullam
- K9 O. N7 q8 W  c! o$ a       凯西·哈特内特 Casey Hartnett7 @$ n) N3 f7 N- w
       克里斯·杰里科 Chris Jericho; n% k/ w+ z. U8 r
       乔治亚·麦克菲尔 Georgia MacPhail
1 C3 Q* i) \" w5 k) C  o7 I+ ^       莎拉·格蕾丝·桑德斯 Sarah Grace Sanders* I0 N: I2 l* b1 N
       艾米·露斯 Amy Russ" J. t( R& o- g5 h$ y
       欧文·迈尔 Owen Myre
/ {! u9 Y# O9 {& D5 {' X5 D5 J$ H0 w8 X! I" M) J$ m
◎简  介: ~9 W- \' c5 X( ^7 d' h5 V! W
8 }) i3 G5 Z4 y! X
  一股邪恶的力量唤醒杀人小丑亚特。在万圣夜,杀人小丑亚特回到迈尔斯镇,他的目的是抓拿一名少女和她的弟弟,并在万圣夜当晚将他们两人杀害。小丑亚特杀人不眨眼,受害人数不断增加,姊弟两人为生存而奋战的同时也努力探查杀人小丑亚特背后的动机。0 v3 k* u' \: u' v

9 P7 ?$ h( h7 D4 s) N. Y3 s7 D- `9 Z  After being resurrected by a sinister entity, Art the Clown returns to the timid town of Miles County where he targets a teenage girl and her younger brother on Halloween night.
, R8 k" t: U) [/ }
Video
! [" `8 ~# t! i& _; e! [& zID                                       : 1% y5 Y: X/ {6 ~8 j6 m" d3 B
Format                                   : AVC
5 x( _, f1 E0 M( `/ [. ~Format/Info                              : Advanced Video Codec. x6 Q7 t  l8 S0 o# d
Format profile                           : [email protected]
0 n3 v2 x* h9 Z0 v2 U; qFormat settings                          : CABAC / 4 Ref Frames5 [% y% h" w9 e  |# i) i
Format settings, CABAC                   : Yes
8 l2 G: O0 k9 e# q- ?Format settings, Reference frames        : 4 frames. `5 x0 u3 E; {
Codec ID                                 : V_MPEG4/ISO/AVC
9 e# E& G! o# YDuration                                 : 2 h 18 min
( V6 t, U1 k) V+ i/ D+ pBit rate mode                            : Constant" b7 e/ z) {: V' t5 @* e. ~
Bit rate                                 : 10 000 kb/s9 {$ I/ d* V$ T8 o7 F* J
Width                                    : 1 920 pixels: E+ D' G' J1 I8 C) i, T
Height                                   : 1 080 pixels
: L& g1 _5 U' U; rDisplay aspect ratio                     : 16:9
$ ~/ [  R3 x9 E1 H6 l% h7 O! OFrame rate mode                          : Constant
' R- D2 U. a0 b% HFrame rate                               : 23.976 (24000/1001/189150) FPS
" _5 Y# W, x% y$ [) W2 TColor space                              : YUV6 P# ^$ J: t2 ~3 s2 j! u. p- Z0 K
Chroma subsampling                       : 4:2:0
4 R1 x' K+ j  e1 Q! b. I( ^Bit depth                                : 8 bits
3 L: }  a) H  @3 ^8 I4 e4 I( gScan type                                : Progressive! A: d' X6 z+ c" j3 J+ w9 V9 T3 H
Bits/(Pixel*Frame)                       : 0.201
3 I- j3 `* `7 I* K2 L5 f- PStream size                              : 9.28 GiB (98%), ]' q( e1 [9 U. O- Z
Default                                  : Yes
- _- s- e, p  ?' t* g* h/ s" uForced                                   : No& p5 m9 b2 q: M7 Z- r0 S. @; A
Color range                              : Limited
' i0 V6 ?3 v$ g1 ]  L! wColor primaries                          : BT.709, w- ?$ h3 U2 z6 k
Transfer characteristics                 : BT.709
& ]! |1 X' V( N9 b9 L/ jMatrix coefficients                      : BT.709# S+ [5 Z( i9 w/ C1 N. |/ X
; _+ ]7 x. ~6 ?0 d
Audio  J7 g1 a' v4 g) p& A; `
ID                                       : 22 J" y7 R( X9 w4 l
Format                                   : E-AC-3( E. G7 Y0 p, p: S) T
Format/Info                              : Enhanced AC-3: c. ^) H( W+ P& M1 l& u
Commercial name                          : Dolby Digital Plus
- f0 V# r4 W: cCodec ID                                 : A_EAC3
6 m+ y$ S8 ^* S" N3 x" y1 @Duration                                 : 2 h 18 min& F4 [1 f0 d* b) }
Bit rate mode                            : Constant
: l+ \6 [$ `/ p" i3 jBit rate                                 : 224 kb/s) V) v' f7 I, y& I( P$ L% v
Channel(s)                               : 2 channels, X& k' D6 I% `" ^/ {
Channel layout                           : L R) T/ g% s% r+ g" V9 z/ f
Sampling rate                            : 48.0 kHz, Y0 [; K2 O' ]5 n
Frame rate                               : 31.250 FPS (1536 SPF)3 z0 `" F- B3 N0 u8 a
Compression mode                         : Lossy
- c0 ^" r6 r- p* c( v" Q$ yStream size                              : 221 MiB (2%)
+ ~* P0 W: o  D) M6 d8 O% cLanguage                                 : English
4 c) d1 T# J- {  |+ ^* u3 E1 cService kind                             : Complete Main
3 {: Y" S2 T$ E7 SDefault                                  : Yes0 B: V0 W$ v8 j. {
Forced                                   : No

3 b* q5 [3 E; [6 h* r" [& b2 ~* l
游客,查看本帖隐藏内容请回复 | 加入VIP可免积分免回复 了解详情 | 还不是会员:点击获取邀请码 Invitation Code

0

主题

108

帖子

482

积分

Sponsor

金币
0 枚
体力
263 点
chamroenlee 发表于 2022-10-26 14:14:08 | 显示全部楼层
藍光論壇是好樣的,謝謝分享!

0

主题

589

帖子

2256

积分

Sponsor

金币
29 枚
体力
953 点

签到达人勋章

QQ
jiyugen8180 发表于 2022-10-27 08:36:25 | 显示全部楼层
每天都来蓝光论坛看看,我爱蓝光电影。
0 s( E" H8 V. L  n# v" k$ jBlu-ray Film Forum is now my home!
! E9 {: ^& h5 r* \" o7 v

31

主题

2540

帖子

1万

积分

Sponsor

金币
1794 枚
体力
6817 点
QQ
shiji1973 发表于 2022-10-28 08:32:37 | 显示全部楼层
沙发是抢的而不是占的!+ R: @. _) s! h
Blu-ray Film Forum: I will always support you!
4 o( J% r1 Y( ]! f2 S

0

主题

149

帖子

961

积分

Sponsor

金币
15 枚
体力
506 点
quicken 发表于 2022-11-7 22:00:21 | 显示全部楼层
非常恶心,但是很好看!

0

主题

1078

帖子

4233

积分

Sponsor

金币
261 枚
体力
1830 点
zzk980220 发表于 2022-11-8 12:34:45 | 显示全部楼层
啥也不说了,楼主就是给力!; m% J+ s, Q$ s  K& }4 n
Blu-ray movies Community: my favorite!! V6 h: N3 I( W' a# U

0

主题

841

帖子

3252

积分

Sponsor

金币
248 枚
体力
1305 点
lfvvzc 发表于 2022-11-16 14:59:13 | 显示全部楼层
果断回帖,如果沉了就是我弄沉的感觉很有成就感!
+ c; b1 D1 P. h8 n5 d; F2 N/ Q% NNot see, I am a novice, the inadequacies of the first Please bear with me!( h) j: s; w- [7 ]3 h  t

0

主题

841

帖子

3252

积分

Sponsor

金币
248 枚
体力
1305 点
lfvvzc 发表于 2022-11-16 15:01:45 | 显示全部楼层
看了LZ的帖子,我只想说一句很好很强大!""
0 b, H- H4 o* c6 i# l  L+ f: P9 l要想蓝光电影论坛发展好,资源多,就靠你我他!To the development of Blu-ray movies forum, resources and more depend on you and me!7 q- q- M) c2 p4 L- k' X  V

本版积分规则

小黑屋|Archiver|4K蓝光论坛

GMT+8, 2022-11-27 00:42

Copyright © Tencent Cloud.

快速回复 返回顶部 返回列表