BluRayCD Forum

 找回密码
 立即注册【分享大片】
查看: 66|回复: 7
收起左侧

[蓝光原盘] 绝命空间站 [REMUX无损版] Rubikon 2022 1080p BluRaycd REMUX AVC DTS-HD MA 5.1-FGT 19.99GB

[复制链接]

8953

主题

9147

帖子

6万

积分

Post Share

金币
113 枚
体力
12493 点

卓越贡献勋章

24小时 发表于 2022-11-3 18:30:32 | 显示全部楼层 |阅读模式
01.jpg
  b# \% v2 Z6 Z+ w- c
" @2 F' {9 P7 C◎译  名 绝命空间站
5 k2 Q; O% |) p/ Z' @3 b9 n◎片  名 Rubikon / Рубікон9 n2 d3 k- P# Z- Y8 e
◎年  代 2022
& a) [- d: |- @. n0 ^◎产  地 奥地利
& U! ^1 A  q1 P+ N* t; t' j7 g. U◎类  别 科幻/惊悚+ Z' \8 R; k5 y9 ~
◎语  言 英语
9 \7 M) F) k. q* }◎上映日期 2022-07-01(美国)/2022-09-15(奥地利)9 y& ?7 m  \4 C. k: x
◎IMDb评分  4.9/10 from 2,584 users( @! O( T8 `* Y1 {1 k$ r2 V4 U% G
◎IMDb链接  https://www.imdb.com/title/tt13829262/# R' o! w+ D1 g& V- R4 z" u
◎豆瓣评分 4.7/10 from 492 users7 t+ z/ T0 G! ~
◎豆瓣链接 https://movie.douban.com/subject/35524221/; L' z" }* o4 L. c
◎文件格式 x264 + DTS
2 k: C( ^' G. H7 W' T; w◎视频尺寸 1920 x 1080
1 D  L, o. }$ j  M6 R9 w2 S2 M◎文件大小 1DVD 19.99 GiB
3 A- Z$ G/ v# q& B◎片  长 1 h 49 min
1 I& o) c$ p( e" q3 q: b◎导  演 Magdalena Lauritsch% r, O& Y; b6 F7 ?9 a% T& M
◎编  剧 Magdalena Lauritsch& m4 M8 H! p! N- N) K& U
       Jessica Lind. z2 h; ^, P3 h  W3 P5 S5 y
       Elisabeth Schmied
! @0 k0 p) Y, z4 w◎演  员 朱莉娅·弗兰茨·里克特 Julia Franz Richter: ?1 b+ e1 i9 p! ?
       乔治·布莱顿 George Blagden
: T4 b3 u+ c/ g- H       马克·伊瓦涅 Mark Ivanir
3 {3 ]7 W3 P( {# a+ t       莫妮卡·布廷格 Monika Buttinger
1 O: m: C: L. H0 R$ r
) Z$ S5 a# @. A' x! j! V7 _/ l6 F◎简  介   
- B  j: _3 l1 k" {7 _5 O8 t8 L3 ]. \4 b0 X1 t4 ~& @) _6 }% i  {
  在地球上发生了一场灾难之后,地球被有毒的雾所覆盖。空间站的宇航员们必须决定是冒着生命危险回家寻找幸存者,还是在空间站的“藻类共生系统”中保持安全。( \" ^! V1 L. T

! I  ~; w! P5 E/ e- S! ^: \  F2 L  Following a catastrophe on Earth, the planet is covered in a toxic fog. The crew in the space station, must decide whether to risk their lives to get home and search for survivors, or stay safe in the station's "algae symbiosis system".
7 ]8 s2 K, A; U, F. U+ f8 `. ~% k: _- c$ K
  2056年的今天,连队士兵汉娜和科学家加文和迪米特里在RUBIKON空间站上研究一个藻类项目,旨在为人类提供永久的氧气和食物供应。但突然之间,他们脚下的地球消失在一团棕色的有毒雾中,所有的接触器都坏了--他们是最后的幸存者吗?他们应该离开安全站,冒着生命危险飞回地球吗?什么值得活着,什么值得为之牺牲?) m9 t2 ^+ s7 ]+ N
2 L" ~5 E' n/ Y  r2 I
  2056 - Company soldier Hannah and scientists Gavin and Dimitri are on board of RUBIKON space station researching an algae project aimed to provide humanity with a permanent supply of oxygen and food. But all of a sudden the earth beneath them disappears in a brown, toxic fog and all contacts are broken - are they the last survivors? Should they leave the safe station, risk their lives by flying back? What is worth living for, what is worth dying for?+ I& N7 [) s& {/ W3 Y
Rubikon.2022.1080p.BluRayCD.REMUX.AVC.DTS-HD.MA.5.1-FGT) H2 P4 v- \7 A+ Z
" E: f# F( u. `
Video
$ O6 n* T: Y9 u8 Y3 UID                                       : 1/ l# D0 f( S: v+ |
ID in the original source medium         : 4113 (0x1011)
* ~0 Y; l& K; S2 }3 z$ cFormat                                   : AVC9 _# Q0 S  N* Y1 @4 T% I7 i7 s
Format/Info                              : Advanced Video Codec
+ t" {4 Q% o" @: w6 UFormat profile                           : [email protected]5 C& d1 ~6 j; ~4 |7 L
Format settings                          : CABAC / 4 Ref Frames
; y7 ]  ?) F/ \; L1 g0 c/ M6 Y5 VFormat settings, CABAC                   : Yes: @. L# U' j" ~, w* r6 v
Format settings, Reference frames        : 4 frames- v$ h. p9 a6 g1 ]
Codec ID                                 : V_MPEG4/ISO/AVC1 |" M3 P4 R1 F
Duration                                 : 1 h 49 min
& L9 B; w9 S" Z$ `Bit rate mode                            : Variable! j$ V  d3 r. `' o; t- [
Bit rate                                 : 20.8 Mb/s
3 `; E& ]4 f  V5 P( p# O8 cMaximum bit rate                         : 36.0 Mb/s7 c6 V, D4 H( P" T( a6 n( e
Width                                    : 1 920 pixels
+ I5 O; c5 I5 L5 `$ Y3 bHeight                                   : 1 080 pixels( @" r( f, K, v3 a
Display aspect ratio                     : 16:98 a5 P4 o1 Y- c) U
Frame rate mode                          : Constant
5 F) C' A3 d( w6 r0 lFrame rate                               : 23.976 (24000/1001/189150) FPS6 C! \9 K$ d% A( v
Color space                              : YUV
% h" s7 P3 I( |Chroma subsampling                       : 4:2:0, A# {# W) d# B; x5 D8 m
Bit depth                                : 8 bits
/ H1 W6 V; p4 }# KScan type                                : Progressive
- `/ \9 O3 [& j5 _+ \) {Bits/(Pixel*Frame)                       : 0.418
0 X  f2 }6 B/ {Stream size                              : 15.9 GiB (80%)
9 y' i+ \) [9 r0 |# b8 _7 U. rLanguage                                 : English
0 O, L! i6 l: zDefault                                  : No
5 v/ Y! ~) w6 }6 R% i, E- M% |Forced                                   : No/ i6 j2 D! N) R$ q
Original source medium                   : Blu-ray$ Q6 E' \3 v2 G/ P% |! N
# ]$ H+ l4 a1 M
Audio #1) |( x+ e9 ]. D2 r9 y: \9 v2 z
ID                                       : 2+ v* B5 y5 c$ o# N) t  P
ID in the original source medium         : 4352 (0x1100); g- x; l2 k: d/ o( A
Format                                   : DTS XLL
6 E. ]3 s/ V# x; F4 ^4 H/ gFormat/Info                              : Digital Theater Systems
% `* F% \( h' v$ [4 H4 lCommercial name                          : DTS-HD Master Audio
' c& \) o( b4 r9 ZCodec ID                                 : A_DTS
+ O8 K3 i2 s% n# KDuration                                 : 1 h 49 min5 f! g+ O7 {+ b
Bit rate mode                            : Variable! M! f. i0 ?% R) A& Q
Bit rate                                 : 3 256 kb/s! X1 J7 B$ g6 r8 G3 U9 T2 H7 t& A
Channel(s)                               : 6 channels
4 {# u1 E1 T: E7 v1 w3 j/ wChannel layout                           : C L R Ls Rs LFE  e  Q( E) N/ u) p2 z- x$ |- |
Sampling rate                            : 48.0 kHz
& r6 J% K' X2 w* bFrame rate                               : 93.750 FPS (512 SPF)
7 r2 `% H# I" Z' vBit depth                                : 24 bits
. J+ {1 l6 |4 tCompression mode                         : Lossless& ~. F+ H! X1 ]9 W
Stream size                              : 2.50 GiB (12%)# F6 q  Z$ V& _5 X) t1 B/ G; f
Title                                    : DTS-HD MA 5.1
0 _5 ]( b9 q2 |8 z4 G& ?5 {* [( rLanguage                                 : English
" ?4 C8 ?0 ^  g/ S1 V" `) m9 MDefault                                  : Yes
# J3 {8 Z  `- ?Forced                                   : No
+ C  r! h3 ^# F  _& uOriginal source medium                   : Blu-ray% k9 j5 B& L8 X+ J/ r. g) M; C: v
& s/ ]; H9 Q7 y
Audio #20 D5 g1 N+ I4 Q6 L: I: _2 E
ID                                       : 3; e/ G6 v: Z2 o. f+ E# s
ID in the original source medium         : 4353 (0x1101)
/ ?4 q, N  |9 W5 W  ZFormat                                   : DTS XLL
; }6 g3 t0 C1 B% p& H2 QFormat/Info                              : Digital Theater Systems. Y1 O. F* {& d( [* Z( h" ?7 J* B
Commercial name                          : DTS-HD Master Audio
- a* r! f& e: j2 A8 t& L; [Codec ID                                 : A_DTS# _6 {! P3 k. T* ]/ U0 \- Y
Duration                                 : 1 h 49 min# \: ~0 B6 R+ [% [/ C) V; c) p
Bit rate mode                            : Variable6 W. O5 f1 L& ~% X& Y# b
Bit rate                                 : 2 005 kb/s9 M" B! z1 T3 q) r3 e! C" U
Channel(s)                               : 2 channels
7 w' ^( ]2 |+ e- I  X1 XChannel layout                           : L R
: ^# |/ F( }/ ySampling rate                            : 48.0 kHz- {# s. |4 [3 {% j3 _
Frame rate                               : 93.750 FPS (512 SPF)! ^3 R- v! E2 w8 @& T
Bit depth                                : 24 bits
; [$ }! w# m( n2 \0 y5 ?Compression mode                         : Lossless3 a& r+ q- k6 [; U( l
Stream size                              : 1.54 GiB (8%)
( q, K( _/ d3 w; {4 ]8 ITitle                                    : DTS-HD MA 2.0
1 \. l# ^; s2 i8 s/ zLanguage                                 : English- w! }9 Z6 B- B) E7 {, ]  D3 P
Default                                  : No
/ U9 }" s# a( g) fForced                                   : No
+ w) n2 E* b1 p* U- m+ w' YOriginal source medium                   : Blu-ray
- h- o7 P3 T! L. ^; e5 @7 O
; M7 t* t8 w9 B6 [$ z: H$ @6 j0 V4 ~Text #1
2 B" t5 R* b/ KID                                       : 4
  v0 M% u7 r7 _  C2 F1 L$ g5 @Format                                   : UTF-8
% o& X) T/ @/ Q1 ]1 ?1 {/ UCodec ID                                 : S_TEXT/UTF8
+ N0 [& x, v/ W3 W/ d* ]Codec ID/Info                            : UTF-8 Plain Text
- j7 b2 h) }. ^+ K# k6 w, A* jDuration                                 : 1 h 43 min: r1 a/ A5 M# w
Bit rate                                 : 44 b/s- O8 C$ h: m. d
Frame rate                               : 0.185 FPS
. a4 N, a5 a) j/ ]+ fCount of elements                        : 1147. G7 H+ R+ U8 i" }" F$ z
Stream size                              : 34.1 KiB (0%)6 h& S) o% D* Z7 M4 l) y* t
Language                                 : English5 E. ~* J0 E1 @& V+ e; x' Y$ P% P$ Z0 }$ F
Default                                  : Yes
! E) N( F4 T5 Y" lForced                                   : No
' m& d2 ^# S/ }+ a' v5 ~  o7 u& b, G9 k# x/ l+ ~
Text #2
2 ?& T1 Z* ?; A( e  \/ a/ ^ID                                       : 54 O: }- f9 A% D5 h8 O' v/ [
Format                                   : UTF-8
  B, }+ p+ z) W( e& aCodec ID                                 : S_TEXT/UTF8
) l4 U/ D: l) Z% i& w9 b6 xCodec ID/Info                            : UTF-8 Plain Text
# m2 }& c( H1 H7 i4 t! |; l# RDuration                                 : 1 h 47 min
( Y, u" Y  z/ u: S1 rBit rate                                 : 48 b/s
- B  [8 ~, D( w& `- cFrame rate                               : 0.199 FPS
! u! O+ s1 s0 O; R: \- UCount of elements                        : 1280
* l; o. [: P) v0 PStream size                              : 38.0 KiB (0%)* d" J4 K* D( d) F
Title                                    : SDH/ r. S# H' D+ {( r
Language                                 : English
8 |% G# j9 p" e7 W4 A7 c2 l  `. CDefault                                  : No
6 l" ?, ?# ~' y6 j5 Q& K: x( a. QForced                                   : No1 U0 |, Y% g; o" t; W7 \
9 d+ z$ K( O/ q+ A4 w  `0 ^
Text #3: s3 L. g7 u8 M6 c3 D
ID                                       : 6$ r: Q! E, {+ s3 H$ d
ID in the original source medium         : 4608 (0x1200)
' \- ?5 M2 o( p; G" ?Format                                   : PGS' E- |: \0 A, T% b
Muxing mode                              : zlib# b, Q0 U6 h1 a
Codec ID                                 : S_HDMV/PGS
9 l4 \$ d$ [0 O) c# wCodec ID/Info                            : Picture based subtitle format used on BDs/HD-DVDs/ N- I6 t0 n% f2 c
Duration                                 : 1 h 47 min0 k2 E2 L$ [! S; A; e- }% t
Bit rate                                 : 20.9 kb/s# r) s; ?" i5 L0 j; b. d8 A
Frame rate                               : 0.401 FPS4 \, ~( Q) \' X
Count of elements                        : 2582
  L5 T" k( x8 w1 JStream size                              : 16.1 MiB (0%)2 q0 E  q/ O7 }; N$ M
Language                                 : English
6 @' \, U1 M- T- L- w2 Y0 H0 w2 G, @Default                                  : No8 g& V5 e9 ?0 j  v; P* o* f
Forced                                   : No' _+ M$ N$ Q6 n: ^5 z
Original source medium                   : Blu-ray
( b. }) k  t4 ~
8 n% \; V$ D& ?6 }9 e- T$ MText #4
7 ?  ?1 e0 x0 B1 h! n" a; EID                                       : 7  w8 r; z% A, H
ID in the original source medium         : 4609 (0x1201)
2 f) N5 c$ \. E0 o0 l( NFormat                                   : PGS
2 z3 @& R& Q& _+ a7 V1 \Muxing mode                              : zlib5 A/ M6 r5 R  N5 I! C( n+ z( ^4 A
Codec ID                                 : S_HDMV/PGS
, H* c4 t2 t# R+ |1 w# UCodec ID/Info                            : Picture based subtitle format used on BDs/HD-DVDs
" Z5 u% ?) a$ ^) S  I; C# PDuration                                 : 1 h 44 min  _. S9 S* P; N3 }8 z* P
Bit rate                                 : 22.6 kb/s/ H# x. O+ m8 s& s5 b1 i
Frame rate                               : 0.445 FPS; o8 b$ r0 z8 B- v. `* r# a
Count of elements                        : 27963 e9 g9 m) @$ \1 P" V
Stream size                              : 16.9 MiB (0%)
3 c/ P1 T2 P2 `: Z; Q* RLanguage                                 : Spanish6 k: F. B/ g% Z3 l# K% D- q& |
Default                                  : No. F! r5 o  C* I
Forced                                   : No
* k9 e/ O* s- Y/ YOriginal source medium                   : Blu-ray
: Q9 {+ R# i* R/ ?! S. h$ W- T2 [8 p- _1 A  [- \
Menu
8 {: u0 B: }* D+ D00:00:00.000                             : en:Chapter 01
$ |  k% z, \% g: A1 c00:16:55.472                             : en:Chapter 02. F6 J( k7 ]: {; w0 @
00:30:09.140                             : en:Chapter 03) |) z1 Q% m( R) z0 @
00:45:48.829                             : en:Chapter 04
" r8 h% W, x1 t8 J00:58:43.436                             : en:Chapter 05
2 K! f& Z; l! P5 j01:13:27.861                             : en:Chapter 06
$ ]$ E7 |3 ]0 b& w- ?  n, i01:27:14.938                             : en:Chapter 073 Z" Z. g2 r6 z$ ]
01:46:18.163                             : en:Chapter 08

7 w/ Q& g# ?' E1 J& K. D
游客,查看本帖隐藏内容请回复 | 加入VIP可免积分免回复 了解详情 | 还不是会员:点击获取邀请码 Invitation Code

31

主题

2540

帖子

1万

积分

Sponsor

金币
1794 枚
体力
6817 点
QQ
shiji1973 发表于 2022-11-5 14:56:23 | 显示全部楼层
沙发是抢的而不是占的!
2 A  ], ]2 V7 ~4 j$ [# i: wYour resources, well, I am very satisfied!
; N6 K% S2 d* _" z7 E: S9 c

1

主题

599

帖子

2400

积分

Sponsor

金币
17 枚
体力
1202 点
firendzhon 发表于 2022-11-7 16:24:32 | 显示全部楼层
谢谢楼主分享好片
2020第一天 ...

0

主题

221

帖子

1181

积分

Sponsor

金币
45 枚
体力
685 点
kdavid 发表于 2022-11-12 13:12:43 | 显示全部楼层
Bluraycd又有新电影发布了,激动中……!# \/ X, [; E9 ~* j2 e5 C
After reading the posts have nothing to do I Amoy posts!6 \# h) _+ K9 c  O

0

主题

852

帖子

3862

积分

Sponsor

金币
1 枚
体力
2102 点
sclzywxl 发表于 4 天前 | 显示全部楼层
谢谢楼主分享

0

主题

852

帖子

3862

积分

Sponsor

金币
1 枚
体力
2102 点
sclzywxl 发表于 3 天前 | 显示全部楼层
谢谢楼主分享

0

主题

841

帖子

3252

积分

Sponsor

金币
248 枚
体力
1305 点
lfvvzc 发表于 前天 19:29 | 显示全部楼层
姐顶的不是帖子,是寂寞!
' X# D5 @9 T/ t# W! i8 `The decisive Replies sink is I get the sinking feeling great sense of accomplishment!7 A" s4 e8 G( d

0

主题

131

帖子

730

积分

Sponsor

金币
6 枚
体力
461 点
QQ
一见哈哈笑 发表于 13 小时前 | 显示全部楼层
感谢楼主,感谢!

本版积分规则

小黑屋|Archiver|4K蓝光论坛

GMT+8, 2022-11-26 23:41

Copyright © Tencent Cloud.

快速回复 返回顶部 返回列表