BluRayCD Forum

 找回密码
 立即注册【分享大片】
查看: 26|回复: 1
收起左侧

[剧情悬疑] 贼公计/屠宰日 Slaughter Day 1972 DUBBED 1080p BluRaycd x264 FLAC2.0-HANDJOB 6.27GB

[复制链接]

1万

主题

387

回帖

13万

积分

Post Share

金币
4116 枚
体力
32636 点

卓越贡献勋章VIP蓝光勋章诚信会员勋章

mvods 发表于 2023-2-2 01:59:37 | 显示全部楼层 |阅读模式
01.jpg
$ }! c! C# ?) E& X# _8 P$ g1 V, u. |' z
◎译  名 贼公计/屠宰日
1 ~% ~: P, X' H6 G/ U9 @& t◎片  名 Situation
7 G0 w: {4 _, [/ T# k◎年  代 1973
# d* W( v' Q; G/ E; b◎产  地 意大利/奥地利6 R# ^9 z1 O3 k  }- U/ ]; c3 }# Q
◎类  别 剧情/犯罪
( j% {4 j* n' m# ]8 g◎语  言 英语/德语; F4 G2 u* ~* A3 B' ~& R; C) W) G
◎上映日期 1972(奥地利)9 o3 d: Q! N4 |) N
◎IMDb评分  5.9/10 from 52 users
1 m) H  p- H/ w* r& T& _◎IMDb链接  https://www.imdb.com/title/tt0070699/
) ~. c- w* p' n2 K$ W7 c( D◎豆瓣评分 0/10 from 0 users, S6 D8 w& s" ~, e! `
◎豆瓣链接 https://movie.douban.com/subject/5054715/
; H% X, n4 H' V◎片  长 1 h 35 min: i. d- i; q3 y
◎导  演 彼得·帕扎克 Peter Patzak, s' B' h- y2 d' \
◎编  剧 Oscar Bronner - `$ n1 j8 K* j) g5 ?
       彼得·帕扎克 Peter Patzak
4 e/ S- O( L: H( ^◎演  员 丽塔·塔欣厄姆 Rita Tushingham
6 h& n( i% L9 Z       Mischa Hausserman & N+ R2 u0 U" n% P' s. w
       弗雷德里克·耶格 Frederick Jaeger+ C2 F. Q- T2 R, O* k
       威廉姆·伯格 William Berger
0 K' L. N2 R! A) @* [9 c       戈登·米切尔 Gordon Mitchell, L  h! f8 W* Q  |& Q
       Peter Huemer % b  Y) \9 }. Y: r
       Hans Dichand ' C% |) _) J  f3 L9 f" v$ [) y9 e) {' c
       Guido Wieland
2 A' Z4 {0 q* i' p       Hans Waldherr 8 o6 A2 E- ^, a8 a8 [  n3 Y
       布鲁诺·托斯特 Bruno Thost
- c+ {  ^% S' s* T       Dolores Schmidinger ( T, j3 V3 F% c1 [1 @8 J! s
       Heinz Petters Heinz Petters
7 R7 y$ C/ M1 K; V       Wolfgang Gasser
" p+ q; v8 O2 U$ k- O: w' N" ?       Klaus Dahlen Klaus Dahlen# e* m+ K8 M' Q* J/ |1 @
       Heinz Marecek
0 U1 @5 R3 \! @* h1 N9 j1 |5 G* P1 }9 Z6 n0 R: a
◎简  介   ! C+ U4 O! \, D3 t
4 j+ u) B  s% c4 Y1 r$ J
  一名年轻女子开始与一名神秘男子发生婚外情。他带她去他的小屋度周末,他们相爱了。她不知道的是,这名男子正在策划一起巨大的银行抢劫案。
1 f+ o' P; K9 [& \# y% h* }
+ k0 G) v/ T+ f2 `/ v6 ^6 F  B: O  A young woman begins having an affair with a mysterious man. He takes her to his cabin for a weekend and they fall in love. What she doesn't know is that this man is orchestrating a huge bank heist with a twist.
: u& H6 f( U: {8 B0 v+ q/ k4 x
Slaughter.Day.1972.DUBBED.1080p.BluRayCD.x264.FLAC2.0-HANDJOB 6.27 GB
1 c; W1 X5 g- U1 R! S- f: _3 c0 [7 S4 G# u2 I- n/ o* X
Video  B5 J+ [6 u1 @/ ^
ID                                       : 1
+ J: w1 U) c1 {Format                                   : AVC( [! Z0 D+ c7 j: {6 I  Y" O
Format/Info                              : Advanced Video Codec
* j5 }2 Z8 l+ H. XFormat profile                           : High@L4.1) U8 ?' n2 w& u4 r& X5 F; g
Format settings                          : CABAC / 5 Ref Frames+ T2 G2 Y: q( m) y
Format settings, CABAC                   : Yes. z. `: {- C& c
Format settings, Reference frames        : 5 frames
8 ^: R( H5 [$ o0 M, oCodec ID                                 : V_MPEG4/ISO/AVC
( g6 E6 I: n8 N; e0 \* R1 M! h/ wDuration                                 : 1 h 35 min. g* ^, @* A) s; |+ \; H* Z
Bit rate                                 : 9 160 kb/s
& A5 t2 S2 L1 [/ j' }# [7 vWidth                                    : 1 420 pixels2 j* i0 y2 N3 z9 v1 X
Height                                   : 1 080 pixels% [7 [" ^6 R' [! i0 Q' g
Display aspect ratio                     : 4:3: ]6 V& B: d! L6 i' T  K& G4 \
Frame rate mode                          : Constant
3 g$ r6 R; V6 k+ {, z) E* |Frame rate                               : 24.000 FPS, M+ N8 u% u9 O3 g4 V
Color space                              : YUV
: z9 Q+ Q& y6 I; ?5 q& k' iChroma subsampling                       : 4:2:0
9 f( l" [& S! j- V% q7 r% LBit depth                                : 8 bits( ]  y, _6 ]# D6 K$ w9 w9 Z1 _
Scan type                                : Progressive
. T7 R+ g- u& |1 O  |. I5 G! PBits/(Pixel*Frame)                       : 0.2498 Y+ F0 E# r) ]( l$ v
Stream size                              : 6.11 GiB (97%)6 @: C2 O7 ~  x9 F
Writing library                          : x264 core 164 r3065 ae03d926 Y2 O7 Z) [+ C
Encoding settings                        : cabac=1 / ref=5 / deblock=1:-3:-3 / analyse=0x3:0x133 / me=umh / subme=10 / psy=1 / psy_rd=1.00:0.20 / mixed_ref=1 / me_range=32 / chroma_me=1 / trellis=2 / 8x8dct=1 / cqm=0 / deadzone=21,11 / fast_pskip=0 / chroma_qp_offset=-3 / threads=34 / lookahead_threads=8 / sliced_threads=0 / nr=0 / decimate=0 / interlaced=0 / bluray_compat=0 / constrained_intra=0 / bframes=16 / b_pyramid=2 / b_adapt=2 / b_bias=0 / direct=3 / weightb=1 / open_gop=0 / weightp=2 / keyint=240 / keyint_min=24 / scenecut=40 / intra_refresh=0 / rc_lookahead=60 / rc=crf / mbtree=0 / crf=18.0 / qcomp=0.65 / qpmin=0 / qpmax=69 / qpstep=4 / vbv_maxrate=62500 / vbv_bufsize=78125 / crf_max=0.0 / nal_hrd=none / filler=0 / ip_ratio=1.40 / pb_ratio=1.30 / aq=2:0.70
9 ]7 k: p' S6 U/ u- o4 uDefault                                  : Yes
0 C) l! x7 j% e' G' HForced                                   : No3 \$ t2 ]% i1 o6 X% J
Color range                              : Limited: }% q: i5 G' e- B9 g
Color primaries                          : BT.709
. Y* i5 m' ~- D# I, U0 pTransfer characteristics                 : BT.709
7 R; ]; p3 F% R, R/ ]Matrix coefficients                      : BT.709' U5 W# F( V. n

4 y6 ?1 }; W" M6 XAudio$ ~2 I( k2 a3 Z, _
ID                                       : 2* E6 v- N3 z4 j0 Q: A
Format                                   : FLAC* `4 g  ]' t/ U' J9 F  C+ \
Format/Info                              : Free Lossless Audio Codec4 K/ Z# Z3 h; C2 W; ]- D' Z9 J
Codec ID                                 : A_FLAC
) J) z, M$ b/ ^1 e2 A9 N/ XDuration                                 : 1 h 35 min
( }5 e  B) d$ QBit rate mode                            : Variable
! H" k( h2 q! z2 O; F+ C& a7 gBit rate                                 : 239 kb/s7 V8 T( Y$ ^- D, d2 C; W$ F
Channel(s)                               : 2 channels
' v4 o1 X; Q% _Sampling rate                            : 48.0 kHz
- O+ J, H9 m* L# fFrame rate                               : 11.719 FPS (4096 SPF)% O+ x. j5 b  l
Bit depth                                : 16 bits/ j  w" o( p4 D1 N) ^: t& q( M. f. F
Compression mode                         : Lossless0 }3 L1 }+ B& D% U7 \: u2 ?. v4 P
Stream size                              : 163 MiB (3%)
5 c5 W8 y3 b* t) J+ K2 GTitle                                    : English Dub
& _5 G# M% m0 H8 C8 y/ s5 RWriting library                          : libFLAC 1.3.3 (UTC 2019-08-04)- l# s4 x% w, |/ T4 {
Language                                 : English) M; N/ `/ l) E8 L, i7 q2 h4 i! V
Default                                  : No# C; W% A' T- ^. B
Forced                                   : No) r; e3 Z8 k3 s1 n
MD5 of the unencoded content             : E89CC7448D0DDE089E8BCE9F4C479E32
$ ^+ t$ h3 M3 `. p. y# |% F# X6 v" ~
5 }8 D& t& y! E( a5 V$ \- dText
, P3 j* `- T! Y/ R' G- PID                                       : 30 L+ m; m+ g/ Z( {: v4 E" c9 i7 X
Format                                   : UTF-8
' C( {3 w9 s- z. z$ o1 B& D8 V# L: nCodec ID                                 : S_TEXT/UTF8
/ [( m4 F+ Z) V' l! ?! R$ nCodec ID/Info                            : UTF-8 Plain Text
/ X' r7 I3 K. I8 ?( O! ~Duration                                 : 53 min 4 s
5 q4 q# D. k& h. J- mBit rate                                 : 2 b/s
$ B" F  `" f$ [) I( v! o: jFrame rate                               : 0.009 FPS% E' Z: U" s- e  \2 {! {
Count of elements                        : 30* N. {+ S8 U, B; y' o
Stream size                              : 1.05 KiB (0%)" A( O/ l5 ?- k! N
Title                                    : Non-German Dialogue
. s; _0 c9 A9 m- X& A  W5 V, XLanguage                                 : German9 U, x2 p- a8 Y: j
Default                                  : No+ }  R3 ~2 x! ?7 p! A2 T* s
Forced                                   : No
% @4 j- h! B. q. T2 E( I" x
- E  O' T9 @, X0 s" JMenu$ _5 |( [. `4 X5 {8 r
00:00:00.000                             : Chapter 01. P" p9 h/ I: V" \* k
00:06:29.958                             : Chapter 020 c+ u/ ^9 ~+ k# u' R- x) O* f  h9 p
00:36:07.125                             : Chapter 03
" _6 m7 J" T  O& S2 n00:54:09.958                             : Chapter 04) r" N0 d2 [( K
01:10:18.417                             : Chapter 05
' C2 i0 A- |- @4 J. N01:26:29.667                             : Chapter 06

9 [& |0 R! i1 p( x& y  Y8 `" K
游客,查看本帖隐藏内容请回复 | 加入VIP可免积分免回复 了解详情 | 还不是会员:点击获取邀请码 Invitation Code

0

主题

609

回帖

2633

积分

Sponsor

金币
28 枚
体力
1426 点
luyife 发表于 2023-2-3 13:10:21 | 显示全部楼层
谢谢楼主的分享

本版积分规则

小黑屋|手机版|Archiver|4K蓝光论坛

GMT+8, 2024-4-15 14:11

Copyright © 2001-2021, Gadaddy Cloud.

快速回复 返回顶部 返回列表