BluRayCD Forum

 找回密码
 立即注册【分享大片】
查看: 32|回复: 3
收起左侧

[剧情悬疑] 与爱共舞/与你共舞 [内封中字] Whitney Houston I Wanna Dance with Somebody 2022 1080p BluRaycd x264 DTS-HD MA 5.1-MT 20.93GB & 13.92GB

[复制链接]

1万

主题

387

回帖

13万

积分

Post Share

金币
4432 枚
体力
33101 点

卓越贡献勋章VIP蓝光勋章诚信会员勋章

mvods 发表于 2023-3-12 05:06:29 | 显示全部楼层 |阅读模式
9 q7 T( j8 h2 o/ {
2 |' Q' E) S. |1 h, q( G; T7 z* `
◎译  名 与爱共舞/与你共舞(台)/云妮侯斯顿:与爱共舞(港)/与爱人共舞/我想与人共舞
) g0 g4 p4 c. N◎片  名 I Wanna Dance with Somebody / Whitney Houston: I Wanna Dance with Somebody( s$ }  q1 l% y
◎年  代 2022
: x7 N1 q9 N. s1 w' J9 l◎产  地 美国
% Z2 f+ z' \3 N+ ]* N/ \◎类  别 剧情/音乐/传记
. J( ]) p2 ?% w" Q◎语  言 英语& m: C8 _8 B7 |) ^
◎上映日期 2022-12-21(美国)
$ N: p4 J8 Z9 T◎IMDb评分  6.7/10 from 11,283 users
# v! V7 a4 t) |( |4 a1 X5 A◎IMDb链接  https://www.imdb.com/title/tt12193804/
3 d5 E- w' X7 l1 }$ _2 }" y◎豆瓣评分 6.4/10 from 752 users) q1 C4 ~0 ^* a7 O3 D4 G
◎豆瓣链接 https://movie.douban.com/subject/35049191/
: ?, a  A5 b# E, p  O◎片  长 2 h 24 min
# h6 W% s9 j  ?% P6 g: _◎导  演 卡斯·莱蒙斯 Kasi Lemmons
* w4 W9 J( b% ]& ~" K; D, e◎编  剧 安东尼·麦卡滕 Anthony McCarten
% ?; g* o4 w9 E4 N+ t$ F2 f◎主  演 娜奥米·阿基 Naomi Ackie& S; X8 V! h% ~% z1 v0 s
       斯坦利·图齐 Stanley Tucci
( G- v  E; a* z0 R8 Y3 h. ]' V& l       艾什顿·桑德斯 Ashton Sanders
1 m! {. n3 v! ]$ H5 @* ~# P/ O       塔马拉·图尼 Tamara Tunie7 j* C9 W! `/ k) r' G
       娜菲萨·威廉姆斯 Nafessa Williams9 Y7 ?0 r$ m1 O) Q; S2 K
       克拉克·彼得斯 Clarke Peters7 X5 Z# G  Z' y- L& ?4 i
       坦纳·比尔德 Tanner Beard
1 f: [! z; V+ P% ?       汤姆·沃斯 Tomm Voss7 H1 O7 c7 Q5 `. X  ~- b) F
       布莱德利·纳迪 Bradley Nnadi
+ [3 Q( U6 l! q' G: `( y  n9 n       克里斯·西德贝里 Kris Sidberry6 L( s- v# X$ b( m' U
       理查德·康蒂 Richard Conti
7 b- Z4 ~6 U2 q# J1 q" n; N       玛丽·安·绍布 Mary Ann Schaub% H& {3 q  Z! w$ u
       罗布·勒维克 Rob Lévesque
) X4 H5 c- @3 D+ p; X+ G7 s( ~  a       阿德里安·M·蒙波因特 Adrian M. Mompoint/ C/ h- a' q$ U3 x0 X
       玛塞拉·贾拉米洛 Marcela Jaramillo! b1 Q; A$ u3 ~; D: T
       大卫·布肯德尔 David Bookbinder( f  j9 l" z# a4 W  Z3 a
       兰斯·A·威廉姆斯 Lance A. Williams
# B1 l# e- c! F( j0 u3 H) ^       纳希姆·加西亚 Naheem Garcia
. {% i, \  Q$ u1 t% I       摩西·英格拉姆 Moses Ingram( t  @, j+ w, @7 u1 Y' i3 }
# g8 I1 ~( R$ x! W# u
◎简  介   
% l! N$ e; ]: m+ x% C# g( `. b, w* v8 L) \% c( }
  影片讲述了一代歌后惠特妮·休斯顿的传奇星路,展现了她一生中荣耀、喜悦与心碎的重要时刻。1983年,20岁的惠特妮(娜奥米·阿基 饰)代替母亲登台,天籁般的嗓音和纯熟的唱功艳惊四座,她也由此被传奇唱片制作人发掘,开启步入歌坛的道路。在追逐音乐梦想的路上,惠特妮无惧质疑坚持本真,唱自己想唱的歌,让自己与音乐灵魂共振。电影将在惠特妮逝世十周年之际,以前所未有的方式,展现这位有史以来获奖最多女歌手的一段鼓舞人心、璀璨动人的星路旅程。
( \. W* t0 c8 X* a& h8 B3 ]0 I$ s  f; @, B- H0 ~& n
  A joyous, emotional, heartbreaking celebration of the life and music of Whitney Houston, one of the greatest female R&B pop vocalists of all time, tracking her journey from obscurity to musical superstardom.
- _1 V; z4 E: B6 t$ j
Whitney.Houston.I.Wanna.Dance.with.Somebody.2022.1080p.BluRayCD.x264.DTS-HD.MA.5.1-MT 20.93 GB
. d: |' i" R. _; e" V$ r8 U8 r: F
/ P' ]6 Z5 p1 g. t9 PVideo
9 V5 U# K( [2 E0 C! M% OID                                       : 1& v# {0 l3 t# }; I
Format                                   : AVC; f4 f4 N, E) L4 P. H( p( ^" w& c
Format/Info                              : Advanced Video Codec
- H; r! y- O% z/ b2 \Format profile                           : High@L4.1$ @" r; ]( F0 m. x7 h+ T
Format settings                          : CABAC / 5 Ref Frames: A1 @5 O) I# v+ G% n
Format settings, CABAC                   : Yes
) N1 _# O  H8 Y  N' Y4 Y& HFormat settings, Reference frames        : 5 frames: A5 Y4 y/ C/ O3 y" h, k
Codec ID                                 : V_MPEG4/ISO/AVC
4 \. t4 s2 W" S9 jDuration                                 : 2 h 24 min7 w/ P- E3 @9 }* ]% m
Bit rate                                 : 18.3 Mb/s
5 B4 X4 I) Q$ l/ OWidth                                    : 1 920 pixels- L& C9 P4 {! H8 y
Height                                   : 804 pixels, b! L/ ~" K9 H) P% A! d
Display aspect ratio                     : 2.40:1) i/ Q9 d, u1 z% n
Frame rate mode                          : Constant! z8 g5 z9 e6 O0 _6 ]
Frame rate                               : 23.976 (24000/1001) FPS
# x% S' C! d7 |Color space                              : YUV  L" p% _" @, Z8 Q$ F3 `) x- U# T
Chroma subsampling                       : 4:2:0
, ]( ]9 A5 p. J& F, |7 ]  H: ]Bit depth                                : 8 bits
4 k" A6 r* a2 ]3 JScan type                                : Progressive' y/ O0 b+ N% z+ X
Bits/(Pixel*Frame)                       : 0.495" }6 E( O" {" l7 y. j* m
Stream size                              : 18.5 GiB (88%)
6 T  }) t7 a: K- y" b# a1 c( EWriting library                          : x264 core 157 r2938 2b00a84 TnP@MTeam Mod
( u4 C3 X. O! ?( x& U; y, FEncoding settings                        : cabac=1 / ref=5 / deblock=1:-3:-3 / analyse=0x3:0x133 / me=umh / subme=10 / psy=1 / psy_rd=1.05:0.00 / mixed_ref=1 / me_range=32 / chroma_me=1 / trellis=2 / 8x8dct=1 / cqm=0 / deadzone=21,11 / fast_pskip=0 / chroma_qp_offset=-2 / threads=12 / lookahead_threads=2 / sliced_threads=0 / nr=0 / decimate=0 / interlaced=0 / bluray_compat=0 / constrained_intra=0 / bframes=8 / b_pyramid=2 / b_adapt=2 / b_bias=0 / direct=3 / weightb=1 / open_gop=0 / weightp=2 / keyint=250 / keyint_min=24 / scenecut=40 / intra_refresh=0 / rc_lookahead=250 / rc=crf / mbtree=0 / crf=16.8 / qcomp=0.60 / qpmin=0 / qpmax=69 / qpstep=4 / vbv_maxrate=62500 / vbv_bufsize=78125 / crf_max=0.0 / nal_hrd=none / filler=0 / ip_ratio=1.30 / pb_ratio=1.20 / aq=3:0.80
$ h5 q! o' Y% x' Z( _  q, J. gLanguage                                 : English
$ n) X* H% s2 w/ M, X9 aDefault                                  : No* c8 s; Y# w' h1 g0 F) e
Forced                                   : No
. n2 W" \7 c( d/ B- h, v% xColor range                              : Limited/ o1 N+ Z- ~0 E  j' Q
Color primaries                          : BT.709
+ m- U# B6 v% |4 G, s' `& e. c: nMatrix coefficients                      : BT.709
1 N) t4 @! C( ]' w+ y) d% Y
4 `6 F! @# w3 R8 m7 [9 c1 AAudio
) M; Q9 Y7 _* D* }, n( W6 aID                                       : 2, ]1 x. O% O9 @8 |3 y8 y
ID in the original source medium         : 4352 (0x1100)
% }. z2 c% e& B  F" Z9 ]- @9 [Format                                   : DTS XLL# z2 n! p6 \3 a0 v2 n( D
Format/Info                              : Digital Theater Systems
, E1 G; U, l( j- ^% UCommercial name                          : DTS-HD Master Audio
- D/ D* I% L9 n8 pCodec ID                                 : A_DTS
& b% h5 |" _+ ]  ^, ]Duration                                 : 2 h 24 min5 S0 S: p9 K( g6 ~% Y6 c
Bit rate mode                            : Variable
$ f; P, h. A  \* V& MBit rate                                 : 2 266 kb/s! E( ~: d) u% g  n" z
Channel(s)                               : 6 channels4 W9 E- ~" b1 S+ t5 k( Y
Channel layout                           : C L R Ls Rs LFE4 i. R0 y2 {7 O' n6 ~# t$ l4 ~1 f
Sampling rate                            : 48.0 kHz: J: c9 a* B4 Y, D! B2 d- @
Frame rate                               : 93.750 FPS (512 SPF)6 P4 ^" w0 Q6 A" J/ p4 ?3 p2 I
Bit depth                                : 16 bits2 C$ n& o5 G3 R4 {7 G
Compression mode                         : Lossless5 r. I6 f) \# P
Stream size                              : 2.29 GiB (11%)$ Z" Z* }1 m' ~% N8 o
Title                                    : DTS-HD MA 5.1: {9 E9 w7 u( E; Z% ^
Language                                 : English
' |9 Y; y5 }3 b7 h& H" `7 o8 iDefault                                  : Yes, U. F) K/ Y) F, ]  r5 G( z* |
Forced                                   : No! E5 {8 J8 \9 X: Q3 Y$ b
Original source medium                   : Blu-ray/ a2 @& X/ c. f4 e8 ~: G/ _

0 U# P+ [  d0 Y; L2 p$ t0 S9 O2 HText #1( t, ?' C! C8 T
ID                                       : 3
# S# a- L+ R7 EFormat                                   : UTF-8- V  b/ r0 l. h) {0 E0 _
Codec ID                                 : S_TEXT/UTF8# K: v/ i- M5 U( O5 L
Codec ID/Info                            : UTF-8 Plain Text
6 k5 M% E3 y. yDuration                                 : 2 h 22 min
' C8 D4 \. q$ b  G: a, oBit rate                                 : 67 b/s' @" G$ t0 M; a- X$ Q  \
Frame rate                               : 0.270 FPS
  q0 V6 U: F; _  U4 CCount of elements                        : 23164 E4 i! a, i4 x7 |8 C
Stream size                              : 70.9 KiB (0%)4 @# m7 v0 O# Y4 t; b* M
Language                                 : English: G& C! G1 ^2 y" z
Default                                  : Yes6 k7 i) q( F4 C1 X6 j& [% J! ]
Forced                                   : No+ i! w/ ]1 b$ w  y! ]5 O% O

% ?& `: D- U+ U! H3 w4 p7 HText #2
( {# W" n) a8 f6 B" B( ]ID                                       : 4) v: h: z  U, ^1 _" @# v$ _
Format                                   : UTF-8
- m' x* D" j' _* b; U8 GCodec ID                                 : S_TEXT/UTF8
+ t& _1 ^1 R- @! v( p+ ^- ~Codec ID/Info                            : UTF-8 Plain Text5 h3 M! L+ n( F# W+ b1 f+ N
Duration                                 : 2 h 22 min+ ?* [; P8 Q2 o1 O# {' \
Bit rate                                 : 76 b/s
$ I1 z% Q; e  @9 s. [- Q* LFrame rate                               : 0.297 FPS+ n$ ^6 [) y7 S, b. V  _7 u
Count of elements                        : 2543
; t4 B& W+ j/ RStream size                              : 80.1 KiB (0%)
7 X' ^- p# U1 k7 M0 w9 ]Title                                    : SDH- c) S# M& q4 [9 h
Language                                 : English
  I% e/ b* x  @" nDefault                                  : Yes2 h. ^% D1 C2 L5 Q6 V
Forced                                   : No
2 q6 b+ g/ \& B( [; K$ u$ ]# D1 l, o
Text #3: k9 J0 x9 w' g" G1 j" F% W
ID                                       : 50 _0 G1 t- H4 J1 T
ID in the original source medium         : 4608 (0x1200)
4 b& H* k+ v4 T$ ?+ L& N- w6 x: i' m, b6 ZFormat                                   : PGS% ^% I) ~% `+ |4 y* E
Muxing mode                              : zlib
& d$ S6 B" I3 P5 P" W, UCodec ID                                 : S_HDMV/PGS7 G1 U0 N+ e  z* \! l
Codec ID/Info                            : Picture based subtitle format used on BDs/HD-DVDs# T6 C, \0 H. r( G2 M
Duration                                 : 2 h 22 min
1 b3 ]$ m7 M( G( B4 D; R4 r( CBit rate                                 : 45.6 kb/s
- K. U: @7 T7 \Frame rate                               : 0.603 FPS
3 l0 K2 ?  t* U* bCount of elements                        : 51671 k# ]: W' h. b  Q  A5 [
Stream size                              : 46.5 MiB (0%)2 v1 j9 R5 y* \  L$ d/ T
Title                                    : SDH
9 h6 G1 ^% M( Y9 f, KLanguage                                 : English* R% C! K8 D' V" i% X
Default                                  : No
; l5 x; ^: O$ R1 @& j* S1 m/ jForced                                   : No, G9 ?0 C1 R$ O- T$ s$ _! P
Original source medium                   : Blu-ray4 t5 g6 W9 a! r

0 Z- q- `: ?, Q& e$ A" ?Text #4. q  z$ N- I7 _/ a  ?7 [  y6 l: g+ F
ID                                       : 6
* n; O, V+ F- c8 o& uID in the original source medium         : 4609 (0x1201)
1 {6 K* b, s+ Y4 s  s7 Z& CFormat                                   : PGS9 f0 U8 Y6 P4 h6 U
Muxing mode                              : zlib
2 G0 ?: b! M& A, i. V0 ?, H1 OCodec ID                                 : S_HDMV/PGS
% s# X) U0 l, Y, |% r  e% ?Codec ID/Info                            : Picture based subtitle format used on BDs/HD-DVDs6 P; X, T$ h* V- X
Duration                                 : 2 h 15 min% T! e5 ]2 a) L2 x6 x/ n/ g/ m
Bit rate                                 : 38.5 kb/s
) I5 G! l4 f! }! [Frame rate                               : 0.537 FPS# ?7 ~' e) f- t. N
Count of elements                        : 4374
) A" V/ L" S' M5 f# @0 iStream size                              : 37.3 MiB (0%)
( F2 T& z( t  K/ x/ x) S) wLanguage                                 : English; [6 S+ o, J$ ^4 k6 p' w
Default                                  : No
, R- I" R; K; mForced                                   : No
8 W; J1 k! ?, L) x, G* T/ w8 nOriginal source medium                   : Blu-ray  ]$ [3 h& Q4 P6 w
: i) E! r% N: V5 I3 F
Text #5& S6 K1 u- W/ O9 |
ID                                       : 7
# T& {5 L0 S7 e. q9 qID in the original source medium         : 4610 (0x1202)
( J! v- M( D5 z  ^) P  ZFormat                                   : PGS, P0 K1 s# |' |1 C9 f3 _
Muxing mode                              : zlib2 X( u& ]% w3 M
Codec ID                                 : S_HDMV/PGS
5 S( l6 _# Z1 G$ ]) D0 l6 g5 Z; XCodec ID/Info                            : Picture based subtitle format used on BDs/HD-DVDs
' {& q6 d/ h, e$ T9 p+ vDuration                                 : 2 h 23 min
$ b! Q. m1 M# F$ n2 Z2 sBit rate                                 : 23.6 kb/s
& z# A$ i0 q" _' F% [6 rFrame rate                               : 0.390 FPS
( P( a4 c; M" F  lCount of elements                        : 3355
9 f: Z1 g- G+ |# ]6 ^Stream size                              : 24.2 MiB (0%)' y7 R  u8 ?7 m( V* {
Language                                 : Chinese/ X. n, \3 @& {% J* P
Default                                  : No  ?  v2 X# f5 H! U% V; m' W
Forced                                   : No
* u* S! `* i1 z3 e2 lOriginal source medium                   : Blu-ray
+ y# f5 z. ^4 N" \, l8 j* c. X3 _$ D/ x( w
Text #63 }& o: s' q8 U
ID                                       : 8
0 ]' I! l0 z$ G- G; IID in the original source medium         : 4611 (0x1203)4 V$ @. q) {* Y+ m
Format                                   : PGS
3 ~# T' G: T9 g1 j$ F2 b3 _2 t$ DMuxing mode                              : zlib" B, @5 m- Y7 r
Codec ID                                 : S_HDMV/PGS
) `+ H) @7 t, `# d0 q' e7 ~* u1 jCodec ID/Info                            : Picture based subtitle format used on BDs/HD-DVDs3 W( I2 V/ s! k) }* ~
Duration                                 : 2 h 23 min
" P8 V$ y/ d0 F0 TBit rate                                 : 22.1 kb/s
& m5 \, c# A  k, J, BFrame rate                               : 0.391 FPS- j: d/ f4 ~9 L; `9 j4 t
Count of elements                        : 3362
% B( G7 _6 Q0 _# tStream size                              : 22.6 MiB (0%)
8 _+ Z! I9 j+ j. C9 Q! O9 @, z, @( aLanguage                                 : Chinese8 R  d& L1 i! h0 v( J
Default                                  : No( F5 C+ n! S1 J# [8 ^- ]% p) |
Forced                                   : No
& A7 {* d+ S+ |, ]* A1 oOriginal source medium                   : Blu-ray, S6 U- g, Y, {5 Q; ]( A" [

' G, e+ X; e6 `+ ~" QText #7. y+ ~: J' q6 p4 Y: D
ID                                       : 9: c- Z# W7 j# C9 I# Q2 @* t
ID in the original source medium         : 4612 (0x1204)! P2 L: z( }# b6 p0 ~
Format                                   : PGS) z4 L, d/ s1 Q
Muxing mode                              : zlib+ [3 n( _7 }% G6 I
Codec ID                                 : S_HDMV/PGS
! T% U) e( }* PCodec ID/Info                            : Picture based subtitle format used on BDs/HD-DVDs1 p: Q9 n& R( }5 p# F& y3 }4 @
Duration                                 : 2 h 23 min
/ R8 F2 {6 c, n& w' _6 f! n- _6 EBit rate                                 : 21.8 kb/s- X. P9 Y6 ?0 J  c9 O! U7 A1 J+ [; {
Frame rate                               : 0.352 FPS
* ^. S3 r/ |! i& @% ]# CCount of elements                        : 30224 _% R+ w* ~7 H/ N
Stream size                              : 22.4 MiB (0%)
4 Z5 t/ X# Z9 m4 l& m- x7 kLanguage                                 : French9 V- \# l" R# l9 i- J- u
Default                                  : No; Q& @! d( P  U0 r
Forced                                   : No6 D! U, q% Y# e1 s) n7 O
Original source medium                   : Blu-ray
# @& i8 A* d( ~5 ~8 i' I. Y$ I. [) y5 o6 Y8 [: z
Text #8! P" d: c' Q5 O% y' ^3 n, a, u4 K
ID                                       : 10
* T! f" D7 k1 P* R% e0 E$ k, bID in the original source medium         : 4613 (0x1205)
$ d- t, F+ ~# B: @8 E0 VFormat                                   : PGS
' v$ M. D: _& b8 bMuxing mode                              : zlib$ {5 f2 q2 T) W' d* U
Codec ID                                 : S_HDMV/PGS
8 [2 `0 H  y9 j8 x9 ^Codec ID/Info                            : Picture based subtitle format used on BDs/HD-DVDs, j1 c8 k9 u  K
Duration                                 : 2 h 23 min
/ ^/ h* I7 X4 @7 O( n$ q$ kBit rate                                 : 27.0 kb/s
! w. O5 K6 d, h1 l- O! XFrame rate                               : 0.506 FPS
  u3 Y8 n6 e- \% s! Z# ~Count of elements                        : 4369
9 v5 Y$ U$ u# |8 L- {Stream size                              : 27.8 MiB (0%)
0 b) T! f/ n  r+ w( Z7 N. A8 H2 v/ zLanguage                                 : Korean5 M& H" a4 e, |! U) o" Z7 Y
Default                                  : No4 K; P# f' Y- r) |0 {( R( J: i
Forced                                   : No0 Z4 ~/ \7 B. r( ?3 R+ ]# y6 F% _. Y
Original source medium                   : Blu-ray
& }5 n5 M! \, @, Y2 h" _' G
+ }! M. S+ V4 t8 g, H  _1 RText #9& W9 m" ^) {! q! V
ID                                       : 11
3 h, }6 A. C; i( [4 c5 zID in the original source medium         : 4614 (0x1206)% q; y5 j) E$ }1 C& r1 S7 Q
Format                                   : PGS
! T/ k/ W$ C  y8 O& R& B4 f  yMuxing mode                              : zlib
1 V' U9 q1 _9 t  k2 \2 pCodec ID                                 : S_HDMV/PGS
# j- s# H7 T: r2 NCodec ID/Info                            : Picture based subtitle format used on BDs/HD-DVDs
* ~  s. F3 Z% M; |, jDuration                                 : 2 h 23 min* {0 @6 I( Q0 k/ x! a
Bit rate                                 : 33.3 kb/s4 E4 Z7 N' M. j) n( V
Frame rate                               : 0.499 FPS
" d0 Z7 S; u& D& w6 ?- SCount of elements                        : 4308
; p8 I( T4 V; z! I# A# NStream size                              : 34.3 MiB (0%)
7 {0 b1 K3 y2 r4 K* N5 qLanguage                                 : Portuguese
( S" D( e% O' w  \1 r+ a" mDefault                                  : No1 X4 H) }9 u4 Y/ a5 z% {
Forced                                   : No2 T4 ?) Y) P8 B; o" G5 C* s
Original source medium                   : Blu-ray
7 g# K% h4 [( n
7 a1 T2 R7 B+ J+ W1 z- CText #106 V3 r2 j; h" _/ u& j
ID                                       : 12& N" r% B! i! A( r2 C- U2 R
ID in the original source medium         : 4614 (0x1206)! l; h1 {4 p( M3 A0 E
Format                                   : PGS' q" P% ?( r8 T" q8 ]! O9 N2 ?
Muxing mode                              : zlib& O3 i6 G8 I5 L, O
Codec ID                                 : S_HDMV/PGS2 }* P: Y( a; U0 y# k; ]
Codec ID/Info                            : Picture based subtitle format used on BDs/HD-DVDs
  _, g; j0 y! ?5 f) jDuration                                 : 2 h 23 min
9 |8 V" P6 E' C# r+ m% O4 f+ rBit rate                                 : 9 438 b/s3 n. p& {, M& B5 r3 d
Frame rate                               : 0.145 FPS
) Z/ @9 l  i# R% H; t# r4 uCount of elements                        : 1252  }; D) q; b" Y1 x- f5 N3 R! q
Stream size                              : 9.71 MiB (0%)
3 ?, Y( I$ J% U0 k& @# Q# H% zLanguage                                 : Portuguese
& V# X$ D4 w+ o! T7 @Default                                  : No
& l* }/ F3 T1 ?4 U6 sForced                                   : No7 j; E$ i9 P: I8 O8 {
Original source medium                   : Blu-ray4 E& {4 M+ e. J
. Q7 R, ]2 L! [  X' b
Text #11
4 ~* o2 Y, d; M9 U9 KID                                       : 130 N2 B+ c+ \& _
ID in the original source medium         : 4615 (0x1207)( {1 R$ O, g5 Z0 d, V, y0 d! ~$ B
Format                                   : PGS
/ i5 ^9 Q8 c% q8 uMuxing mode                              : zlib
, T/ H8 A1 c* \& JCodec ID                                 : S_HDMV/PGS
  Y- v0 m# g2 iCodec ID/Info                            : Picture based subtitle format used on BDs/HD-DVDs/ O% l8 E9 b% X4 Q, L
Duration                                 : 2 h 23 min
7 K) k6 K+ G4 x1 }, RBit rate                                 : 26.5 kb/s
: r3 C2 V* r3 }. D" b9 EFrame rate                               : 0.402 FPS
( ?) z  L) x, G9 }1 G& `, CCount of elements                        : 3459/ t: J7 o9 y4 d3 c% P3 N# D
Stream size                              : 27.2 MiB (0%)# m; s) e5 c" C. [2 g
Language                                 : Spanish
8 r9 l  |( ?" q( ?2 l, i% yDefault                                  : No+ v9 }4 W. g2 N4 e
Forced                                   : No" z  ^. Z/ z# |7 P8 ^# z  Y
Original source medium                   : Blu-ray- |, ^1 I/ z) p  Q$ o

- Y9 s- w0 A+ I1 ?' z: s0 yText #12% }3 [. {/ b! ~3 N$ O
ID                                       : 14
5 U6 i6 h$ w# X2 N0 W. p6 |% X" }ID in the original source medium         : 4616 (0x1208)# Y9 x, j3 v+ W
Format                                   : PGS
2 c( ?( F& p6 P: P4 P- g6 J. d9 E8 mMuxing mode                              : zlib( Z  [+ h( I- @# e- m. q% c
Codec ID                                 : S_HDMV/PGS% t0 M5 t4 ]2 v, v; f
Codec ID/Info                            : Picture based subtitle format used on BDs/HD-DVDs
7 S3 k7 U+ W, s  [3 U4 SDuration                                 : 2 h 23 min+ X! J& g- w, M7 z3 {
Bit rate                                 : 31.1 kb/s/ @- t1 m% c. k2 j
Frame rate                               : 0.514 FPS! P* \# |* F0 B! H
Count of elements                        : 4436$ F; r# ~. M9 \( G% ]: c* ]
Stream size                              : 32.0 MiB (0%)
( R/ j% [- U' j! v4 qLanguage                                 : Thai/ F' ]& T7 X0 B! w) h2 B
Default                                  : No
) M$ D. e$ T: Y# I6 qForced                                   : No! C& A/ @" {* j
Original source medium                   : Blu-ray: W! W0 H# E4 g4 U; C

4 e  a; a, R; ^- Y3 {3 n/ \0 cText #133 d/ Z, o- ~, ]0 \# s
ID                                       : 153 ^& }0 V+ X$ s6 |
ID in the original source medium         : 4617 (0x1209)
: u. e- ?; \  G1 UFormat                                   : PGS
6 Y' Y+ ~* b7 K1 E2 W0 E+ qMuxing mode                              : zlib7 ]" Y' P3 W8 D# e" I4 c
Codec ID                                 : S_HDMV/PGS$ k6 |4 ]3 D0 F% Z: W" _7 S: L, ~
Codec ID/Info                            : Picture based subtitle format used on BDs/HD-DVDs
0 b! W7 ?/ f% P- J3 bDuration                                 : 2 h 1 min8 N+ }1 m7 [- P9 _# U
Bit rate                                 : 1 091 b/s
( v4 r( W9 P' H( C, CFrame rate                               : 0.009 FPS
$ u5 C& b6 F$ O6 }Count of elements                        : 665 {% O5 [* Y" @0 g
Stream size                              : 975 KiB (0%)
  U& {( t9 K) K" hLanguage                                 : French8 B: w, I4 h1 ^" i( E; y
Default                                  : No( X8 B* Q" \0 V
Forced                                   : No" Z. T8 h/ m: I" C" Z. {
Original source medium                   : Blu-ray& Y3 i2 n% p0 p' `
0 @0 V" \! S5 ?
Menu8 N( w5 i! f! M2 @! p0 n
00:00:00.000                             : en:Chapter 01& G8 p; V/ h7 S' V& ~% G5 z; C4 ]
00:11:30.189                             : en:Chapter 02# t0 D/ q3 r% Y
00:21:29.997                             : en:Chapter 03
' T; z9 X& O1 r' M, C00:31:00.066                             : en:Chapter 04% W/ M( E2 o$ ?4 n- y- |
00:38:24.927                             : en:Chapter 05; {/ `; u5 T4 s5 B
00:54:39.776                             : en:Chapter 06
' B/ p& P% h  w* @: C01:02:32.415                             : en:Chapter 07+ S. `9 G) F) G, p+ J
01:07:30.129                             : en:Chapter 08
( l  S6 c" o- B4 q0 u4 a+ b01:13:50.717                             : en:Chapter 09& [- o" k: Y6 Z9 X- \
01:18:00.592                             : en:Chapter 10: q5 |8 p0 Q- E: E
01:21:27.048                             : en:Chapter 11
4 z' L5 N2 g$ {& H* E6 |- n% @4 h01:26:59.505                             : en:Chapter 12. Y2 }" f4 |# B, f( @5 _
01:33:19.927                             : en:Chapter 13
5 \: C9 D7 X' F01:44:08.450                             : en:Chapter 14$ T* A. w/ k# b( {! J% _2 \) y
01:53:34.808                             : en:Chapter 15
4 C( w9 o: l' C$ e/ m6 C1 L, f02:06:59.153                             : en:Chapter 16
Whitney.Houston.I.Wanna.Dance.with.Somebody.2022.1080p.BluRaycd.x264.DTS-MT 20.01 GB
" y$ M5 K( ^, N, K2 r1 q& K' M$ N, u% i1 G' j
Video
+ ^+ C% @6 r( M4 Q! d- y+ r6 ?% O* pID                                       : 1
: u( `3 b1 A  G8 y  u5 u/ c* YFormat                                   : AVC) v; w4 @, F: [( J0 `8 ~
Format/Info                              : Advanced Video Codec* q0 v/ y. }! W/ v- }
Format profile                           : High@L4.1+ |- T9 i. f( E3 y
Format settings                          : CABAC / 5 Ref Frames9 M' s' q  P3 n2 j
Format settings, CABAC                   : Yes
9 M/ u9 z- s; eFormat settings, Reference frames        : 5 frames7 |" F2 r: O" q$ A; e* V
Codec ID                                 : V_MPEG4/ISO/AVC# m6 N! |! K# T! Q8 a
Duration                                 : 2 h 24 min0 ?# g5 \' S6 Q* {/ T5 m
Bit rate                                 : 18.3 Mb/s
* i  F3 ~3 T7 A  q- @Width                                    : 1 920 pixels
$ ~) @4 P7 T1 c0 T- X, jHeight                                   : 804 pixels8 H+ l6 c1 q' X( c7 L( n
Display aspect ratio                     : 2.40:1
1 g  S: D6 X  x/ K; I# HFrame rate mode                          : Constant
$ s: d- m' p! d+ ^9 V: x- WFrame rate                               : 23.976 (24000/1001) FPS
6 S1 U5 T7 S* j/ G: vColor space                              : YUV$ x! [. N8 ]- p( |
Chroma subsampling                       : 4:2:0( B4 F! _. w) `' A3 g1 F) }
Bit depth                                : 8 bits: l; I0 U7 n; q5 E: d/ Q% j
Scan type                                : Progressive
0 m: Z) i$ s8 B4 `" mBits/(Pixel*Frame)                       : 0.495
2 W  Q+ q: n* N( `, v6 n0 l5 }Stream size                              : 18.5 GiB (92%)
0 `1 |( o4 o2 v; J, S3 aWriting library                          : x264 core 157 r2938 2b00a84 TnP@MTeam Mod1 c* b# }! l# e0 I, |5 A) V; x
Encoding settings                        : cabac=1 / ref=5 / deblock=1:-3:-3 / analyse=0x3:0x133 / me=umh / subme=10 / psy=1 / psy_rd=1.05:0.00 / mixed_ref=1 / me_range=32 / chroma_me=1 / trellis=2 / 8x8dct=1 / cqm=0 / deadzone=21,11 / fast_pskip=0 / chroma_qp_offset=-2 / threads=12 / lookahead_threads=2 / sliced_threads=0 / nr=0 / decimate=0 / interlaced=0 / bluray_compat=0 / constrained_intra=0 / bframes=8 / b_pyramid=2 / b_adapt=2 / b_bias=0 / direct=3 / weightb=1 / open_gop=0 / weightp=2 / keyint=250 / keyint_min=24 / scenecut=40 / intra_refresh=0 / rc_lookahead=250 / rc=crf / mbtree=0 / crf=16.8 / qcomp=0.60 / qpmin=0 / qpmax=69 / qpstep=4 / vbv_maxrate=62500 / vbv_bufsize=78125 / crf_max=0.0 / nal_hrd=none / filler=0 / ip_ratio=1.30 / pb_ratio=1.20 / aq=3:0.80
1 C4 S7 [, c  @8 W' HLanguage                                 : English+ z! s% Q- C/ k: k8 Z
Default                                  : No
, A9 e4 u0 r, _" FForced                                   : No: w9 m+ o! J9 l( W5 o  B' o
Color range                              : Limited& x) N6 F9 [$ b$ Y8 ~( Z
Color primaries                          : BT.709$ q4 `8 U1 [0 r% D. L
Matrix coefficients                      : BT.709
9 z% j  m% Z3 P' O; N- R( F
% i: Z$ Y2 |) T5 v+ R& z/ {Audio( k. a" C% ]7 Y
ID                                       : 2
/ ~! P2 o  Z( k. ~Format                                   : DTS5 v! x! O% ~9 u6 Z0 m3 C* M7 o/ o
Format/Info                              : Digital Theater Systems  |* q6 j& Y6 g- X
Codec ID                                 : A_DTS
" V! q2 N1 T$ n) V. [4 kDuration                                 : 2 h 24 min
4 K# Q+ l, s9 u* nBit rate mode                            : Constant4 x# i! o& Y$ ~0 C- a- g. h: f
Bit rate                                 : 1 509 kb/s
) f% K6 v, T2 A, @& FChannel(s)                               : 6 channels7 g5 d/ H' e& c  v# k9 @
Channel layout                           : C L R Ls Rs LFE8 C6 Y6 }& I+ @3 g9 h$ n
Sampling rate                            : 48.0 kHz
/ t8 h1 c* Y) W$ rFrame rate                               : 93.750 FPS (512 SPF)
5 |% q) o- k+ W1 @& T. RBit depth                                : 16 bits
8 I5 W8 n2 h6 S. gCompression mode                         : Lossy
$ G- _3 |+ ~2 AStream size                              : 1.52 GiB (8%)
9 M$ s8 j0 c) |" F6 n& @( K4 u4 QLanguage                                 : English4 U. L3 r7 o( K' ]
Default                                  : Yes
* c' p$ p$ G$ u' `- e1 H: T9 A% bForced                                   : No
9 s- m5 {( S, P# N8 m
: N2 [/ y) A; q; q' j+ M. M- a9 ^  ?& }Text #1
+ ^/ `1 V7 _) d( R$ ?3 O; a; ]ID                                       : 3
( U& k9 M; O1 {7 t3 DFormat                                   : UTF-8
# ]8 D! G4 M+ H4 V7 F* |/ `Codec ID                                 : S_TEXT/UTF8
& j0 m; P4 Z. U1 X* mCodec ID/Info                            : UTF-8 Plain Text; k! a- e0 e  M! ]
Duration                                 : 2 h 22 min& I2 ?6 l1 m- B' d# x
Bit rate                                 : 67 b/s7 O0 @5 C1 j4 d) |
Frame rate                               : 0.270 FPS
  B6 w; V; ^) R7 U5 y1 f, x# tCount of elements                        : 2316
- t6 `! X9 K( e5 d/ Z& \. MStream size                              : 70.9 KiB (0%)
( Q- v5 ^# w6 O( nLanguage                                 : English
1 t1 o: A, H4 b1 d" X$ i1 dDefault                                  : Yes" A3 F5 M* x& H( u8 n3 X* i, M' w
Forced                                   : No
6 v8 P  s" q- R7 p9 {9 \
3 q* X$ T5 g6 w. m& B0 ^. \) hText #2! P. y9 t- l+ w! y
ID                                       : 4
0 x; T3 \  d4 E1 a. l8 s; x' jFormat                                   : UTF-8
7 @8 _  S, M! d' v' {$ H! RCodec ID                                 : S_TEXT/UTF8) W( u: ]7 ?, g& s; Y0 m
Codec ID/Info                            : UTF-8 Plain Text
" Q- K- F9 I! _+ G5 t% aDuration                                 : 2 h 22 min3 V/ X' g& R( B7 y6 b% J- c
Bit rate                                 : 76 b/s+ D7 F2 B/ z2 M* m% T2 v
Frame rate                               : 0.297 FPS" a* }. L7 `/ f. b. u
Count of elements                        : 2543
: I6 `0 e8 W" q7 j3 L+ |Stream size                              : 80.1 KiB (0%)
& z* J8 k! \2 c( ]: Z: P% kTitle                                    : SDH7 M2 M9 u% T0 H( b! e# D1 v( B
Language                                 : English2 n. C' t" B7 s+ G( J
Default                                  : Yes: Y/ K0 e" B  n) w* r6 ?' s2 Z, v
Forced                                   : No' Y: c6 x6 N8 J1 C0 t3 h1 B0 k! Z: D
; a% B* y. \$ [1 v* c4 n' L0 _6 b
Menu
1 Q' n5 C7 ^: _. c1 e00:00:00.000                             : en:Chapter 01; M$ e" z8 x4 H3 r5 m) j
00:11:30.189                             : en:Chapter 02! q; ]! |+ K" \8 Y! `0 b
00:21:29.997                             : en:Chapter 03- t( ^2 k' u: l" C# b! C- M% e
00:31:00.066                             : en:Chapter 04+ Q0 p+ V, H" J2 h% ?* k3 ?8 p9 ]
00:38:24.927                             : en:Chapter 05
3 F# p" D( P2 A3 H+ K00:54:39.776                             : en:Chapter 06- T- B, q. q2 A3 a. e. ?
01:02:32.415                             : en:Chapter 07
/ `+ r! b) u, ^0 h7 r01:07:30.129                             : en:Chapter 082 q% h+ B; G8 `) o% }- G
01:13:50.717                             : en:Chapter 09
* i. ~% @6 l. k" u2 l01:18:00.592                             : en:Chapter 10: \) i2 C) ]: d- H
01:21:27.048                             : en:Chapter 111 g# F- ^4 N: n% a' d
01:26:59.505                             : en:Chapter 12
1 ]" x) n1 |* s: n* [) U: G9 E8 Q01:33:19.927                             : en:Chapter 13
0 |7 ?: j+ s! p6 Z" b01:44:08.450                             : en:Chapter 147 U! g1 M4 D  t/ ~  }& @
01:53:34.808                             : en:Chapter 15: O/ e- A" V( i4 S; J
02:06:59.153                             : en:Chapter 16
Whitney.Houston.I.Wanna.Dance.With.Somebody.2022.1080p.BluRaycd.x264-KNiVES 13.92 GB
# ]9 |0 o+ B% ^- X. e/ T' v6 T/ O5 E2 B
date .......: today
0 f) f2 X9 c: S& }! V0 V4 Lreso .......: 1920*804x6 K4 C5 W/ P( }- h; L4 h% Q& S5 J" ]
biterate ...: 11,3 Mb/s
2 ~$ N/ W( B+ a, l2 b9 hsource .....: 24,3 Mb/s: C- t3 M8 \- T: j2 ?5 w" D
sound ......: DTS-HD MA
( w' [( c  V3 q. Ocheck ......: https://www.imdb.com/title/tt12193804/4 o" a- u% {/ G2 R9 ]
notes ......:
6 P/ ^0 N3 j) b! x% x6 g7 g7 J& l
游客,查看本帖隐藏内容请回复 | 加入VIP可免积分免回复 了解详情 | 还不是会员:点击获取邀请码 Invitation Code

31

主题

4221

回帖

2万

积分

Sponsor

金币
3170 枚
体力
10204 点
QQ
shiji1973 发表于 2023-3-13 16:24:11 | 显示全部楼层
沙发是抢的而不是占的!: i  V# y/ T( c7 e1 }
Your resources, well, I am very satisfied!, z, G3 T2 a/ ?& B' C0 H

0

主题

141

回帖

957

积分

Sponsor

金币
1 枚
体力
674 点
zzjbj 发表于 2023-3-14 19:43:38 | 显示全部楼层
看了LZ的帖子,我只想说一句很好很强大!"") L$ g, \  T: E
The decisive Replies sink is I get the sinking feeling great sense of accomplishment!
9 B: U: K( d" |" K+ e

3

主题

948

回帖

4840

积分

Sponsor

金币
0 枚
体力
2817 点
myg0123 发表于 2023-3-18 10:20:10 | 显示全部楼层
每天都来蓝光论坛看看,我爱蓝光电影。  D, Z. C  d2 j8 \  ]
Thank you for sharing such a good resource polite reply, very sorry for myself!
6 C* k9 W- z8 T" O# l
蓝光论坛里 ...

本版积分规则

小黑屋|手机版|Archiver|4K蓝光论坛

GMT+8, 2024-6-21 09:00

Copyright © 2001-2021, Gadaddy Cloud.

快速回复 返回顶部 返回列表