BluRayCD Forum

 找回密码
 立即注册【分享大片】
查看: 12|回复: 0
收起左侧

[科幻恐怖] 死胎/生而死 Born Dead 2021 ITALIAN 1080p BluRaycd x264 DDP5.1-SbR 9.88GB

[复制链接]

1万

主题

387

回帖

13万

积分

Post Share

金币
4432 枚
体力
33101 点

卓越贡献勋章VIP蓝光勋章诚信会员勋章

mvods 发表于 2023-3-21 23:24:41 | 显示全部楼层 |阅读模式

. f7 }* a2 u2 ^9 h4 x0 {3 s& Q0 @) W
- p( |, k/ O2 p& x! N0 I9 F' ]◎译  名 死胎/生而死4 q/ h* ]( G( R3 b4 T. ~
◎片  名 Nati Morti / Born Dead
: V- W1 W8 T$ d$ Q◎年  代 20219 b0 p; v, v( F) D3 b& i% C: |
◎产  地 意大利7 n# e2 [* L- v# U, p4 G+ g; O6 g
◎类  别 恐怖  I/ R5 J$ @6 V5 D: L
◎语  言 意大利语
1 n6 C$ y: J  H+ `  C; S◎上映日期 2021(意大利); V! l4 V1 L' h9 v
◎IMDb评分  5.3/10 from 127 users
5 o6 `# @( M' K: m( B◎IMDb链接  https://www.imdb.com/title/tt13751422/* }0 C( H2 U- Y- m5 Z
◎豆瓣评分 0/10 from 0 users
# z/ s6 {( @. m, t5 W  l( H◎豆瓣链接 https://movie.douban.com/subject/35524082/7 R: {% w. Z" j' N
◎片  长 1 h 21 min
$ R" ]. O5 C1 F# Y: \* H( R; j◎导  演 Alex Visani
' V. f* M6 ?0 x; ?; A8 y◎编  剧 Alex Visani
( H2 G7 U& {3 P$ A◎主  演 Corinna Coroneo8 \. j. `" }( b: n" X2 Q
       Lorenzo Lepori
( V# Z& x) X/ j; Z7 d       Ester Andriani! Y$ y0 S# W: d1 U  j
       Jesse R. Tendler
3 F7 [$ J* z: U$ k4 c# D: V) a       Dameka Hayes1 c! ]% K  H- w1 k) [  x# u
       Carys McGrory) |- d" K  T1 c
       Brian David Tracy
8 m$ t0 l! T) y' I       J. Richey Nash
; K- p$ t' C/ ~, ^! Q       Asher Edgecliffe-Johnson, C' K5 J7 C* p2 u4 @1 Z
       Deborah Stile: ^  ?2 y4 f! H9 K, ~( H, K
' Z$ C6 K/ [. K" T( Y
◎简  介 
" |& z# v  T4 L+ c/ U6 w( x7 s0 l8 Q. D
  Luna is a young embalmer with a strange passion for everything concerning death. One day, during a trip in the woods, she finds two bodies. The first one is a dead woman, the other one is a man who is still barely breathing.! v( x- ~& @3 v
Born.Dead.2021.ITALIAN.1080p.BluRayCD.x264.DDP5.1-SbR 9.88 GB  o( e/ y' _" d$ @) y& U& l- S5 S

4 Z" `1 Y* i2 B9 l/ s1 K7 s( FVideo8 Q0 j8 S! k& v- ?, g6 N- {1 a
ID : 1
+ J9 m: |' N% N; TFormat : AVC2 @; m! t$ U2 i% C& n" x. |6 B& P
Format/Info : Advanced Video Codec
1 Y/ P+ C& I% Q4 ^2 D* pFormat profile : High@L4.1
. r) a3 F; V3 M& B2 I9 `7 JFormat settings : CABAC / 4 Ref Frames+ S: P6 O/ ]# M. A1 ~9 r
Format settings, CABAC : Yes
. A8 `" l9 I0 ?3 R5 hFormat settings, Reference frames : 4 frames
9 q6 B) g+ p0 Z% A! f: DCodec ID : V_MPEG4/ISO/AVC3 Z. Y8 r! Z, W$ j. W6 A
Duration : 1 h 21 min, Y6 ~' O7 n7 z9 K3 o2 y3 K
Bit rate : 14.7 Mb/s' o6 `$ _6 Y+ O
Width : 1 920 pixels. V- g+ p+ h- f- ?1 ?& W3 E
Height : 816 pixels
1 w5 ?1 Y# Z, @Display aspect ratio : 2.35:1. a8 I; e9 i8 {
Frame rate mode : Constant
  U: ]& U4 n8 k* C& ?, @2 eFrame rate : 23.976 (24000/1001) FPS, g, k& Q& P, e2 V. n; q
Color space : YUV7 b4 V# o; {  P$ D: @2 ]
Chroma subsampling : 4:2:0
1 F: i" C* e; `; KBit depth : 8 bits$ Y2 T  |* ~0 I* T1 c
Scan type : Progressive
1 ^9 t7 p  `' |Bits/(Pixel*Frame) : 0.392  g( j2 v7 K. k# A
Stream size : 8.43 GiB (85%)* |  A  X" E9 g) B
Writing library : x264 core 164 r3106+49 2efe26b devel [(8 & 10)-bit@all X86_64]
8 P0 o- Y; Y/ ?! ]3 xEncoding settings : cabac=1 / ref=4 / deblock=1:-3:-3 / analyse=0x3:0x133 / me=umh / subme=11 / psy=1 / fade_compensate=0.00 / psy_rd=1.00:0.00 / mixed_ref=1 / me_range=32 / chroma_me=1 / trellis=2 / 8x8dct=1 / cqm=0 / deadzone=21,11 / fast_pskip=1 / chroma_qp_offset=-2 / threads=32 / lookahead_threads=6 / sliced_threads=0 / nr=0 / decimate=1 / interlaced=0 / bluray_compat=0 / constrained_intra=0 / fgo=0 / bframes=10 / b_pyramid=2 / b_adapt=2 / b_bias=0 / direct=3 / weightb=1 / open_gop=0 / weightp=2 / keyint=250 / keyint_min=23 / scenecut=40 / intra_refresh=0 / rc=crf / mbtree=0 / crf=18.0000 / qcomp=0.60 / qpmin=0:0:0 / qpmax=69:69:69 / qpstep=4 / ip_ratio=1.25 / pb_ratio=1.20 / aq=3:0.80 / aq-sensitivity=10.00 / aq-factor=1.00:1.00:1.00 / aq2=0 / aq3=0
: t! |( E9 F! }/ {! N5 eLanguage : Italian% n- D( m: X2 E; @2 T
Default : Yes
0 j( r+ _# K  V7 XForced : No
# n7 {! `& s+ O: {( C& {
+ E& `! H9 M1 EAudio #1: P. Q) m3 M2 ~5 v2 F- k* I: T
ID : 2
9 u9 g+ Z! }7 n4 ]. YFormat : E-AC-3, F$ H  H" {' a1 |
Format/Info : Enhanced AC-3
0 H/ _7 y% l1 }* a+ P8 [Commercial name : Dolby Digital Plus
1 i. ]# i7 E9 eCodec ID : A_EAC3  T4 _' ~# E9 [- H! m  D7 L# K' v* C
Duration : 1 h 21 min6 k# Y# I" U: R$ t
Bit rate mode : Constant
4 {' v# ?4 D! j9 ^: LBit rate : 1 024 kb/s
' Q1 D2 N( V, ~% G# ^/ U2 WChannel(s) : 6 channels& }. d6 ?" k  \
Channel layout : L R C LFE Ls Rs
. w* I  O9 r5 t$ K" q9 W2 }, YSampling rate : 48.0 kHz
* p) G; `  U0 J% |/ ]8 l6 XFrame rate : 31.250 FPS (1536 SPF)
0 f6 I, H  E+ f( G! jCompression mode : Lossy8 P5 U6 R' U* @8 ~
Stream size : 600 MiB (6%)
- K) j0 x6 \  X- D4 _) eLanguage : Italian8 x" O" ]- b" n( A& ]3 a& A0 T
Service kind : Complete Main
% {* D' A' [7 N  M3 j  TDefault : Yes
  v1 ^% F" p( Y+ N6 ]0 SForced : No
/ v# u! f: j  t1 j9 @7 o
! H' ~' U' a% D; l# d! @; aAudio #21 s3 \9 d8 J" F3 Z( M, ]- W
ID : 3
# O/ e7 U- B2 u  u8 b7 t0 Y% X0 IFormat : DTS- o) [) {5 y+ {( k2 g# V
Format/Info : Digital Theater Systems
: [- A) p, D: b  ]$ H: ]4 A+ ACodec ID : A_DTS
+ }2 e+ u9 Q, p2 ~' n% a2 dDuration : 1 h 21 min+ u# V7 g# w8 Q
Bit rate mode : Constant3 o% y3 h& I( n0 y
Bit rate : 1 509 kb/s
8 l4 x8 S6 r" s8 D1 |3 tChannel(s) : 6 channels1 S" d5 M. ?& B1 A5 K& G$ H$ |
Channel layout : C L R Ls Rs LFE) K- N; X( d7 s/ y- S
Sampling rate : 48.0 kHz, M; [- [9 |* h" X4 J. t# s3 ?
Frame rate : 93.750 FPS (512 SPF)
& g# N* B) d0 H* }Bit depth : 24 bits8 p! C2 ], r- }2 F
Compression mode : Lossy  g4 n6 Q$ |1 R; h( w
Stream size : 884 MiB (9%)  [3 C+ V+ {. F+ r- ~; L8 [
Language : English
! D. K" o8 ?, m+ G  o, LDefault : No
) }+ F& O4 U/ O( Z2 \+ ~% H# nForced : No! q/ {0 v9 {" o7 u6 ?

# X& n& k. `- B3 \Text #1
5 h) O6 z! G/ ~0 jID : 4: z1 m0 f% v" [' b: n7 `1 C
Format : ASS; O( b+ p0 {" c; x1 L; }' c
Codec ID : S_TEXT/ASS2 Z  z6 ^0 l3 u
Codec ID/Info : Advanced Sub Station Alpha+ U' r, S! b# H$ v3 g  \0 |1 E
Duration : 1 h 4 min9 p! l: G3 A" s! z3 D+ {, u
Bit rate : 38 b/s
/ @3 `; h" T) H3 I' q/ SFrame rate : 0.113 FPS
+ N$ O/ K# r$ W9 f# [/ M% _; |Count of elements : 439
# {; h+ R) _: m- \- k+ P6 iCompression mode : Lossless
7 p( ~; Q) y/ z' T) o* s  {Stream size : 18.0 KiB (0%); L4 t9 M) ^6 j( Z) y) \3 k
Language : English4 h4 R% J) L# b1 _# u
Default : No& y- ?! A- @0 s4 T5 z, Q# }
Forced : No
  \; v- W- q4 T- y# d) V: |; L: B# B4 P' _
Text #2
: l5 ^. A1 z2 q$ D. ]! jID : 5; z/ t/ N9 m0 b1 \. C+ A; @. E8 n
Format : UTF-8
" T. t/ U& E, m$ Z3 n& V. A' VCodec ID : S_TEXT/UTF8; s& y1 J8 d$ M# x
Codec ID/Info : UTF-8 Plain Text* R3 a% ]5 q: e" L% Q& [$ ~7 Y
Duration : 1 h 4 min8 x' e5 Z. b4 R7 ~, f( a6 @
Bit rate : 18 b/s# N) d8 P8 [) |9 ?- [' \) I- h. `
Frame rate : 0.113 FPS: g$ O" ]5 I( n; K$ F0 j1 B& \; J: |
Count of elements : 439
* p1 t: ?6 i% M8 r: YStream size : 8.68 KiB (0%)6 V' ~2 N( M9 C3 b& H0 |* q3 l
Language : English- g1 m  ^, D) _  |4 [; S3 L% ?0 Y
Default : No
/ M: s, ]: h9 B& j# O2 TForced : No( [8 @* Z. ~8 d/ t# @+ X( M

9 F0 x( [9 Z; }Text #3
* s2 M2 Z7 ]0 X- p9 }5 FID : 6( e" y. N% b* F
Format : UTF-8
* D- A# L# U  v- f* CCodec ID : S_TEXT/UTF8$ B% ^- T# x( h% T* `/ k% d$ G; D
Codec ID/Info : UTF-8 Plain Text2 O: J8 O3 i* D; W% ]& g7 i
Duration : 1 h 4 min' O# b7 P5 R, _  n: Q
Bit rate : 20 b/s- F4 D: t; T3 m' b# f0 ^
Frame rate : 0.114 FPS
' T0 X3 L5 h6 {  b9 t/ d9 _! Y/ ]* W4 NCount of elements : 440
- Z& k: Y  v) M  F. jStream size : 9.77 KiB (0%)
" C# m3 A! S- \7 GLanguage : Italian2 V+ j- G% p( g9 _
Default : No  P+ l0 ?$ N# {: I% i- H
Forced : No
# Y, g3 L$ e, j8 o3 H$ o  U0 n8 J& R, B; M' U4 y
Menu
) C. @: m# {# F& d5 e. V00:00:00.000 : en:Chapter 01: P) b2 w% v- j8 T; C+ [
00:13:19.632 : en:Chapter 02
5 f4 `2 k" e. Q6 C3 u7 E, u00:27:11.213 : en:Chapter 03% s9 j# G2 f/ N/ ?
00:39:52.640 : en:Chapter 04/ m- s4 _! C) _# E( v2 Y
00:53:48.809 : en:Chapter 05  G/ |; A6 C. Q
01:08:43.244 : en:Chapter 06

$ ~: J1 {& C, C. b( r% x% Z+ H) a" H
游客,查看本帖隐藏内容请回复 | 加入VIP可免积分免回复 了解详情 | 还不是会员:点击获取邀请码 Invitation Code

本版积分规则

小黑屋|手机版|Archiver|4K蓝光论坛

GMT+8, 2024-6-21 08:55

Copyright © 2001-2021, Gadaddy Cloud.

快速回复 返回顶部 返回列表