BluRayCD Forum

 找回密码
 立即注册【分享大片】
查看: 11|回复: 0
收起左侧

[蓝光原盘] 天外讯号 [REMUX无损版] Immanence 2022 1080p BluRaycd REMUX AVC DTS-HD MA 5.1-FGT 18.23GB

[复制链接]

9221

主题

194

回帖

6万

积分

Post Share

金币
516 枚
体力
13188 点

卓越贡献勋章

24小时 发表于 2023-3-23 01:17:51 | 显示全部楼层 |阅读模式

4 a* d( o9 }8 ~' I. g2 x* x7 d* O4 }+ f4 L
◎译  名 天外讯号3 N* I( P" R  O! a: F1 Y2 e
◎片  名 Immanence
5 C, O2 f, R8 [  F. }◎年  代 2022/ O- G# p% H; [; w' X* Q; h, F. v
◎产  地 美国+ h5 \2 P# @6 n4 r; m& [+ A
◎类  别 恐怖/悬疑/惊悚
: m$ S5 D# F1 z% s. B# P. p1 E◎语  言 英语  H8 y  G$ z( n7 }$ K% {0 }$ B
◎上映日期 2022-02-04(美国)
: Q* W, P8 U  O2 f' I. p0 S◎IMDb评分  3.6/10 from 997 users  B& j8 d9 l. `$ M5 N
◎IMDb链接  https://www.imdb.com/title/tt11626108/
9 Y" i8 V9 J# `0 @◎豆瓣评分 0/10 from 0 users* V5 b5 I: J+ N: p& u# `: J
◎豆瓣链接 https://movie.douban.com/subject/35729404/* {% o3 z+ o8 n
◎文件格式 x264 + DTS  
0 t' O2 J4 I, V) a; b◎视频尺寸 1920 x 1080: D$ q% m: l7 Q( M  n2 W& I* J4 b- q
◎文件大小 1DVD 18.23 GiB 4 l; b" }9 ?+ o6 _/ d
◎片  长 1 h 32 min. `: s# [! c- w6 d$ m+ T6 a
◎导  演 克里·贝莱萨 Kerry Bellessa
1 @* ?( P4 F" K* @◎编  剧 克里·贝莱萨 Kerry Bellessa
7 j+ o0 ?0 x5 f- y+ t' Q, z0 ~6 D       约书亚·奥兰 Joshua Oram
- ?8 R) K, R" `◎演  员 迈克尔·比奇 Michael Beach+ c( _% U9 u7 a& p
       杰米·麦克沙恩 Jamie McShane
; q: u7 ?' I8 E7 l! L( g5 p4 k. C       尤金·伯德 Eugene Byrd
6 E) C( v8 ]! ~7 b       安东尼·瑞维瓦 Anthony Ruivivar
1 N; `5 @, R2 W1 y& S# X       萨默·贝莱萨 Summer Bellessa
' r9 J) t% Y* Z; g# a7 K! F; E  f       卡西亚·皮莱维茨 Kasia Pilewicz; }& \+ ^0 d, Q* _4 T- o9 j8 o1 m
       阿森内斯·德尔·托罗 Asenneth del Toro. R% m: w/ D6 D; S) R# v) ~

! ^! g1 t. ?) `3 L2 B( h& n5 [$ `◎简  介
0 a# m5 W. S! S( P/ ?5 T# d
: b- O2 a# K4 z% h9 I+ O  射电天文学家在深海中发现了一个可能是外星人的神秘信号。在与外星人几番接触后,受到了威胁。他们历尽艰险,才能在这场战争中存活下来。
$ Q9 }% I; w  `4 \/ X4 r% v' L- s, S7 C$ L0 D: {
  Radio astronomers discover a mysterious signal in the deep sea that could be contact with extraterrestrials. After several terrifying manifestations threaten their beliefs, the team must fight to survive the ultimate evil.
) O+ x$ D- v. o
Immanence.2022.1080p.BluRayCD.REMUX.AVC.DTS-HD.MA.5.1-FGT
: \7 G4 I8 \; }# X
8 \. O, f" M  M- ]/ E: o& u9 Z% X) V- HVideo2 c& Y8 @2 R8 `6 L' v
ID : 1( H7 N! q! Z+ O! [- Z
ID in the original source medium : 4113 (0x1011)+ e7 p  t% w$ E! p0 g
Format : AVC* a3 S( u8 ]( _, H" c8 [
Format/Info : Advanced Video Codec
4 g/ N( x) k; k$ xFormat profile : High@L4.1
' p" E4 o/ b2 P5 xFormat settings : CABAC / 3 Ref Frames5 }, i3 l7 [. h8 V( D/ v
Format settings, CABAC : Yes
( [* d2 V+ Y) M/ w( P- T; U+ q% tFormat settings, Reference frames : 3 frames
% g  n8 B- {/ ~, [Codec ID : V_MPEG4/ISO/AVC
- O- \/ W; ~1 S- y6 s. l( ]! ADuration : 1 h 32 min' X2 l; b. e5 S4 U: Z
Bit rate mode : Variable
1 j$ F, u4 y) g7 z3 |Bit rate : 27.0 Mb/s
6 J( x2 |3 Q) aMaximum bit rate : 40.0 Mb/s
& \) M& a. r- o4 A' ?" ]2 v4 ]Width : 1 920 pixels# p7 e; s0 x4 s2 K7 u
Height : 1 080 pixels
) |8 t. `# M; l% fDisplay aspect ratio : 16:9; B+ y  |2 W( }; x
Frame rate mode : Constant# _+ v- J2 t& \0 A% B1 H: B* B
Frame rate : 23.976 (24000/1001) FPS
/ {' \0 ?) v; `Color space : YUV
3 k$ b5 E6 U/ sChroma subsampling : 4:2:02 @8 m" o5 t5 l" L7 g. U$ |
Bit depth : 8 bits$ w- ]3 h; b+ |: `) j
Scan type : Progressive7 I. e+ m  l3 [
Bits/(Pixel*Frame) : 0.5435 n: D, t# M6 r1 \- ~
Stream size : 17.1 GiB (94%)
$ C+ P% R9 w6 j4 YWriting library : x264 core 152 r2851bm ba24899
& v# Z0 K( c0 B; |) ]Encoding settings : cabac=1 / ref=4 / deblock=1:0:0 / analyse=0x3:0x113 / me=hex / subme=8 / psy=1 / psy_rd=1.00:0.00 / mixed_ref=1 / me_range=16 / chroma_me=1 / trellis=2 / 8x8dct=1 / cqm=0 / deadzone=21,11 / fast_pskip=1 / chroma_qp_offset=-2 / threads=30 / lookahead_threads=5 / sliced_threads=0 / slices=4 / nr=0 / decimate=1 / interlaced=0 / bluray_compat=1 / constrained_intra=0 / bframes=3 / b_pyramid=1 / b_adapt=1 / b_bias=0 / direct=3 / weightb=1 / open_gop=1 / weightp=1 / keyint=24 / keyint_min=1 / scenecut=40 / intra_refresh=0 / rc_lookahead=24 / rc=abr / mbtree=1 / bitrate=27000 / ratetol=1.0 / qcomp=0.60 / qpmin=0 / qpmax=69 / qpstep=4 / vbv_maxrate=40000 / vbv_bufsize=30000 / nal_hrd=vbr / filler=0 / ip_ratio=1.40 / aq=1:1.001 P1 B) \0 X2 P! |
Language : English+ f. W4 L/ D+ K# c/ |
Default : No+ j9 P, O7 M. v, |
Forced : No
: c6 Y0 I% _# [7 E$ ~; L! rColor range : Limited  O. m5 z9 K* u# y" S5 n
Color primaries : BT.709% a  P) f5 g  {& d' b0 |+ S
Transfer characteristics : BT.709  ?6 u# Y3 b- h: j1 O
Matrix coefficients : BT.7096 K$ Z* m1 i2 a$ J! O# ?7 u) b3 Y
Original source medium : Blu-ray7 o# p& |' D( S6 c

) W0 q9 s5 N* yAudio8 X1 t) i1 f' U- a
ID : 2
- E# S: M0 H3 e( P6 {: cID in the original source medium : 4352 (0x1100)& A/ |! S" @( O3 J. I
Format : DTS XLL
1 K# Q# y  E: O, f$ `! t- \' GFormat/Info : Digital Theater Systems
2 Q9 R' |1 m- f3 y! s$ c+ _Commercial name : DTS-HD Master Audio5 |9 z+ [4 z$ w, ^( u- f
Codec ID : A_DTS
0 t' L5 T/ `& z. q9 m" ]6 JDuration : 1 h 32 min' b5 o. e" `  d0 W' E- a
Bit rate mode : Variable
. X7 l! F' P; J6 b% ~6 oBit rate : 1 683 kb/s1 O, q6 Q# F0 f7 Y( H# |, C6 Y9 W3 K
Channel(s) : 6 channels7 [+ l, `5 L# @8 m2 q3 ~
Channel layout : C L R Ls Rs LFE
( X: o, s$ `( X' Z9 B3 o+ p; z  gSampling rate : 48.0 kHz
3 P0 K4 d) T8 R* X/ UFrame rate : 93.750 FPS (512 SPF)% M7 B2 B1 m6 y9 Y6 R! B  E1 Z" l
Bit depth : 16 bits
" J* ^) z2 m! U5 V; c$ z& eCompression mode : Lossless
% T- c1 _  ^& n  S/ uStream size : 1.09 GiB (6%), Y) r: w# X0 P. [9 K- d6 ]& [
Title : DTS-HD MA 5.1
" W4 e1 v" J. xLanguage : English, a/ Z' {: m  K, F
Default : Yes
: J5 x+ W4 ]& o" c: iForced : No+ h/ I3 `0 j2 N+ A. j. L
Original source medium : Blu-ray
1 K/ x* i8 @! C- }6 c
- z3 X. R4 y4 UText #1
2 q+ ^0 K1 X) C# a5 ~" QID : 3! P6 l) J' n* D' b5 n8 _$ D
ID in the original source medium : 4608 (0x1200)
4 Y0 n& }7 q7 @% XFormat : PGS7 u, X5 i2 p+ _9 q4 E7 P6 W
Muxing mode : zlib  `" a* b$ v! C
Codec ID : S_HDMV/PGS; w& c  N3 e  \' w# R9 K3 u' L7 a
Codec ID/Info : Picture based subtitle format used on BDs/HD-DVDs. M" D7 r- y/ c  n
Duration : 1 h 32 min
; c0 T2 O7 Y6 tBit rate : 44.5 kb/s: y0 R+ |) ]) V# X
Frame rate : 0.280 FPS
  E3 b7 {- G$ j& N. o! iCount of elements : 1548
: p: K7 i4 H6 w5 u5 QStream size : 29.3 MiB (0%)
7 K# g$ ~2 j, |7 P% QLanguage : English0 t3 _, v0 K2 x  a6 M( ?
Default : No5 C7 A6 }, k, O
Forced : No
/ d8 j+ \3 `4 h% dOriginal source medium : Blu-ray; B- m- d  l- m  \0 Z9 B

+ u, ~& Y5 E  t+ z& MText #2
  M; _* R' V7 IID : 4. y! r' r! ]! _+ b2 D& h, o8 q
Format : UTF-8
% I( l. f1 Y& c8 \7 ^* TCodec ID : S_TEXT/UTF8% @( A  A0 N) o* X8 Q& ]
Codec ID/Info : UTF-8 Plain Text+ x0 b* m5 L/ k, J" n: L
Duration : 1 h 26 min* j; m$ D% r+ @' F& m- p) e: @
Bit rate : 54 b/s# P9 E" k" I: M' O  W3 y
Frame rate : 0.214 FPS
/ j  Y: n8 m6 i4 @& V7 cCount of elements : 1110: w3 W* o6 `0 ^4 O( }/ k
Stream size : 34.9 KiB (0%)# [8 y5 _( M9 I% j
Language : English
$ r/ `0 L5 v7 F# b5 EDefault : Yes' X7 y$ i( ^7 u# O7 Z
Forced : No- s' {5 O* c# [; I
5 F3 e: J1 s0 N8 D$ o
Text #3' {1 p+ j; Z; N) _1 R
ID : 5% a+ `( ~3 V% b1 Q" S
Format : UTF-8
7 M. `4 L3 l9 F% UCodec ID : S_TEXT/UTF8; @. q: S4 @( _# B7 V; s
Codec ID/Info : UTF-8 Plain Text! z2 d, O, Z4 `3 c; {, K3 k
Duration : 1 h 32 min  E" ~+ c' H- m9 G5 l7 A9 v
Bit rate : 55 b/s- Y$ M, b1 v- H0 D% t
Frame rate : 0.225 FPS
6 @, A# F% z7 y. `. N5 MCount of elements : 1246& r' L( G: r: }/ I% R
Stream size : 37.2 KiB (0%), p. M( L( R& p( x5 d9 L
Title : SDH
% l, E, S6 N  o& j7 F4 K1 x: `Language : English
# z+ s( F, }/ k- H: z/ B' k5 iDefault : No
$ w8 k. H) u$ I+ N0 l1 }9 }! q8 hForced : No  i9 m6 a8 J5 H# x* u0 w# H
$ j2 t0 W) v9 }
Menu( E# H% {( O# m0 R8 x
00:00:00.000 : en:Chapter 01$ q% l. J9 O( ~
00:09:59.849 : en:Chapter 020 t- {$ y$ x5 M( D( c0 d
00:19:59.990 : en:Chapter 03
% D! p8 J: y. |+ b00:29:59.714 : en:Chapter 04& ]# B5 X( l% t; ]) w
00:39:59.605 : en:Chapter 05. P4 X4 v! J2 y+ K" N5 H
00:50:00.122 : en:Chapter 06
! h( A' M6 _7 w, F1 E$ Z00:59:59.679 : en:Chapter 07
3 B7 f" w( R4 `5 Q; n01:09:59.904 : en:Chapter 08
* R( P8 L( l- l" A$ A# Z3 Q+ J7 m01:19:59.711 : en:Chapter 09

# j) c& |% Z/ [" G- N( ~
游客,查看本帖隐藏内容请回复 | 加入VIP可免积分免回复 了解详情 | 还不是会员:点击获取邀请码 Invitation Code

本版积分规则

小黑屋|手机版|Archiver|4K蓝光论坛

GMT+8, 2024-4-15 14:32

Copyright © 2001-2021, Gadaddy Cloud.

快速回复 返回顶部 返回列表