BluRayCD Forum

 找回密码
 立即注册【分享大片】
查看: 6|回复: 1
收起左侧

[动作战争] 暗影特工 Section 8 2022 720p BluRaycd x264 DTS-MT 5.31GB

[复制链接]

1万

主题

387

回帖

12万

积分

Post Share

金币
3947 枚
体力
32369 点

卓越贡献勋章VIP蓝光勋章诚信会员勋章

mvods 发表于 2023-4-9 00:35:50 | 显示全部楼层 |阅读模式

% @2 K1 b2 d% F$ u; t/ X
/ Q7 j8 T) a9 w) u& w% P1 C◎译  名 暗影特工5 r: m7 d& L( ^( W' T' D9 x, C
◎片  名 Section Eight / Section 8
: P5 W6 H& Q2 Z, V9 Q◎年  代 20222 g+ h2 L* ^' M! d
◎产  地 美国
$ y7 c, J" M: T, l+ H◎类  别 动作/犯罪/惊悚
: `' W2 f7 r0 m. e) Z1 p) z- W. i7 \◎语  言 英语* F3 t+ c$ R0 W$ \5 c
◎上映日期 2022-09-23(美国)
5 p2 F5 [4 L1 ~7 T9 Q3 Y+ v◎IMDb评分  4.1/10 from 1,112 users
  ~3 M2 T& p+ p8 y6 Q) M. x◎IMDb链接  https://www.imdb.com/title/tt14950412/, x& n5 o  T+ h1 V3 _+ V
◎豆瓣评分 4.5/10 from 561 users
: `" V  N4 b- P- \8 L◎豆瓣链接 https://movie.douban.com/subject/35737733/
$ U, g$ E# \8 v7 x; F8 P( L◎片  长 1 h 37 min; h! U) q" \! A8 [& ?
◎导  演 克里斯蒂安·塞斯玛 Christian Sesma% K: v* D. N* Q& P
◎编  剧 布兰登·伯罗斯 Brandon Burrows& }$ f% u- U3 O' u: o5 ^. h
       查德·洛 Chad Law. y/ _4 D. A9 D; [0 H6 J
       乔什·里奇韦 Josh Ridgway
. l5 I( g* t; d0 }% _3 L4 @◎演  员 斯科特·阿金斯 Scott Adkins4 b8 C% D" y2 G& X
       瑞恩·柯万腾 Ryan Kwanten0 l' s+ d1 o2 ~' T  S) T
       杜夫·龙格尔 Dolph Lundgren9 i1 v* B, Z! v/ W# D( J. B
       米基·洛克 Mickey Rourke
9 G  |+ O% I+ ?4 V7 C8 y. \, C# x       德蒙特·莫罗尼 Dermot Mulroney
8 ], i( j1 ?4 v/ Q- w9 N       罗伯特·拉萨多 Robert LaSardo
4 M/ W  Y; Z' {3 k5 N7 d       保罗·斯隆 Paul Sloan
" F+ U0 D7 A8 x       玛丽·克里斯蒂娜·布朗 Mary Christina Brown* K9 U: Q6 Q/ n+ r& O% O" R" H
       特雷西佩雷斯 Tracy Perez  c  w* A3 x/ W  ^& o
       罗伯特·拉萨多 Robert LaSardo
" |, j, a* P% q  n' P       Kimi Alexander
" g' Y6 ~! a; z% S3 K  I  B
; ~# g/ Q- \  j+ c: S◎简  介   3 z2 ~  i+ T" W3 D$ H2 J

* z6 |2 \" I+ D  一名退役士兵在为遇害的家人复仇后被捕入狱,而在他出狱后得到了秘密政府部门的招募。+ ?4 R' x7 y& ]2 A9 q  \; [) l

" D" `/ P7 K* _" ^: T& O  After avenging the murder of his family, a former soldier is sprung from prison and recruited by a shadowy government agency., _1 C, ?1 r$ ]. e; ]0 ]
Section.8.2022.720p.BluRayCD.x264.DTS-MT 5.31 GB0 e% O7 }* B0 y; O8 Y3 X6 S4 p
8 B" [' L7 ?1 N% t  L! C
Video# I  _7 \- n3 q& k) ?5 w* k2 v4 b) r) g4 X
ID                                       : 1
9 ]+ ?8 l- p1 K8 v5 i: a9 iFormat                                   : AVC9 m3 L9 c+ ~: C/ x6 R
Format/Info                              : Advanced Video Codec
8 N& J! c' ?0 C- g: y( FFormat profile                           : [email protected]( Z8 w# z/ s8 w3 o& Z
Format settings                          : CABAC / 12 Ref Frames4 n) S; r+ l' X7 R
Format settings, CABAC                   : Yes  {! f- ]  Z' [7 y% [: c2 |
Format settings, Reference frames        : 12 frames+ F* L5 d( V: J$ D" o  c& t6 d% r, E
Codec ID                                 : V_MPEG4/ISO/AVC
0 U- a& Q; u; G# e5 V4 m9 kDuration                                 : 1 h 37 min3 T! `6 n* b" D4 G0 w
Bit rate                                 : 6 246 kb/s
+ k6 I; Y, M0 B% X  c3 a" ~) \. |4 gWidth                                    : 1 280 pixels! L' N0 ^/ V0 t4 S- U! b- A$ H
Height                                   : 536 pixels
. ?* o3 f5 B7 R5 ?3 fDisplay aspect ratio                     : 2.40:1: b* H- W4 V$ _: u8 e4 k
Frame rate mode                          : Constant
! Y& Q9 h, E' ]) y9 g- {) h4 gFrame rate                               : 23.976 (24000/1001/189150) FPS9 ]- c, a- E9 t
Color space                              : YUV
& _3 R5 H: n- |9 k8 rChroma subsampling                       : 4:2:0, z2 R6 q5 }. ^' q$ G/ F
Bit depth                                : 8 bits
$ N8 K* R" _' L. Z; ^! dScan type                                : Progressive! E! l& m' ~' ]! m
Bits/(Pixel*Frame)                       : 0.380
. w0 a" ~4 ^4 C6 D% C: @  v! k* k6 PStream size                              : 4.27 GiB (81%)
& c2 E1 ~5 K# W3 s+ vWriting library                          : x264 core 157 r2938 2b00a84 [email protected] Mod
* n" G" N  J, A+ Q% p4 _" y( FEncoding settings                        : cabac=1 / ref=12 / deblock=1:-3:-3 / analyse=0x3:0x133 / me=umh / subme=10 / psy=1 / psy_rd=1.05:0.00 / mixed_ref=1 / me_range=32 / chroma_me=1 / trellis=2 / 8x8dct=1 / cqm=0 / deadzone=21,11 / fast_pskip=0 / chroma_qp_offset=-2 / threads=12 / lookahead_threads=2 / sliced_threads=0 / nr=0 / decimate=0 / interlaced=0 / bluray_compat=0 / constrained_intra=0 / bframes=8 / b_pyramid=2 / b_adapt=2 / b_bias=0 / direct=3 / weightb=1 / open_gop=0 / weightp=2 / keyint=250 / keyint_min=24 / scenecut=40 / intra_refresh=0 / rc_lookahead=250 / rc=crf / mbtree=0 / crf=16.8 / qcomp=0.60 / qpmin=0 / qpmax=69 / qpstep=4 / vbv_maxrate=62500 / vbv_bufsize=78125 / crf_max=0.0 / nal_hrd=none / filler=0 / ip_ratio=1.30 / pb_ratio=1.20 / aq=3:0.809 f8 F! h: O) W+ Q
Language                                 : English9 C# `2 v1 U, F! _! R
Default                                  : Yes- a# [+ U. a0 y
Forced                                   : No
$ v: j* z  D' c  K9 K. h3 CColor range                              : Limited
3 W' I# r" R# eColor primaries                          : BT.7091 w% k3 |4 v5 ?; o1 k
Matrix coefficients                      : BT.709
* {+ p6 I3 K9 l# y* N
3 C( z* i! _, h# hAudio: ~7 Z$ F6 o8 [% [3 ~& u
ID                                       : 2
5 q9 V' k0 @$ G2 r# @/ ~) kFormat                                   : DTS4 C. k, y4 C. |+ h$ @# R
Format/Info                              : Digital Theater Systems
  u6 i" u$ c9 z+ G- d  ~Codec ID                                 : A_DTS
& ?8 ]" l) G2 ^* d. E" M/ ]Duration                                 : 1 h 37 min& p/ _& p7 O! x" Z. s
Bit rate mode                            : Constant
: }0 G. @! G9 \7 Z  w4 M6 [Bit rate                                 : 1 509 kb/s
# J, D: b1 ]+ l0 O5 d% a+ p- DChannel(s)                               : 6 channels
7 K2 k2 q; z3 L1 [# _; [Channel layout                           : C L R Ls Rs LFE
7 c; K; d- _$ D- l6 P' f3 TSampling rate                            : 48.0 kHz
* w& K4 I- u# e1 _  x4 `Frame rate                               : 93.750 FPS (512 SPF)0 j" M4 G4 P% [: Z9 O4 R
Bit depth                                : 24 bits% X( T6 L; H; f2 K( E' h
Compression mode                         : Lossy
$ X0 y' u% G) w% k% \" z: A, }Stream size                              : 1.03 GiB (19%)6 w- L' e1 E  N- f& O. }
Language                                 : English
7 A8 ^. Y$ d0 K  HDefault                                  : Yes
: y* q8 M; D$ WForced                                   : No
4 }; N3 K- K4 s; i! U6 e/ H3 C  L& I  ]9 p  l* y' O. r
Text #14 m+ ^: x, C# D: B
ID                                       : 3
& Q) S! R3 d1 N; P7 ?5 s3 z2 WFormat                                   : UTF-86 I+ V3 v7 d0 t7 X1 _! \; ^
Codec ID                                 : S_TEXT/UTF8
5 `! W; K  D- Y8 k% V3 YCodec ID/Info                            : UTF-8 Plain Text
3 @' T' c, a' B8 K6 [! uDuration                                 : 1 h 34 min) `' l% H8 M' d$ f# @
Bit rate                                 : 50 b/s/ z4 H4 h% y0 n& E+ T& J
Frame rate                               : 0.216 FPS* Q9 b2 k: b3 r, d" v/ t
Count of elements                        : 1218
4 k9 R" G1 B  d2 p( p* uStream size                              : 34.6 KiB (0%)
# j% s) O5 H8 iLanguage                                 : English
5 Y; T* I& `! r) I- ]& }0 BDefault                                  : Yes( d$ b, v/ w8 y9 T+ l
Forced                                   : No! p5 f$ O& X$ U6 k

( _, E8 k3 o9 e; jText #28 q2 y6 s. G& E, g5 l
ID                                       : 4
* {# |5 u1 h7 W; r$ R2 {Format                                   : UTF-8. C  u+ ~+ z: _
Codec ID                                 : S_TEXT/UTF8( p0 q: B, ?6 z, ]7 p! N1 M. j  U
Codec ID/Info                            : UTF-8 Plain Text
! _9 H9 d5 t4 @5 @Duration                                 : 1 h 35 min
' ]/ ~) m# j+ n9 m- y* i% z5 X( i, EBit rate                                 : 52 b/s
! u9 {, L+ `' CFrame rate                               : 0.233 FPS# l0 {8 {) k- J$ R$ ?
Count of elements                        : 13372 T/ s- M. Z9 ~+ |% k* }
Stream size                              : 36.9 KiB (0%); d+ d0 K; q( W0 j7 Z
Title                                    : SDH
6 v0 W- j2 X4 ?( S# OLanguage                                 : English
1 @# c! E* Y* b2 sDefault                                  : No
/ [8 N( Z# A& X0 x) aForced                                   : No# I* }9 O" W- q

0 B/ W  j) h$ J" g0 u( ~Menu  ~- U$ T: x7 w6 D
00:00:00.000                             : en:Chapter 01: K2 ?9 Q" b, z6 ~, h0 o
00:16:02.461                             : en:Chapter 02
3 U8 W# |9 A) i$ l& C: ?00:26:28.128                             : en:Chapter 03  j0 h6 b& a) t( c0 f3 z7 N
00:37:03.388                             : en:Chapter 04
$ m1 x5 C2 x7 K; q' G- D. J, V00:51:06.939                             : en:Chapter 05
- r+ C& F$ f" t  U  \4 f01:01:35.233                             : en:Chapter 06* @0 ?. U8 H$ z8 O8 [+ ?( g
01:13:56.515                             : en:Chapter 07/ w0 q& ^5 y* |9 T1 ~3 E/ \$ f8 D) L
01:31:39.994                             : en:Chapter 08

% U5 ~9 s6 s" B) F3 }+ t. n
游客,查看本帖隐藏内容请回复 | 加入VIP可免积分免回复 了解详情 | 还不是会员:点击获取邀请码 Invitation Code

0

主题

1683

回帖

6827

积分

Sponsor

金币
5 枚
体力
3001 点

VIP蓝光勋章

QQ
jiyugen8180 发表于 2023-4-11 12:00:21 | 显示全部楼层
每天都来蓝光论坛看看,我爱蓝光电影。# n* R2 T+ b3 `% I/ L5 X5 S1 i; R  s
After reading the posts have nothing to do I Amoy posts!# t6 D  v1 x/ d" s$ a' B& l

本版积分规则

小黑屋|手机版|Archiver|4K蓝光论坛

GMT+8, 2024-3-5 04:46

Copyright © 2001-2021, Gadaddy Cloud.

快速回复 返回顶部 返回列表