BluRayCD Forum

 找回密码
 立即注册【分享大片】
查看: 10|回复: 0
收起左侧

[科幻恐怖] 危笑/魅笑/微笑/夺命微笑/笑死 [内封中字] Smile 2022 720p BluRaycd x264-KNiVES 3.49GB

[复制链接]

1万

主题

387

回帖

12万

积分

Post Share

金币
3947 枚
体力
32369 点

卓越贡献勋章VIP蓝光勋章诚信会员勋章

mvods 发表于 2023-4-10 22:59:47 | 显示全部楼层 |阅读模式
; [$ r! o( e7 }
% E8 s0 E6 F4 ~0 w: K! {# f+ c
◎译  名 危笑/魅笑(港)/微笑(台)/夺命微笑/笑死
4 |* V, a4 H. I+ l6 ~; f, Q◎片  名 Smile / Something's Wrong with Rose / Cười: E, Y" d: ^0 ]% J! B
◎年  代 20220 [5 i* h( T# y1 O0 w8 ~
◎产  地 美国
* Q: C$ c, v2 e3 W: y( m# L$ X) N◎类  别 恐怖/悬疑/惊悚, f# E! _4 y2 n. X! a) C$ V& |
◎语  言 英语/西班牙语& u  u* ~6 C; S8 d) q
◎上映日期 2022-09-22(奇幻影展)/2022-09-30(美国)" x& ], k4 m5 R; k% w
◎IMDb评分  6.5/10 from 9,357 users
2 V/ J- X* ~" D% a◎IMDb链接  https://www.imdb.com/title/tt15474916/
- I) n5 c( d. f, t, d9 c9 S( W◎豆瓣评分 6.3/10 from 42,833 users: ~+ v* o* a' y; Q8 O# L
◎豆瓣链接 https://movie.douban.com/subject/35779959/+ b9 h" C/ }- \+ e! W
◎片  长 1 h 55 min; J; ^6 A1 \! d
◎导  演 帕克·芬恩 Parker Finn( Y5 G+ m3 l, q) l- ~# D
◎编  剧 帕克·芬恩 Parker Finn
7 q8 ]$ [4 w; i7 N0 c+ a◎演  员 索茜·贝肯 Sosie Bacon
3 s" o' Z1 D6 Z' n& W. Q* J       凯尔·加尔纳 Kyle Gallner3 z( m( c- p$ T
       凯特琳·斯塔西 Caitlin Stasey4 i3 B% m% [8 R3 K) t3 W: w
       罗宾·薇格特 Robin Weigert
, s$ I# ]1 C7 `! G       杰西·厄舍 Jessie Usher) K% J; R6 Q% J  z3 ]- G# f' d
       卡尔·潘 Kal Penn
' G) s3 R9 s/ d5 E% E. K4 E       朱迪·雷耶斯 Judy Reyes( n! U1 o. C/ `; O7 u3 X
       凯文·凯皮 Kevin Keppy; H4 {9 O- c2 e% [* y
       罗布·摩根 Rob Morgan
; ]' k2 @5 Z/ f: p$ J; l2 }! H       吉莲·珍塞尔 Gillian Zinser
0 u# U- T, e. D8 W3 H/ u4 d       马蒂·马图利斯 Marti Matulis! i0 F+ g" N( J5 l. g) f
       朵拉·济丝 Dora Kiss3 [' E5 x# q2 h3 q: O
       莎拉·卡普纳 Sara Kapner
* |, H7 Z9 w$ Z, g6 d) f       马修·兰姆 Matthew Lamb# F* S9 a8 M8 T1 f* P
       杰里·洛布罗 Jerry Lobrow
( e  d8 U# U4 p3 Y" o# n- L1 a- Z       谢维·古铁雷斯 Shevy Berkovits Gutierrez/ x0 E! j# U; M
       梅兹·阿特伍德 Mezi Atwood
& t. l. U3 J1 W+ a% E       克里斯托波尔·塔皮亚·德维尔 Cristobal Tapia de Veer
  P+ y; @* y$ U+ r$ a, ?6 E
! g; [! _. b5 k, A) s0 Q/ J7 f◎简  介
) e& j; ?2 Y! m% K* g9 J3 D) \5 [/ R2 Z5 j; j
  在目睹一名病人诡异的创伤经验之后,萝丝·卡特医师(索茜·贝肯 饰)开始经历一些她无法解释的恐怖事件。当一股令人不寒而栗的可怕力量开始占据她的生活,萝丝就必须面对她令人不安的阴暗过去,才能够存活并逃离她充满恐惧的全新现实。; M. g% ~2 d' }

- j2 C& y7 ^/ n/ {% ?9 ?6 i. T  After witnessing a bizarre, traumatic incident involving a patient, a psychiatrist becomes increasingly convinced she is being threatened by an uncanny entity.4 E+ O2 @+ W+ c8 d9 K+ q) Q* a
Video
4 E8 p, k( {: Y: A5 h2 b  \ID                                       : 1
  n2 f5 Y0 v6 J6 K0 eFormat                                   : AVC
& O) X4 V; p: E, Y- i( jFormat/Info                              : Advanced Video Codec
6 q7 w+ X( H9 v" o" {3 oFormat profile                           : [email protected]9 E5 K( Y& ?6 r0 e
Format settings                          : CABAC / 8 Ref Frames
; O/ Z" s1 l3 ^0 {Format settings, CABAC                   : Yes3 O1 Y% i9 X, C
Format settings, Reference frames        : 8 frames# @& w+ a! _4 j4 O0 @+ @, |8 P: s
Codec ID                                 : V_MPEG4/ISO/AVC( p5 r/ \3 T7 |0 l0 _
Duration                                 : 1 h 55 min+ J2 o9 A4 D- t5 k/ P) J' \
Bit rate                                 : 3 231 kb/s
6 _$ K  R9 y9 r0 i; P7 z: T  DWidth                                    : 1 280 pixels3 w1 c$ \  u; ]& }$ J
Height                                   : 640 pixels
4 ~! L! B6 p2 N0 MDisplay aspect ratio                     : 2.000
. d0 s9 V. W* `0 x2 NFrame rate mode                          : Constant
+ X2 n8 P+ H+ v. s2 g$ k1 M* ?1 T, Z' xFrame rate                               : 23.976 (24000/1001/189150) FPS, d- R) m) {1 q
Color space                              : YUV. q- W% I" Q! b4 b6 U
Chroma subsampling                       : 4:2:01 e% A) Q' `4 z0 Z2 Y; \
Bit depth                                : 8 bits
, L( `, b% x/ U2 P( i; [Scan type                                : Progressive4 p* z* |* W* t9 t) q7 U
Bits/(Pixel*Frame)                       : 0.165
& R  e% T' W" l  ]Stream size                              : 2.61 GiB (75%)! Q( i8 ^* H2 g4 y$ [8 T8 s  i
Writing library                          : x264 core 164 r3101 b093bbe* y7 e$ b- F' r9 `7 a
Encoding settings                        : cabac=1 / ref=8 / deblock=1:-3:-3 / analyse=0x3:0x133 / me=umh / subme=9 / psy=1 / psy_rd=1.00:0.00 / mixed_ref=1 / me_range=16 / chroma_me=1 / trellis=2 / 8x8dct=1 / cqm=0 / deadzone=21,11 / fast_pskip=0 / chroma_qp_offset=-2 / threads=20 / lookahead_threads=1 / sliced_threads=0 / nr=0 / decimate=1 / interlaced=0 / bluray_compat=0 / constrained_intra=0 / bframes=3 / b_pyramid=2 / b_adapt=2 / b_bias=0 / direct=3 / weightb=1 / open_gop=0 / weightp=2 / keyint=250 / keyint_min=23 / scenecut=40 / intra_refresh=0 / rc_lookahead=60 / rc=crf / mbtree=1 / crf=16.0 / qcomp=0.60 / qpmin=0 / qpmax=69 / qpstep=4 / ip_ratio=1.40 / aq=1:1.00( C" W9 G: q2 \9 _! l0 n1 `3 A2 z. m! _
Language                                 : English
+ W0 C8 q* \& @& @! LDefault                                  : Yes
" S6 R( w% Y( c1 a8 H! ?Forced                                   : No
( S7 P  \: C" u8 u
9 R; `6 b* W6 P1 }- i- x! C$ A, mAudio #1* g  r# C7 W% [1 {) |' h
ID                                       : 2
: M6 P0 X1 c" o* D+ }& W" w  WID in the original source medium         : 4352 (0x1100)
2 ?! x% [5 v- xFormat                                   : AC-3
& B9 j/ H; e$ d; {, m9 nFormat/Info                              : Audio Coding 35 J5 _8 Q, V- g( Q
Commercial name                          : Dolby Digital# @6 g, I% B% }6 f2 D
Format settings                          : Dolby Surround EX
1 O$ `  B( [7 y8 U9 K* PCodec ID                                 : A_AC3! v  A( E! q+ ?7 A, K
Duration                                 : 1 h 55 min: J% m+ s7 I. B; V. F) ~6 U
Bit rate mode                            : Constant
) \$ t" O: f8 v1 l8 F# O  GBit rate                                 : 640 kb/s! D4 L; M- p7 z6 d7 B
Channel(s)                               : 6 channels
5 _: z+ W5 o: RChannel layout                           : L R C LFE Ls Rs& V! u9 U3 [4 V( s5 A0 F: ?
Sampling rate                            : 48.0 kHz1 }7 m# J! N% ^; r, {7 ?6 f) p$ \. l
Frame rate                               : 31.250 FPS (1536 SPF)& X7 X) P: g8 Z0 t: p. n
Compression mode                         : Lossy0 f: z9 x6 E( n
Stream size                              : 529 MiB (15%)
# j$ S7 g& ^% Q4 |$ P" YLanguage                                 : English
! k! F, }! h1 g9 _- C4 cService kind                             : Complete Main
, M9 ^, G$ E( Q+ W8 o6 k, _- fDefault                                  : Yes( u  _! ]" _3 C6 L
Forced                                   : No
  \9 X, ^% w9 H0 e! BOriginal source medium                   : Blu-ray
( j8 ?% J, C# v1 I4 x$ c) T4 y0 V: ~
- @6 w$ j5 u' u( F- R. @Audio #2
/ u! A0 q0 U( \) _& }* kID                                       : 35 Y7 z9 q; I  o  p
Format                                   : AAC LC
& H$ j; B7 N& {5 B4 cFormat/Info                              : Advanced Audio Codec Low Complexity( [' l, ^6 L: e
Codec ID                                 : A_AAC-28 S4 B1 D( [/ ]. {
Duration                                 : 1 h 55 min
. F( r/ z% I$ W1 d" dBit rate                                 : 102 kb/s) t  s0 ]4 f* W8 \+ J: o8 Y
Channel(s)                               : 2 channels
) L, W7 M' Y& ?" Z/ I* |  zChannel layout                           : L R1 n4 `$ q* \* _+ O
Sampling rate                            : 48.0 kHz
0 O" L4 T& q7 w8 KFrame rate                               : 46.875 FPS (1024 SPF)% Q; X4 D) n  y) O& ]
Compression mode                         : Lossy
9 S  W) T9 u' }* {% p0 C# nDelay relative to video                  : 9 ms; _0 v3 H0 _" Z
Stream size                              : 84.1 MiB (2%)/ W0 B( V4 ], ]: [. K( L# e
Title                                    : commentary4 p. {0 L8 g& C# M4 ~0 C  ?
Language                                 : English
" K# i9 j# W' [1 o0 u) H: k2 dDefault                                  : No
5 |- E  D6 h. l# s+ f5 G3 R0 PForced                                   : No
/ b/ U4 X" S: v& h
1 q$ }: n( |+ \# l9 w; NText #1+ x6 U; ]6 y- r2 J9 e, \& S7 _: M
ID                                       : 41 |& T: q% z2 n& V6 U2 A
ID in the original source medium         : 4608 (0x1200)
, T4 t) O% Q3 a* A0 W% V& vFormat                                   : PGS
& x; P7 q* L. t! [7 fMuxing mode                              : zlib* c7 G6 l* l% j' c
Codec ID                                 : S_HDMV/PGS1 R( w: L! I, |
Codec ID/Info                            : Picture based subtitle format used on BDs/HD-DVDs  X, Q7 a) x2 C6 i& Q1 L1 D7 p
Duration                                 : 1 h 47 min
- _* d8 R3 z6 r4 t8 [. D6 tBit rate                                 : 28.8 kb/s6 ?6 P6 I. \' q2 x  Y3 }9 z% H
Count of elements                        : 21126 p4 y. n( r1 F/ s1 r2 k# T( @
Stream size                              : 22.2 MiB (1%)
. F+ G4 Q8 {  V8 cLanguage                                 : English* Y& e$ f9 n4 R" I. Q5 e& {
Default                                  : No
- g$ f. n# @  C$ ]1 rForced                                   : No9 [, b/ R0 N+ F/ J
Original source medium                   : Blu-ray+ N3 }! P0 W) k$ v

( V! D! ]% [& @Text #2/ K* `. Z1 d2 d/ L) V
ID                                       : 5
- }, X# E' ^* T+ U" o4 tID in the original source medium         : 4609 (0x1201)
1 B7 f! L9 i/ M+ OFormat                                   : PGS
7 w) j4 l+ T$ A$ d- O6 \Muxing mode                              : zlib
  B6 e4 ?- _1 r) i; BCodec ID                                 : S_HDMV/PGS
* I9 y: Q  h5 S3 [Codec ID/Info                            : Picture based subtitle format used on BDs/HD-DVDs4 ~! U3 b" X. X  [8 L
Duration                                 : 1 h 49 min7 x! q8 g- O7 N% h
Bit rate                                 : 32.9 kb/s
* U) r: p- r$ l7 ZCount of elements                        : 2684
) i  \# h1 |) x# \Stream size                              : 25.8 MiB (1%)
, S% A& ^8 G4 {& P, \1 rLanguage                                 : English
) b- O& Z9 g: xDefault                                  : No( M( a* ]9 \* x8 Y; B
Forced                                   : No
7 o( `$ @6 X0 OOriginal source medium                   : Blu-ray$ o% h! D: t0 J: G" \* o6 ^) t$ c0 S  d
* m  y4 a8 W. P: b0 i/ F
Text #3/ v8 d8 R# Q) f6 ?, U
ID                                       : 6
$ H8 A3 K. K8 x- IID in the original source medium         : 4610 (0x1202)
2 G/ E9 M, \" T9 W1 g) iFormat                                   : PGS
- ^$ ]* y* l# m9 y- O3 GMuxing mode                              : zlib! b$ z6 [' d: `5 x
Codec ID                                 : S_HDMV/PGS
% ?9 N0 L) w# x4 f6 f' ZCodec ID/Info                            : Picture based subtitle format used on BDs/HD-DVDs
" d, c% G# j' V) V* }0 s& }Duration                                 : 1 h 53 min
! R, r4 F5 r8 I4 c) l/ PBit rate                                 : 23.4 kb/s! }3 j) P# P+ J6 I( }
Count of elements                        : 19161 Q. h. ~6 r$ b) K* a
Stream size                              : 19.0 MiB (1%)
1 ]( `3 f( @/ v  A# n6 wLanguage                                 : Danish/ {1 ^/ y$ h! M2 Q7 p/ M
Default                                  : No# `) T& ~! p  o: u) Q. {
Forced                                   : No
' ]0 h" ~5 {) _* @" ^  ]  @; I) ]5 BOriginal source medium                   : Blu-ray9 w3 k$ N* t# p/ V& L  G' X

2 L+ r+ w! `; O8 O' S- m( kText #4, p/ k; O5 H; a/ S
ID                                       : 7& p0 E+ h, h. g: U% k9 W
ID in the original source medium         : 4611 (0x1203)8 W# v' P% e' T  O) }; O
Format                                   : PGS% B3 E( r7 B  n1 i; e! M
Muxing mode                              : zlib% e# {  ~5 n$ A/ i& u( Z+ y8 Z0 G1 M
Codec ID                                 : S_HDMV/PGS# ?9 c/ j9 n3 n
Codec ID/Info                            : Picture based subtitle format used on BDs/HD-DVDs/ \5 n  w; a+ G/ j  h# L8 N
Duration                                 : 1 h 53 min* c. Y# O5 v5 N$ y. N
Bit rate                                 : 26.4 kb/s2 N* T+ ?% J) C8 n1 k1 N/ K
Count of elements                        : 21406 }4 t+ ~6 G( b# S4 ^
Stream size                              : 21.4 MiB (1%)4 c1 O8 P+ D; \- J' a+ @% H* }
Language                                 : German  E* J4 h& k3 W; ]% ~' N
Default                                  : No
6 i% N, s* [( JForced                                   : No  m3 x) |! z& d' R
Original source medium                   : Blu-ray
8 S* p7 g$ X) }2 a9 o2 @
" \8 \* p: y+ W$ E$ u' @Text #5
( x: {8 r" K  y. z) z% {; yID                                       : 8
/ \( R  H' {9 K5 nID in the original source medium         : 4612 (0x1204)2 y. e& ~* I' S4 X$ Y
Format                                   : PGS" j+ h& s- ~: F3 l, F; l
Muxing mode                              : zlib8 Q( i3 F$ U4 u$ Y% s, h, D  J3 J
Codec ID                                 : S_HDMV/PGS
! u4 G. y, s. x; a' W* y8 ECodec ID/Info                            : Picture based subtitle format used on BDs/HD-DVDs
! ^1 _7 j( m- s6 E/ mDuration                                 : 1 h 53 min3 q) S* v7 }- _! D2 F- c+ q: @
Bit rate                                 : 24.6 kb/s
/ N$ q0 \, K. A( o' JCount of elements                        : 2066
- W% w( z% L" z$ P( dStream size                              : 19.9 MiB (1%)
6 c: G; F0 q) S7 V  ~$ sLanguage                                 : Spanish
- v* u, K5 `; W& \  Y. gDefault                                  : No1 ?. O. `4 `3 B  C0 w/ ~, Z; E9 x
Forced                                   : No( {1 r% |$ a& Z; g& i) u+ k2 {) |2 I
Original source medium                   : Blu-ray# h9 a: _' P# I) I+ t: ?
! @6 y% {& a# i4 @4 l9 n3 m9 \; q
Text #6( j1 [6 L" k% C' R
ID                                       : 9
9 E6 u: m/ m5 t6 m. ~ID in the original source medium         : 4613 (0x1205)! D9 U2 }/ j; j7 `" c& I
Format                                   : PGS
  W/ O/ C# k- c! v0 HMuxing mode                              : zlib% H# @( _9 g5 }0 F! x4 l$ W
Codec ID                                 : S_HDMV/PGS) |: c' q9 F: F9 {3 X9 |4 c5 f
Codec ID/Info                            : Picture based subtitle format used on BDs/HD-DVDs" r# V; F. y- n0 F8 W! u; G+ J9 n# s
Duration                                 : 1 h 53 min
5 [3 h. Q* }2 H* a" fBit rate                                 : 21.4 kb/s. M# B- N! x; U7 _% ?+ O9 F8 H( y
Count of elements                        : 1812; U1 U0 A3 l4 b4 k. F
Stream size                              : 17.4 MiB (0%)
9 ?% ^$ Q3 s) x& o8 K  n  k( fLanguage                                 : French; }. v8 u; ~& D9 H
Default                                  : No2 R5 J9 ~( a( d0 k/ \
Forced                                   : No3 Z3 p% C( u# L: Z# h
Original source medium                   : Blu-ray7 A' W4 O+ H$ V7 ]
, O$ _- S2 i9 [$ l6 A5 o. N/ L* d1 t
Text #7* ~, E. T* ?; X4 J
ID                                       : 104 t0 @' x, _5 H$ ~9 _
ID in the original source medium         : 4614 (0x1206)$ n: B" A5 D' ?& Z2 Y: F
Format                                   : PGS. _1 I* X$ b$ m5 h; W$ _3 C" B
Muxing mode                              : zlib9 ?7 I& g, S0 Y5 W5 U+ i
Codec ID                                 : S_HDMV/PGS
! P( v; |4 O( p) x: wCodec ID/Info                            : Picture based subtitle format used on BDs/HD-DVDs# ^+ b) r* h, Z; b
Duration                                 : 1 h 53 min! b: z  E9 k% L! m' ~% b& v" o
Bit rate                                 : 25.8 kb/s
5 ^, a; h" ^0 L2 s3 M7 nCount of elements                        : 2144" p! o) A6 T. W8 M. @9 a* S
Stream size                              : 20.9 MiB (1%)2 ^+ I0 X4 s, L  k5 e$ U& r
Language                                 : French
* U& P, \! ?0 z3 v  V1 eDefault                                  : No
& J% _9 n. \0 KForced                                   : No
% X0 C. O. ?! p' _: b1 k! Y( N. }Original source medium                   : Blu-ray
7 J# t; a# ^; e2 z& n% Y1 X8 g+ G
7 K1 H0 ?/ h% U+ ?/ P5 b& WText #8/ @. V4 \4 a; R) `
ID                                       : 11
# P9 N. E0 e- w% c* e4 ~ID in the original source medium         : 4615 (0x1207)# {& @# c3 {- I& N+ _/ R
Format                                   : PGS
# Z1 g7 J( a7 y( [4 O; }# mMuxing mode                              : zlib4 ]5 n" f# l5 K3 h$ I1 J' F
Codec ID                                 : S_HDMV/PGS) h) {5 P; p' q: B. W, B; B
Codec ID/Info                            : Picture based subtitle format used on BDs/HD-DVDs
  E3 t% Y6 z: x6 EDuration                                 : 1 h 53 min
( f' P$ U  ^0 q( b; Y% X- e8 kBit rate                                 : 22.2 kb/s' u: c# ]) T! J1 [9 h  I9 o- ^
Count of elements                        : 1934/ p$ ^2 \2 R* B! }7 {* m! Z2 D6 g
Stream size                              : 18.0 MiB (1%)" P$ v$ n# N: _
Language                                 : Italian2 H9 _: o+ Q$ c, m! V' h$ Q
Default                                  : No
, K( t$ ?8 c- {% p4 {7 U2 r, aForced                                   : No  g2 b+ Q6 U% J6 l" T% A1 Z$ d
Original source medium                   : Blu-ray/ @# y3 S2 s' V* y  F
7 z/ f8 g0 `" [
Text #9, V2 o, W1 A7 k! S  f7 K
ID                                       : 124 @5 W8 E) l+ m5 F( m
ID in the original source medium         : 4616 (0x1208)0 v) d" R" ^) h& Q8 d! J
Format                                   : PGS
5 g$ G! v% \' o% T2 lMuxing mode                              : zlib
$ i: k- z! P; R  cCodec ID                                 : S_HDMV/PGS2 d) L! ?; X  ~3 \+ v
Codec ID/Info                            : Picture based subtitle format used on BDs/HD-DVDs& i5 G' j7 }4 r9 _
Duration                                 : 1 h 47 min
$ s1 l' o* I+ j, c( UBit rate                                 : 19.2 kb/s8 P; p# j; W$ j' {9 z! u2 @
Count of elements                        : 2086) a, ]! z- h. g% o2 V* L, q
Stream size                              : 14.8 MiB (0%)# F" l# {; Q1 t1 R
Language                                 : Japanese
1 p, d; W1 k& d* I+ g) BDefault                                  : No+ ?( L3 \9 P7 F; G$ B/ m( E
Forced                                   : No
, k8 g. b+ ^8 \* JOriginal source medium                   : Blu-ray
" z( f8 f$ P$ H3 c
+ F5 j% d- O! R$ S. SText #10
. j! _+ I9 _0 Y5 U& _ID                                       : 13
8 e: ?2 Y. `4 }- wID in the original source medium         : 4617 (0x1209)
+ l6 ]) K7 P* E. ]Format                                   : PGS) c3 D+ V/ n7 R
Muxing mode                              : zlib4 V: h' e0 E3 [, ^6 N8 F: J
Codec ID                                 : S_HDMV/PGS
8 p/ t, k9 R" u) k9 m0 M, R+ ICodec ID/Info                            : Picture based subtitle format used on BDs/HD-DVDs* y+ d- S5 t+ t# j7 n% \  V1 {
Duration                                 : 1 h 53 min" n9 Q5 p: \( s4 h' u
Bit rate                                 : 21.0 kb/s8 u+ I% V1 w/ j$ i; w% l* {
Count of elements                        : 2158) b" P  N: Q" m; }4 N& m
Stream size                              : 17.1 MiB (0%)9 N+ m& A* e% F* x7 s) }
Language                                 : Chinese: E" e  |& q8 @5 r
Default                                  : No+ b4 ~0 d( Y2 {; u
Forced                                   : No9 |* L6 F( s" y: n
Original source medium                   : Blu-ray# e; r$ I% h7 O5 p# P

, H8 d' t8 e: y9 _; f) [3 nText #11' Z4 k0 S  P! n3 p6 w- a! z
ID                                       : 14* @1 k- @1 ^4 m
ID in the original source medium         : 4618 (0x120A)
/ {2 z0 t  _( UFormat                                   : PGS: ~5 k8 d8 s% d
Muxing mode                              : zlib
/ [9 D1 U0 Z( ~1 `# |& F/ J+ T0 QCodec ID                                 : S_HDMV/PGS4 v8 Z1 x) N4 X
Codec ID/Info                            : Picture based subtitle format used on BDs/HD-DVDs9 ~) Y3 x# t% A; E' E( D
Duration                                 : 1 h 53 min
, d5 c2 L) g' A; ]' kBit rate                                 : 21.6 kb/s
9 j! X. E% z: _9 o9 {7 ^Count of elements                        : 18589 _: }8 Z" T9 I: r7 x9 P; r5 D, e
Stream size                              : 17.6 MiB (0%)
& P- ?1 P1 [2 lLanguage                                 : Dutch
3 G, s4 N, _% s. L$ GDefault                                  : No+ f( r6 E& `( C  e5 ?& E- J% o6 T
Forced                                   : No
4 q5 K$ f. R7 jOriginal source medium                   : Blu-ray
" {% X  ~  M+ z2 ]: m$ f
; V* e' O) E( i5 v! w  K9 }Text #12; j/ u/ J4 \; s, E& y
ID                                       : 15
, o6 l6 O8 ^8 xID in the original source medium         : 4619 (0x120B)' S6 B. m) h" y+ b6 e& _- L6 @2 C
Format                                   : PGS3 z3 k' `# r& |4 V: n, K  J3 _
Muxing mode                              : zlib3 z8 ~! o( I) `" M* M
Codec ID                                 : S_HDMV/PGS* p& `  u$ _/ ?8 D
Codec ID/Info                            : Picture based subtitle format used on BDs/HD-DVDs/ J2 f, H' |1 Y1 ~) o
Duration                                 : 1 h 53 min
! f# S. F% F8 d+ {4 {Bit rate                                 : 23.3 kb/s
" A3 D# [% p4 o% fCount of elements                        : 2082% l# [5 k9 F6 O
Stream size                              : 18.9 MiB (1%)
0 ?) J. l% u5 q4 N, |3 N/ gLanguage                                 : Norwegian2 V! ~  o) m: L! j. |
Default                                  : No
4 C0 Z1 h' X4 f, v  t5 nForced                                   : No
5 C8 Z4 f! b8 P) M- Y* e1 w; xOriginal source medium                   : Blu-ray, x( G6 s% [/ ?) W

4 A/ y6 M* a- Z( DText #13
* Y8 |. G) e- y5 l. w0 U" J. `ID                                       : 16
9 p- r+ c: H# A& n7 _5 ?+ zID in the original source medium         : 4620 (0x120C)
9 k1 m0 l  i' @/ X. AFormat                                   : PGS
1 S8 L9 o; K) Z' G4 GMuxing mode                              : zlib
( V% ~7 e- I4 [Codec ID                                 : S_HDMV/PGS4 h" k* Y. d6 ~, U
Codec ID/Info                            : Picture based subtitle format used on BDs/HD-DVDs
; ?( _* |+ J! L2 \7 o) _Duration                                 : 1 h 53 min8 F7 Q( F3 S3 N& B% B  B& t  v
Bit rate                                 : 24.3 kb/s
- h7 a* Q) T% \, f- g5 SCount of elements                        : 2144
; w$ S" F7 n, ^3 qStream size                              : 19.7 MiB (1%)
$ t. G) n; o9 qLanguage                                 : Finnish5 [! x* b1 H4 V; d. O
Default                                  : No2 ?* t1 M0 b7 {- \5 ]" E
Forced                                   : No
" j) W/ B! K. U5 Q1 j6 uOriginal source medium                   : Blu-ray
7 E0 C' g6 @4 a2 h6 r6 ^
& e- F2 M* w' u5 [Text #14
. @4 v$ a2 b% A' k2 a8 C% v' \2 GID                                       : 17
9 e8 z: Z2 b8 i' [ID in the original source medium         : 4621 (0x120D)- q# U6 K& t9 B) L
Format                                   : PGS- S; @4 i" r- p/ O4 O
Muxing mode                              : zlib
& I# e/ p/ s( [" i/ T: M' }Codec ID                                 : S_HDMV/PGS
9 L; J' Y  P- W( V% d& E! x. nCodec ID/Info                            : Picture based subtitle format used on BDs/HD-DVDs8 {* A% T3 Y. z4 q' j8 j
Duration                                 : 1 h 53 min7 L3 z" H/ O5 _! p
Bit rate                                 : 23.0 kb/s3 I$ `9 W0 H9 E& @2 g
Count of elements                        : 1754
# f( g8 R/ A* w6 e4 VStream size                              : 18.6 MiB (1%)& N+ N/ |: ^2 \( p) u% I; Q5 U
Language                                 : Swedish4 {/ X" y6 V$ d& C
Default                                  : No
0 }# i* z" p! OForced                                   : No( F: h7 I. j2 j! ^5 Q) w
Original source medium                   : Blu-ray
+ a6 {- i* [9 A; u, a# x' ^4 m5 F# R8 }+ {
Text #15
/ M2 o5 `# D  y" M+ WID                                       : 18
3 g0 I+ n( t% h# z. ~: TID in the original source medium         : 4622 (0x120E)# [; ^) ?, j* u
Format                                   : PGS
5 ^# Q  h6 \; h! [  IMuxing mode                              : zlib
! C: d" E8 M9 O$ m4 A# }( tCodec ID                                 : S_HDMV/PGS
7 h! q" B3 Y  |1 OCodec ID/Info                            : Picture based subtitle format used on BDs/HD-DVDs6 K1 O6 s$ D8 a% c! C" x
Duration                                 : 1 h 53 min
3 [9 ^4 k& B8 X9 B, E/ ^Bit rate                                 : 27.5 kb/s
6 k  [  i; P% a; `2 w  `! dCount of elements                        : 21386 |4 {8 p# [* `' b5 \, \
Stream size                              : 22.3 MiB (1%)  I, j& v+ _& [* P+ Y
Language                                 : Turkish
/ R- v7 y6 G9 V+ G# n8 O* ~' ]& M1 f/ \Default                                  : No
% S1 w$ c5 q  g& H3 HForced                                   : No) J: `2 v# i6 M4 H
Original source medium                   : Blu-ray* w$ O; q$ Y0 I) ~6 I# ~2 I8 b; S4 G
! F, J, ?5 W/ x8 j3 Y
Text #16
& H( s  ~  v/ p! _* Z  i' }- M; QID                                       : 19
4 }8 J& [' h) b6 V& n) JID in the original source medium         : 4623 (0x120F)# c# \% {) ]* b: e0 \, y
Format                                   : PGS
# w, N0 U- Z' [3 LMuxing mode                              : zlib
: S/ J2 N2 H& N1 m6 u4 kCodec ID                                 : S_HDMV/PGS
& N; q/ n) q" l3 @. q% Q1 N1 U5 iCodec ID/Info                            : Picture based subtitle format used on BDs/HD-DVDs% T( F$ a3 f! c- `
Duration                                 : 1 h 50 min4 y8 D+ v0 f2 J
Bit rate                                 : 56.5 kb/s
5 w  V2 w$ N9 H% ?Count of elements                        : 2659
1 b& Z8 r+ H) j5 N0 `. OStream size                              : 44.7 MiB (1%)4 S7 h8 j( `3 A
Language                                 : English% o# C6 ]! ~5 V' G8 @
Default                                  : No1 S) k( ?5 M# ?) X
Forced                                   : No  Q3 W# V' M9 K/ Y
Original source medium                   : Blu-ray1 i6 d2 m0 @+ L0 ~( O7 U8 S( F

/ a2 ?. ?) I; \) o/ Q* vText #17, g* q! Z) _, |7 a" u3 h0 f' D
ID                                       : 205 Y9 \5 ~( N& D& V
ID in the original source medium         : 4624 (0x1210)$ |; g' w5 @- J# W4 j( \
Format                                   : PGS: H+ W: C# N, T+ g
Muxing mode                              : zlib
% t1 e( D* _" C- _) f; n; uCodec ID                                 : S_HDMV/PGS% d" H  ]3 C8 o7 P8 n. H; Y/ ?
Codec ID/Info                            : Picture based subtitle format used on BDs/HD-DVDs3 M! W8 p- M- Z1 w* c6 _
Duration                                 : 1 h 55 min
) ?, P' p) s  I1 hBit rate                                 : 50.7 kb/s1 y( }' Y0 o! O( p0 |3 i
Count of elements                        : 2551
- J" u4 N+ W. c$ Y/ vStream size                              : 41.9 MiB (1%). {! x( D" {1 I+ j
Language                                 : German
' X% a1 ^& _! q4 V0 wDefault                                  : No
; L: f! w# G% S+ ]( P) b( PForced                                   : No
' p1 T* l0 D  @$ l* _( M) ]. M, YOriginal source medium                   : Blu-ray
+ f0 H+ X" `7 i# h  |9 v1 z; O, ?7 U, N
Text #18
- g6 P) U/ V! ?" T6 Y# zID                                       : 21! Q% b" t) _7 m; s2 F0 _* ]* V
ID in the original source medium         : 4625 (0x1211)
0 U. l. F7 l- m/ w+ PFormat                                   : PGS
; L* _7 y( O! v, g! CMuxing mode                              : zlib
0 G4 m. r2 ^2 i# ~% ], WCodec ID                                 : S_HDMV/PGS% q5 d4 v% {" f* A3 W2 \9 M' O( y9 ^
Codec ID/Info                            : Picture based subtitle format used on BDs/HD-DVDs
, L, k) u8 W+ @+ j1 K& dDuration                                 : 1 h 55 min1 C9 o- r$ V+ K# T" [2 B8 k4 [- g) \
Bit rate                                 : 46.8 kb/s2 }0 p" y) L" Y* m1 b, j
Count of elements                        : 25172 @1 ^3 _" Q* l# O. j5 e: \
Stream size                              : 38.7 MiB (1%)8 H1 w$ B6 k8 @1 I8 a& F. c
Language                                 : Spanish
  e, B" J& E8 z9 m8 l. @# {" j/ |Default                                  : No$ [( a3 q+ @5 ]8 ~$ Z
Forced                                   : No
# p3 [3 l$ g5 v2 wOriginal source medium                   : Blu-ray
6 g) P: I" {* k$ m# f, z
: w, g% b% }. q7 d3 |Text #19
# Z( W0 U6 Y% E' v. M6 IID                                       : 22
- v0 o- ?9 l  b9 j  ZID in the original source medium         : 4626 (0x1212)6 d& Y; ^. Z# `- R
Format                                   : PGS! o6 h7 G$ G- G
Muxing mode                              : zlib
0 h& b/ J1 W. R/ G. bCodec ID                                 : S_HDMV/PGS
5 V4 G) O% l* ICodec ID/Info                            : Picture based subtitle format used on BDs/HD-DVDs% r; _4 A- u2 U' t: y/ x6 Q! z
Duration                                 : 1 h 55 min$ U, \! Y- ]$ H
Bit rate                                 : 48.5 kb/s! ~5 X# V3 ~( o* l
Count of elements                        : 26613 u5 e7 a2 w9 b+ R
Stream size                              : 40.1 MiB (1%)$ k1 b8 m7 y: t. S! q% W
Language                                 : French
) S7 z7 X) g5 RDefault                                  : No# H% ?- x0 g& U2 Z; P& W% }
Forced                                   : No$ b8 t0 z  {1 T# t" G. S3 Y( |
Original source medium                   : Blu-ray: [  i" ^$ n+ o2 v! ]/ v1 X: A$ o! }

2 Y/ N6 P# @* i, y. HText #20
. v* J7 c+ t$ @# ~ID                                       : 23
/ C+ v6 y0 V1 I8 Y8 eID in the original source medium         : 4627 (0x1213)  G9 X' t7 [" x, D7 U
Format                                   : PGS
# X8 w% N4 c2 i' T: Z) m3 R7 hMuxing mode                              : zlib  [5 F  M  y/ v  O- D
Codec ID                                 : S_HDMV/PGS
" [  \! @/ d* v7 i7 ICodec ID/Info                            : Picture based subtitle format used on BDs/HD-DVDs
/ t3 I8 W' G) e# P6 f  \Duration                                 : 1 h 55 min
) U- M9 Z2 V$ P! q" S+ EBit rate                                 : 48.8 kb/s
4 q4 i8 [2 y* ~+ u- P/ mCount of elements                        : 26610 `) c; _* s8 X: a) ]/ f9 ^0 L. \$ z. I
Stream size                              : 40.3 MiB (1%)
8 a* s( D% d; w, P7 {* q8 f0 B- n8 C7 hLanguage                                 : French
/ p) ?7 A6 G! ?, i: cDefault                                  : No1 f8 ?1 `8 n. r* {; }7 |' O3 d7 f
Forced                                   : No/ B4 {! a: \( k7 T6 D( \
Original source medium                   : Blu-ray+ ~/ w7 z1 y4 Q& v, `/ y* w

  i" T7 v& T+ M; e5 y- @# BText #21
; g" i& w6 r3 t: ^ID                                       : 24
/ @! [5 E0 R: OID in the original source medium         : 4628 (0x1214)( t# k; ~% ~5 X
Format                                   : PGS
; W8 ]' Z& l: {1 e& l$ KMuxing mode                              : zlib2 g7 b; T% l- F$ S- D* j
Codec ID                                 : S_HDMV/PGS  ]1 i' Y% o+ J% J( \8 W0 {
Codec ID/Info                            : Picture based subtitle format used on BDs/HD-DVDs
; k% x5 p) k$ @7 A% LDuration                                 : 1 h 55 min: _8 N& }( B4 L7 ]
Bit rate                                 : 44.3 kb/s! r( _# C  A; }' |# Y
Count of elements                        : 2660! ^! P$ T! ^  c9 h$ V2 F/ D4 L
Stream size                              : 36.6 MiB (1%)( J$ d' j- u+ O
Language                                 : Italian
$ o- z- r& ~& I. R) ]5 x% ~9 ]Default                                  : No
% y: J! T9 k/ b$ \: r5 DForced                                   : No2 y9 f2 B/ O( x( g3 K6 v
Original source medium                   : Blu-ray8 @4 O9 _- }0 G* z" M$ d* O

6 [8 U0 Y; F# z( B8 D; P3 c( LText #22% }' K9 }/ E# ?
ID                                       : 25$ n7 M4 Z5 h# n% v1 }8 Z9 l3 g
ID in the original source medium         : 4629 (0x1215)% ?* M5 p; S) x% P7 |! k2 n. S
Format                                   : PGS
; G$ T' }" a0 \4 S! vMuxing mode                              : zlib. }5 r$ @1 G* X6 b* ^9 v
Codec ID                                 : S_HDMV/PGS! V2 T3 [" }& p7 ^  |
Codec ID/Info                            : Picture based subtitle format used on BDs/HD-DVDs0 Y2 \- I0 G0 T( g( z* k. \$ Y
Duration                                 : 1 h 50 min' o! h9 {( X/ Q, ^* p9 H0 @. C
Bit rate                                 : 37.2 kb/s, Q; I. q! D! S; H
Count of elements                        : 2341
: s/ O0 J5 e1 h, V6 I% g/ n+ eStream size                              : 29.5 MiB (1%)7 J! y0 W5 L' f: \! v6 x$ O) Z
Language                                 : Japanese! y  _. ?& `9 [0 Y6 t3 r+ s
Default                                  : No
2 n% B1 j9 `9 BForced                                   : No
: G: ]9 l2 {5 i" g0 T& M" mOriginal source medium                   : Blu-ray
: g. o5 Q3 d( D! R9 ^
: v% v$ H5 p" c1 w, Q# TText #23
6 ^& R/ H7 o2 F7 [1 Q$ EID                                       : 266 y( f5 w) ]- {, }; b8 ?) Y9 A- n( x, Z
ID in the original source medium         : 4630 (0x1216)
3 p& A% c3 V$ M% n; HFormat                                   : PGS$ E1 G: h6 B% G
Muxing mode                              : zlib
7 u- k$ L" T" kCodec ID                                 : S_HDMV/PGS
5 `6 d3 }& @' g( n8 [Codec ID/Info                            : Picture based subtitle format used on BDs/HD-DVDs
6 V* ]% ^4 l7 K$ {Duration                                 : 1 h 19 min
0 [: p9 t& f6 [" u' @. mBit rate                                 : 707 b/s
2 e9 @" k6 w0 \' R) bCount of elements                        : 443 N& E- P% a& U, {( N9 t3 Z
Stream size                              : 411 KiB (0%), h' a8 k; s: y1 {1 H$ T- n2 u
Language                                 : Japanese
6 a8 ?1 n7 h. `# N: [" |; [9 \# aDefault                                  : No( e! C/ g9 n. X9 d. ^
Forced                                   : No% R0 L1 n! ^9 B% w9 ~7 X- C
Original source medium                   : Blu-ray
2 T2 g9 h+ K5 F' D, a
. r+ R/ {$ q# n2 q2 Y' {7 EMenu
$ l- A- _- u! c( v. r. u: X4 L) r00:00:00.000                             : en:Chapter 01  B+ ]/ e+ U* \$ T7 ^( \
00:06:11.746                             : en:Chapter 02
) q+ Q) C, ]/ x& x; {- e00:13:38.859                             : en:Chapter 03
( l4 @7 e# X# {/ T2 p4 q00:22:07.159                             : en:Chapter 04
2 Z! A+ `/ o6 O00:30:04.719                             : en:Chapter 05) Q+ _, ]0 X/ T+ Z( Z6 s% B2 S
00:37:01.010                             : en:Chapter 06: _% A2 ^& X1 ]! `+ `
00:43:23.809                             : en:Chapter 07' ?- J" m) y& J
00:51:01.558                             : en:Chapter 08
6 p0 w, w* Q( r00:58:04.063                             : en:Chapter 09
/ i  v9 n  Z0 l; N( ~01:04:29.365                             : en:Chapter 10
& D# Z/ o( S/ ^3 t1 H01:12:16.915                             : en:Chapter 11
! i( G5 c& r4 h) w" D4 u  [" r+ J01:20:57.435                             : en:Chapter 12
$ k" N1 s4 Y- U3 e  z. V3 c2 \4 r01:29:31.657                             : en:Chapter 13
, X) g5 C. m) T. x01:37:18.290                             : en:Chapter 14! i  P0 ^% g* G: u4 S1 i+ G" U
01:44:07.991                             : en:Chapter 15
6 [+ e3 S$ H8 t5 z01:50:24.618                             : en:Chapter 16
+ N# n# y* K7 L( Y% I00:00:00.054                             : en:Chapter 01
+ ^  j. \6 A4 a
7 \3 X  y. T% W6 |Smile.2022.720p.BluRayCD.x264-KNiVES 3.49 GB( V: ?' Y" e; D; b. N8 @7 V6 y3 `
0 w8 H3 _+ m3 G; L% n4 \( M, R
date .......: today+ N: A/ j0 i! V7 \$ s; X* Z/ s7 W
reso .......: 1280*640x
% H- w* H" a- k, o8 M$ gbiterate ...: 3231 Kb/s  ]6 K6 d& U, \  d6 p0 @
source .....: 28,3 Mb/s
4 T; ^% N6 i; r- O4 Ysound ......: Dolby Digital6 ?6 y) R1 @# `) `/ [0 c' J) s/ h
check ......: https://www.imdb.com/title/tt15474916/
) J- h8 T% V% K8 ~# z( unotes ......:

$ Z" w/ z4 i, v
游客,查看本帖隐藏内容请回复 | 加入VIP可免积分免回复 了解详情 | 还不是会员:点击获取邀请码 Invitation Code

本版积分规则

小黑屋|手机版|Archiver|4K蓝光论坛

GMT+8, 2024-3-5 04:53

Copyright © 2001-2021, Gadaddy Cloud.

快速回复 返回顶部 返回列表