BluRayCD Forum

 找回密码
 立即注册【分享大片】
查看: 7|回复: 0
收起左侧

[剧情悬疑] 美国犯罪故事/美式犯罪/美国杀人犯 American Murderer 2022 720p BluRaycd x264 DTS-MT 3.77GB

[复制链接]

1万

主题

387

回帖

12万

积分

Post Share

金币
3947 枚
体力
32369 点

卓越贡献勋章VIP蓝光勋章诚信会员勋章

mvods 发表于 2023-4-13 06:10:44 | 显示全部楼层 |阅读模式
+ ^' O2 i" X  S9 E. a8 `
2 [  _1 K% v6 ?! K! z, b8 J5 R
◎译  名 美国犯罪故事/美式犯罪/美国杀人犯
# j  L8 j+ B( g1 [, `! A6 r4 e◎片  名 American Murderer / Sát Nhân Nước Mỹ
) G2 n" s4 D( Y( y- L. ]6 u  C2 }◎年  代 2022
) H' P# K: B: ~8 I: A◎产  地 美国+ d/ X, G6 G0 v, b: O- p
◎类  别 剧情/惊悚/犯罪
. B+ r3 f5 g* s4 L2 H- z◎语  言 英语# l9 a9 n% A5 w# P2 ~  K& y
◎上映日期 2022-10-15(纽波特海滩国际电影节)/2022-10-28(美国)/2023-01-30(法国)
" P6 o7 n2 R! }* E# u% ]/ u( A◎IMDb评分  5.0/10 from 1,487 users
! `3 V, Y: S  g7 M6 ?◎IMDb链接  https://www.imdb.com/title/tt13603778/0 C8 v. v/ ]6 L
◎豆瓣评分 5.2/10 from 236 users) U; T* t- V$ q5 |
◎豆瓣链接 https://movie.douban.com/subject/35410316/
: O8 C: v. `  t* ?8 ~◎片  长 1 h 42 min, I8 Z0 {: U! |6 j1 y3 }
◎导  演 Matthew Gentile3 @' ?9 P; i/ Q' C3 F! P  K) a
◎编  剧 Matthew Gentile" z; ^- f; t! c# c# ?, I
◎演  员 汤姆·派福瑞 Tom Pelphrey& [) @4 b2 A7 Y* V
       瑞恩·菲利普 Ryan Phillippe+ W9 b- D7 v, b" E( e% i
       伊迪娜·门泽尔 Idina Menzel2 M* L% @! \! W+ G9 {/ j, V
       保罗·施奈德 Paul Schneider
8 |) C! {2 k# {) n8 q, S3 o       Shantel VanSanten
% S8 J; e6 [) F8 D) j       埃梅琳娜·亚当斯 Emelina Adams( e# O' P5 @2 B1 F( F
. ^2 J8 R" _6 {- C
◎简  介   5 S- p, D  b1 @# }2 Q

: f+ n! s6 |/ i  本片根据真实事件改编,讲述杰森德里克-布朗是一个极具魅力的骗子,他通过一系列的骗局手段为他的奢侈生活方式提供资金。兰斯·莱辛是一位顽固的联邦调查局特工,他决心通过跟踪布朗的生活,最终将布朗送进监狱......
% ?# `- W9 A% S* |2 ]9 K% L  B1 b- w+ n9 `! P) z) ^
  Charismatic con man Jason Derek Brown becomes wanted by the FBI after hatching his most elaborate scheme yet.' {0 f* I) L  o
American.Murderer.2022.720p.BluRayCD.x264.DTS-MT 3.77 GB
$ I; `3 ]" N, K9 N  X+ [3 O6 t: h$ p/ h: p3 b( a- }  C5 k
Video
5 k# [3 a3 g% \) d$ D) M% k+ Z! k/ SID                                       : 18 b# v" U+ H' n
Format                                   : AVC$ G2 L& N' D! P& a" x
Format/Info                              : Advanced Video Codec. E. Z- s! T6 b+ Z8 }
Format profile                           : High@L4.1
: D9 }7 H% I% z, w$ S0 S8 MFormat settings                          : CABAC / 11 Ref Frames
* D: U7 f2 [4 E1 vFormat settings, CABAC                   : Yes
# i9 _) b: n1 K! c2 O9 SFormat settings, Reference frames        : 11 frames: `+ F, Z- A) Z( I( M
Codec ID                                 : V_MPEG4/ISO/AVC
. G) p- m) H  O9 ~) P* y$ qDuration                                 : 1 h 42 min
# Y% K. n) K. M7 E* c$ B/ m2 r, l9 wBit rate                                 : 3 767 kb/s- w) R# c8 G$ G$ O& ~
Width                                    : 1 280 pixels5 h, P+ ?& P$ L/ y9 O$ a$ u
Height                                   : 572 pixels' J! q$ R; k. a/ U& O% V+ i
Display aspect ratio                     : 2.25:13 S' a5 V: v) F, q
Frame rate mode                          : Constant5 j' @. z# j5 l, g
Frame rate                               : 23.976 (24000/1001) FPS( i7 D2 }: H) E4 C/ `
Color space                              : YUV
' @- }/ r' s( L- v2 f- ~Chroma subsampling                       : 4:2:0
& E$ ^; A- E, |  @& \5 a7 y' }- o' C7 \Bit depth                                : 8 bits) U& E& e: H$ l+ R
Scan type                                : Progressive% c# H1 X$ B+ S% H3 q; ^$ j
Bits/(Pixel*Frame)                       : 0.215+ l7 V2 h9 D1 x- B( c; t. O
Stream size                              : 2.69 GiB (71%)1 v# `  T+ W6 X9 }
Writing library                          : x264 core 157 r2938 2b00a84 TnP@MTeam Mod
1 Y1 m4 S3 k- ?# W  vEncoding settings                        : cabac=1 / ref=11 / deblock=1:-3:-3 / analyse=0x3:0x133 / me=umh / subme=10 / psy=1 / psy_rd=1.05:0.00 / mixed_ref=1 / me_range=32 / chroma_me=1 / trellis=2 / 8x8dct=1 / cqm=0 / deadzone=21,11 / fast_pskip=0 / chroma_qp_offset=-2 / threads=12 / lookahead_threads=2 / sliced_threads=0 / nr=0 / decimate=0 / interlaced=0 / bluray_compat=0 / constrained_intra=0 / bframes=8 / b_pyramid=2 / b_adapt=2 / b_bias=0 / direct=3 / weightb=1 / open_gop=0 / weightp=2 / keyint=250 / keyint_min=24 / scenecut=40 / intra_refresh=0 / rc_lookahead=250 / rc=crf / mbtree=0 / crf=16.8 / qcomp=0.60 / qpmin=0 / qpmax=69 / qpstep=4 / vbv_maxrate=62500 / vbv_bufsize=78125 / crf_max=0.0 / nal_hrd=none / filler=0 / ip_ratio=1.30 / pb_ratio=1.20 / aq=3:0.80
3 f4 D" n6 \5 }; W' @6 rLanguage                                 : English) u2 E, }. h* Z, W* A
Default                                  : Yes
' W; m" p" L" Z; Z+ oForced                                   : No' U  T6 R# d1 G! t" }$ t( c6 F
Color range                              : Limited2 q1 _8 g# `  X: m" r) x* X
Color primaries                          : BT.709
3 o4 P3 B, Z, h! J) E8 v! f- @Matrix coefficients                      : BT.709# u; m" b* `" |
9 ?& b. l) C9 ~9 d. P; }
Audio
3 i) l6 V8 v6 z. t3 Q- x8 ~ID                                       : 2' ?: i5 S9 r" Y' |
Format                                   : DTS# H2 w, g, y/ R# A& l' h  L
Format/Info                              : Digital Theater Systems. D" c% m6 u0 q; H! @) |
Codec ID                                 : A_DTS
5 I2 D  J% ?1 K4 B1 g! mDuration                                 : 1 h 42 min
0 I+ Q& |* L7 pBit rate mode                            : Constant
. ^# ]0 _6 S5 p! }Bit rate                                 : 1 509 kb/s
7 H! j8 b7 `; f" C; q! q8 AChannel(s)                               : 6 channels
" j) \3 K( ?) `  b+ GChannel layout                           : C L R Ls Rs LFE( C* Q7 i$ M; D, D3 y
Sampling rate                            : 48.0 kHz/ j4 Q, T2 R+ Y* x
Frame rate                               : 93.750 FPS (512 SPF)6 U7 a8 g) S  Y4 Z+ H
Bit depth                                : 24 bits' T8 [3 s5 g. D) i
Compression mode                         : Lossy
, K; ~7 K$ r- s9 s4 XStream size                              : 1.08 GiB (29%)/ Z+ Q! }4 u) x
Language                                 : English
1 X1 z9 v$ [7 X8 [Default                                  : Yes. @/ Q  ^6 U- u9 ~; U1 @1 t
Forced                                   : No$ O/ V; @1 m& _; _- e9 Z

* k% ]" r" F" y& oText #1
* k5 g- W( \+ a+ h* uID                                       : 3
" o% m6 B5 j1 ?! f% p6 `0 qFormat                                   : UTF-8
0 G7 V2 N& o- m# Q8 \: wCodec ID                                 : S_TEXT/UTF8- V7 ]- r$ C0 I' z
Codec ID/Info                            : UTF-8 Plain Text9 I6 K* ~5 p" b  C$ M4 O
Duration                                 : 1 h 32 min
& ~" K. R+ l& V9 g1 ]9 \; c3 I) ]Bit rate                                 : 50 b/s! ?8 j  b' X1 o- f9 V( V8 |
Frame rate                               : 0.178 FPS: ]6 t. L2 Z& ^$ a9 j# x9 D# D
Count of elements                        : 986( U: L: S  _' m
Stream size                              : 34.0 KiB (0%)  h6 d4 o( C. y) m. X3 E
Language                                 : English9 k, ]4 W) v7 P
Default                                  : Yes  {5 L2 X* G" w/ f. o# h
Forced                                   : No& ?, u' z( X, Q/ J' Q

8 n; E5 k4 D1 [2 ?" E, WText #2
% J  W' z( k/ T2 @: X3 I0 `ID                                       : 43 `" @- H& M+ ?# c
Format                                   : UTF-8
: h7 H4 G1 z5 H7 T+ K+ vCodec ID                                 : S_TEXT/UTF8
% b1 Q- N( R$ v( Z4 s: ?% W8 lCodec ID/Info                            : UTF-8 Plain Text# ?! U% z5 G& [5 o7 j! }
Duration                                 : 1 h 36 min. T: v$ \, x* V  z- S
Bit rate                                 : 53 b/s/ g. s* G7 }' Q/ o# M5 `: t
Frame rate                               : 0.195 FPS/ X$ f1 ?. K+ B
Count of elements                        : 1126' Z! I+ l. |" u- C1 g3 p( m9 I8 {
Stream size                              : 37.8 KiB (0%)
5 a# C  C3 ]; X7 s$ }* zTitle                                    : SDH
7 @& D* a- w0 C- k7 QLanguage                                 : English: A% V5 L& \. H: X
Default                                  : No7 B7 z6 H9 m2 \+ ^* U
Forced                                   : No
1 C, H8 a% w. c# W) S  a
" ^/ m- G2 j; B) K) k- ?* nMenu
3 w9 D' z2 i4 J% ~4 R' f0 `00:00:00.000                             : en:Chapter 01
% w, m" Y! ~; s" e: s/ X* c" F00:06:19.254                             : en:Chapter 02' Y; \! t9 y% X8 H$ f
00:11:57.258                             : en:Chapter 03
3 ^3 G# D1 f. C00:14:49.514                             : en:Chapter 04
" |6 B" n  Y' `1 g* ~% w00:19:30.836                             : en:Chapter 05$ Q0 i+ h$ d' ]9 S3 C
00:25:03.043                             : en:Chapter 06
- d  O; x) F- `8 w8 H$ {1 s00:31:17.959                             : en:Chapter 07- d" v# p6 l( _; q& t) w0 E; l
00:38:17.253                             : en:Chapter 08
% ~' e/ y# k( f% k00:44:10.815                             : en:Chapter 096 @; I2 O0 K" B, G3 W. O; Z
00:51:17.283                             : en:Chapter 10! |, u: [3 G, f+ X; ?. A7 [
00:58:48.692                             : en:Chapter 11$ I5 m3 d2 P; H& m
01:04:10.430                             : en:Chapter 12
; i) u5 F7 g) l" E01:11:14.270                             : en:Chapter 13
& {$ [9 F+ W5 m' ~3 _, u$ |$ y" Q! `1 C01:19:31.934                             : en:Chapter 14
8 f3 j, |  x  i. R) w01:26:05.619                             : en:Chapter 15
4 q& e% v0 L. {% e! l9 v3 C( D01:34:06.558                             : en:Chapter 16

/ u9 @8 X, ~! @( U4 k; U
游客,查看本帖隐藏内容请回复 | 加入VIP可免积分免回复 了解详情 | 还不是会员:点击获取邀请码 Invitation Code

本版积分规则

小黑屋|手机版|Archiver|4K蓝光论坛

GMT+8, 2024-3-5 05:00

Copyright © 2001-2021, Gadaddy Cloud.

快速回复 返回顶部 返回列表