BluRayCD Forum

 找回密码
 立即注册【分享大片】
查看: 11|回复: 0
收起左侧

[剧情悬疑] 珍妮热线/堕胎热线/打给简/给简打电话 Call Jane 2022 720p BluRaycd x264-PiGNUS 6.54GB & 12.15GB

[复制链接]

1万

主题

387

回帖

12万

积分

Post Share

金币
3947 枚
体力
32369 点

卓越贡献勋章VIP蓝光勋章诚信会员勋章

mvods 发表于 2023-4-13 09:12:06 | 显示全部楼层 |阅读模式
; j( `( \9 J$ K, o
! s2 ~% y" n9 L! V6 h: m5 M& j! @. ^$ I
◎译  名 珍妮热线/堕胎热线(台)/打给简/给简打电话
: k( |, w5 l/ B' p◎片  名 Call Jane
- u/ g) \+ M( q7 T◎年  代 2022: T1 U) @5 a, N0 {# [! S
◎产  地 美国* I$ W8 S- E7 F! j0 X1 z0 B" \/ O/ U
◎类  别 剧情/历史
1 w4 {* X% c9 N; m- _◎语  言 英语: J+ u4 g  R' K1 t" a0 x
◎上映日期 2022-01-21(圣丹斯电影节)/2022-10-28(美国)" ?: D1 V1 z8 u4 B) R
◎IMDb评分  6.3/10 from 3,998 users
7 b) g$ `" C, M* Q1 r◎IMDb链接  https://www.imdb.com/title/tt7461272/7 h2 n1 |1 d& `* \
◎豆瓣评分 7.1/10 from 1,762 users
9 y. k. z& I1 Q◎豆瓣链接 https://movie.douban.com/subject/27146798/
  T7 Y' p5 U  @: |◎片  长 2 h 1 min
6 ~2 U( i9 {0 D" I9 Z' z◎导  演 菲丽丝·奈吉 Phyllis Nagy$ W- G9 A3 d* C9 R8 I# i% n% K
◎编  剧 海莉·绍尔 Hayley Schore2 D2 s) v3 M4 u4 T7 F* h  |# o4 i
       罗山·塞西 Roshan Sethi, l# f) J0 \% T
◎演  员 伊丽莎白·班克斯 Elizabeth Banks
5 d& p9 w( R/ s. Q% Q9 m; E       西格妮·韦弗 Sigourney Weaver
. r) i4 `* S% J8 W& R: w       克里斯·梅西纳 Chris Messina
7 J; I# ~3 _* g+ K       凯特·玛拉 Kate Mara
. [9 H( f" w' T, d5 o( T       乌米·马萨库 Wunmi Mosaku
0 z% B; a, z+ F! A: c0 M3 ]       科里·迈克尔·史密斯 Cory Michael Smith
  Q5 u: I+ j2 p% g) C       格蕾丝·爱德华兹 Grace Edwards" j5 g5 V$ n: x/ u! f
       瑞贝卡·亨德森 Rebecca Henderson1 h& f0 R1 h. u4 d6 T$ e4 Q/ r
       艾达·图多尔 Aida Turturro
' H$ Z3 G1 o1 Y) O% S3 k/ y       杰弗里·坎特尔 Geoffrey Cantor
$ C( V. v9 \% a% k; n- W       艾莉森·杰伊 Alison Jaye
. Y- z: F: n1 N: ?; u6 V& P       比安卡·德安布罗西奥 Bianca D'Ambrosio9 D+ B' L1 F# ?6 u: Y
       约翰·罗斯曼 John Rothman/ K/ t9 ~; f' c# O
       埃莉诺·科斯基 Eleanor Koski
' z) ], A6 s1 g) s, [       凯拉·福斯特 Kayla Foster+ E: K* T. F& d" |) o6 i
       约翰·马加罗 John Magaro2 D5 K6 K, q" s  r7 F; _
       米歇尔·梅森 Michelle Mason) i; j. E3 ]. M
       乔治·J·维茨纳 George J. Vezina  R9 S( r* s7 A3 v# P& I
       朱莉·维斯 Julie Weiss
9 b3 @% G' @2 g! ]" C" v# l& ]% J" t/ k& }* I& Q# Y
◎简  介   
$ O( f) Y$ i* S8 n+ K# M6 ?
0 m1 x- ]4 P; ?+ L  1968年,无论是芝加哥还是整个美国都处于政治动荡期。乔伊是一名家庭主妇,她与丈夫和女儿居住在郊区,过着平凡的生活。乔伊偶因怀孕而面临生命危险,她必须设法和一家不愿提供帮助的医疗机构周旋。为求一线生机,乔伊辗转找到“珍妮”,一个由女性组成的秘密组织,这个组织为乔伊提供了更安全的选择,也因此改变了她的人生。
6 A" o; u. S3 L
' {0 \: H5 N4 j4 m% l  A married woman with an unwanted pregnancy lives in a time in America when she can't get a legal abortion and works with a group of suburban women to find help.
+ L" l1 n- \2 I" j: @$ @
Call.Jane.2022.720p.BluRayCD.x264.DTS-MT 12.15 GB. i, x* U9 ^# K' s  D4 E. c

) F& i5 x) H- f/ n6 Q( O& F2 jVideo
$ ?4 B9 V2 _1 s( g: J" xID                                       : 1
' f% N& h2 {+ u+ U1 O0 ~9 ^Format                                   : AVC
# B# O7 O$ `& _& VFormat/Info                              : Advanced Video Codec3 `" Q6 ?9 w1 g+ {
Format profile                           : High@L4.1
) Y, o3 Q5 @( b: L1 gFormat settings                          : CABAC / 9 Ref Frames; g! u. }  M! W5 l! {
Format settings, CABAC                   : Yes$ ?& d% I5 j/ v/ r3 v6 L% l
Format settings, Reference frames        : 9 frames
9 }% J! [  [9 Y* d- s1 tCodec ID                                 : V_MPEG4/ISO/AVC$ d$ i3 b& }5 j
Duration                                 : 2 h 1 min/ ]9 b* ?5 T. t5 _9 ~7 p8 N9 R- |
Bit rate                                 : 12.8 Mb/s6 |1 b$ }+ Q  u" E; ]$ V8 K
Width                                    : 1 280 pixels
  ^( U$ A& n: xHeight                                   : 692 pixels
2 l0 f' j  A" D$ w  b" k5 IDisplay aspect ratio                     : 1.85:1
. t4 N6 @" S+ ^) P9 v" `3 t5 z( QFrame rate mode                          : Constant
) Y, c8 D4 i8 y7 r2 hFrame rate                               : 23.976 (24000/1001) FPS
4 H6 e3 @; L6 k! \5 S) FColor space                              : YUV  p. F9 ^$ y+ \
Chroma subsampling                       : 4:2:0
; ?% q8 R7 V% ]Bit depth                                : 8 bits
  ]+ b# X& H( xScan type                                : Progressive3 w( v+ Y( R- t6 {; U" }4 A
Bits/(Pixel*Frame)                       : 0.602# X& I0 J! ]( h3 U6 S
Stream size                              : 10.9 GiB (89%)8 o. _* R* s# M7 b
Writing library                          : x264 core 157 r2938 2b00a84 TnP@MTeam Mod1 S- u, c/ U' [
Encoding settings                        : cabac=1 / ref=9 / deblock=1:-3:-3 / analyse=0x3:0x133 / me=umh / subme=10 / psy=1 / psy_rd=1.05:0.00 / mixed_ref=1 / me_range=32 / chroma_me=1 / trellis=2 / 8x8dct=1 / cqm=0 / deadzone=21,11 / fast_pskip=0 / chroma_qp_offset=-2 / threads=12 / lookahead_threads=2 / sliced_threads=0 / nr=0 / decimate=0 / interlaced=0 / bluray_compat=0 / constrained_intra=0 / bframes=8 / b_pyramid=2 / b_adapt=2 / b_bias=0 / direct=3 / weightb=1 / open_gop=0 / weightp=2 / keyint=250 / keyint_min=24 / scenecut=40 / intra_refresh=0 / rc_lookahead=250 / rc=crf / mbtree=0 / crf=16.8 / qcomp=0.60 / qpmin=0 / qpmax=69 / qpstep=4 / vbv_maxrate=62500 / vbv_bufsize=78125 / crf_max=0.0 / nal_hrd=none / filler=0 / ip_ratio=1.30 / pb_ratio=1.20 / aq=3:0.80
' K4 b5 ~! P, ?8 G* B% mLanguage                                 : English
, ]+ V( T( E# j# ODefault                                  : Yes
  F+ `, T  M" I/ m+ hForced                                   : No' {0 z1 T) @5 D/ L4 A
Color range                              : Limited7 k6 d2 z7 n# C* w3 I
Color primaries                          : BT.7091 i' ]9 o, W/ M' V9 x
Matrix coefficients                      : BT.7096 f0 @6 \# _" L2 v& P

) ^) O" T4 o# F4 L% W9 nAudio1 ~$ Q6 x  Q+ Y* T% S9 X1 Z
ID                                       : 2+ O+ ]% X$ b" b! ~$ v8 h+ c% v
Format                                   : DTS
$ Y/ Q7 `2 L: w4 x+ h8 _5 @Format/Info                              : Digital Theater Systems
7 b, u' Z) `/ y% ~% m2 G) f% VCodec ID                                 : A_DTS
- T4 l; y; C% y" K5 IDuration                                 : 2 h 1 min
% f, T) s8 U. j! q- ABit rate mode                            : Constant
9 Z) @; v$ D! y- @Bit rate                                 : 1 509 kb/s( c) x+ \7 H2 v! T. W- A6 p6 E1 v0 I
Channel(s)                               : 6 channels$ C4 n- t4 V; x# [' O9 f+ _" o
Channel layout                           : C L R Ls Rs LFE
4 u: {4 Z9 ^, PSampling rate                            : 48.0 kHz2 b7 X1 Q3 {0 F. r! Y" W
Frame rate                               : 93.750 FPS (512 SPF)* ^5 G* _1 ?1 B( j% q7 \; j
Bit depth                                : 24 bits* }& B& L; y# D& E
Compression mode                         : Lossy. G; s* C, |; Q* O$ D
Stream size                              : 1.28 GiB (11%)/ k# K' S+ o# V# T8 u8 M- S
Language                                 : English: x2 Y# L) K% O2 t
Default                                  : Yes
2 O0 Q7 n* D0 m! H6 BForced                                   : No0 i( F2 G. X# p/ o
- C: `" o+ F. E9 B9 n* b
Text #17 f8 g- m6 n) l+ a
ID                                       : 3
2 \& f5 L( J; N, Z9 yFormat                                   : UTF-8% F! V  d- X! ?7 k* t
Codec ID                                 : S_TEXT/UTF8
/ a- {/ V$ f; W- Z+ ?Codec ID/Info                            : UTF-8 Plain Text
1 [# c: [. C1 cDuration                                 : 1 h 53 min- B0 r" L2 _+ j2 \
Bit rate                                 : 50 b/s% r0 ]- H3 @! `3 Q
Frame rate                               : 0.182 FPS  m, H; H9 t9 L& x3 M! [& H
Count of elements                        : 1240
# D8 g& s+ J" p# n! a6 KStream size                              : 42.0 KiB (0%)
6 ]6 Z8 q  C/ s; _$ \Language                                 : English
' u! ?+ t" V4 TDefault                                  : Yes% {$ O( u/ n' g+ U4 Q
Forced                                   : No6 e( d" E% B9 ]( |. m4 s
- i" `  ?* J/ \; X7 ]
Text #2
! i  f  o5 s1 R/ e7 i/ bID                                       : 4
( S3 P2 L: S2 X) p. E( kFormat                                   : UTF-8' c) A9 ]# n) w$ v3 G; K4 V
Codec ID                                 : S_TEXT/UTF8  @/ N: U+ }% G. B( g( D
Codec ID/Info                            : UTF-8 Plain Text5 `: D  p; `- t) w- ?" A* o, y
Duration                                 : 1 h 59 min. F1 ~. l, ^2 N# |2 q1 A
Bit rate                                 : 56 b/s
8 B4 [; U1 {: B1 nFrame rate                               : 0.201 FPS( U8 h8 U. o0 ]
Count of elements                        : 1442# G' w8 q( P: q7 B- M+ H
Stream size                              : 49.4 KiB (0%)
$ u/ U9 P- @) G2 Z3 G  w# }Title                                    : SDH* w, H/ e! O) j+ e; m; H" E& O
Language                                 : English
+ E( w5 S- ?! O4 o, j) V" kDefault                                  : No
) i" l9 u1 Q8 M, zForced                                   : No
- z. b5 Y" U# H- w# L0 G% U' r! O, l, V
Menu
( O2 [9 k( s1 j! S; ^00:00:00.000                             : en:Chapter 011 C2 d& V, c0 t2 [' L5 A4 L6 e
00:07:47.467                             : en:Chapter 029 {- ]0 ]/ A, u7 ~# ^0 V
00:18:31.110                             : en:Chapter 03
5 L  V; O* K1 a. R4 M00:23:06.051                             : en:Chapter 04/ M9 W) f9 w3 }$ |! E- ]
00:31:20.879                             : en:Chapter 05  c. A, d, e8 q. o/ }; c: _: f
00:40:32.012                             : en:Chapter 06& q5 m- _# _) f4 I% b, I$ [2 D
00:48:01.295                             : en:Chapter 07
8 [: Z- ]; Z3 F2 A* I/ ]( p00:53:43.970                             : en:Chapter 08
3 u% s( F" ?' g  c, v01:00:47.560                             : en:Chapter 09
. ~# H1 }$ y0 P9 r* i01:08:18.010                             : en:Chapter 101 [: S; N" d5 Q7 h; D7 @
01:17:18.634                             : en:Chapter 117 G2 g$ A7 a- a  l. K& e3 X
01:22:34.574                             : en:Chapter 12
9 F9 \& X. T9 K# P6 V2 O0 n01:30:47.733                             : en:Chapter 13
5 D- U- v$ p% W; a5 Y- m01:41:49.103                             : en:Chapter 14
8 \/ w  ~9 [3 b9 E) [01:46:17.996                             : en:Chapter 15# R9 K+ q1 p1 Y; a) C! d
01:54:34.868                             : en:Chapter 16
Video8 Q6 B4 @4 @0 p9 G* f/ w
ID                                       : 1
# x$ w0 k  ~9 T8 `9 v% YFormat                                   : AVC. y7 q: V( R2 r# b( k+ y/ R9 x- z
Format/Info                              : Advanced Video Codec  D* {% B, _- g2 `2 |, ]2 J
Format profile                           : High@L4.14 j' j% |) _1 S& S$ t! I5 G7 M4 M+ F
Format settings                          : CABAC / 8 Ref Frames" b" {' N+ g  c9 z: A* u
Format settings, CABAC                   : Yes. X; q% y5 g) _8 M, P, C
Format settings, Reference frames        : 8 frames
6 e  o! H+ b8 \) q( V0 f4 iCodec ID                                 : V_MPEG4/ISO/AVC
/ c0 O6 B: P* @6 T$ I+ T6 TDuration                                 : 2 h 1 min  d4 e( N7 ~  p6 R. y
Bit rate                                 : 6 917 kb/s
$ h7 c" Z8 ~7 G5 s; rWidth                                    : 1 280 pixels) S. a6 M+ E4 O
Height                                   : 690 pixels
% w6 e$ i  d/ K& `3 U: DDisplay aspect ratio                     : 1.85:1
9 I3 F1 B4 ?8 i2 B8 `1 S0 WFrame rate mode                          : Constant
" J9 A0 R# [3 \% }. {2 bFrame rate                               : 23.976 (24000/1001) FPS1 Q3 j# _. ]* p2 t# f6 [# W
Color space                              : YUV9 @: H4 o1 a& y7 w
Chroma subsampling                       : 4:2:0/ x* c0 I9 X8 W( x1 _& `
Bit depth                                : 8 bits. u" [" z/ F. I9 p: L
Scan type                                : Progressive! ~$ i, _& T, e* M4 A
Bits/(Pixel*Frame)                       : 0.3276 w8 t9 O) E, g/ z
Stream size                              : 5.88 GiB (90%). a8 o: @3 |1 Q4 V% @
Writing library                          : x264 core 164 r3101 b093bbe
; X$ w, u9 Y: v9 @6 i. z' U9 h# ?Encoding settings                        : cabac=1 / ref=8 / deblock=1:-3:-3 / analyse=0x3:0x133 / me=umh / subme=9 / psy=1 / psy_rd=1.00:0.00 / mixed_ref=1 / me_range=16 / chroma_me=1 / trellis=2 / 8x8dct=1 / cqm=0 / deadzone=21,11 / fast_pskip=1 / chroma_qp_offset=-2 / threads=22 / lookahead_threads=1 / sliced_threads=0 / nr=0 / decimate=1 / interlaced=0 / bluray_compat=0 / constrained_intra=0 / bframes=3 / b_pyramid=2 / b_adapt=2 / b_bias=0 / direct=3 / weightb=1 / open_gop=0 / weightp=2 / keyint=250 / keyint_min=23 / scenecut=40 / intra_refresh=0 / rc_lookahead=60 / rc=crf / mbtree=1 / crf=18.2 / qcomp=0.60 / qpmin=0 / qpmax=69 / qpstep=4 / ip_ratio=1.40 / aq=1:1.00
8 S9 J' e5 o, b' ODefault                                  : Yes# P5 v& J! m/ g9 p7 X
Forced                                   : No% O! c) I3 }+ s8 t5 n( g# m4 A2 O

- _$ A1 D8 S2 u$ n# h3 f4 _  k4 RAudio #1% Q! X* y6 k) A6 w- ]5 E9 W3 T
ID                                       : 22 K: J# V4 k' F* d  \9 s( X$ h
Format                                   : AC-3
0 g0 b! D  l3 G% o  b8 mFormat/Info                              : Audio Coding 3
7 l1 |9 j) B1 WCommercial name                          : Dolby Digital
7 g% b5 v, I0 `- D. R- N9 x. }Codec ID                                 : A_AC3
0 v4 ?* F( ~6 r$ S0 M' p  S2 KDuration                                 : 2 h 1 min" I- `. M/ M5 W4 `# I8 z
Bit rate mode                            : Constant
" O- c  \6 u: T- d$ }4 r; j0 XBit rate                                 : 640 kb/s( \6 _+ o! I& M5 p! I
Channel(s)                               : 6 channels3 n  ~- H. z+ S6 K  Q
Channel layout                           : L R C LFE Ls Rs
6 j' U- Z% x. a! h) C# C( g, `Sampling rate                            : 48.0 kHz
) D- w6 D/ Z6 \6 h. I8 r2 ZFrame rate                               : 31.250 FPS (1536 SPF), ^2 w) z  f; m3 }. M
Compression mode                         : Lossy
  L& L  Q0 I1 |- fStream size                              : 557 MiB (8%)& c' C& E7 F/ D1 Q$ K: y- D
Language                                 : English; M" Z' `. ]3 M
Service kind                             : Complete Main
/ d; o+ f' O5 oDefault                                  : Yes, x: U+ L1 x2 ]8 J0 `
Forced                                   : No/ H! ^2 K3 \" ~& L) K

( E  C; m8 y; q, Z  _0 a) v, DAudio #2" l  b7 H$ E+ E1 C& }
ID                                       : 3( \8 Q4 ?! O% h
Format                                   : AAC LC
2 j7 d( D! i. G4 v5 PFormat/Info                              : Advanced Audio Codec Low Complexity
, O- V) [- V1 o; P4 A/ iCodec ID                                 : A_AAC-2
2 \( t( v. w  E4 O$ k8 i: {5 t  QDuration                                 : 2 h 1 min
) h8 l7 u- W4 M+ ?+ X- E# a0 UBit rate                                 : 102 kb/s) h; V/ S0 o: v: a4 Q# a* j
Channel(s)                               : 2 channels; e3 v8 O/ R1 x, _! V2 c: \: W
Channel layout                           : L R5 ~; `; X5 z7 _8 m7 X7 l; G7 @( I
Sampling rate                            : 48.0 kHz
& e0 R9 `" t& f, F. d5 a. UFrame rate                               : 46.875 FPS (1024 SPF)2 @* Z$ U# F9 N& f: w
Compression mode                         : Lossy6 O/ S) |, r# N3 v
Delay relative to video                  : 9 ms
/ `, ^( x9 P) X* a  S! k, @Stream size                              : 88.8 MiB (1%)
0 X/ [1 ^) ^! Y: TTitle                                    : Commentary& o6 a9 ?8 A( r% R
Language                                 : English/ Z: z/ c- d3 ~. V& o
Default                                  : No6 c& b0 F0 N# l0 J( t; |4 h
Forced                                   : No7 E/ D2 m4 p. U9 U
9 @# p% t  D/ K3 h' `9 H8 i
Text #12 [! m2 e3 n9 a7 f; w
ID                                       : 4
1 x* Z$ P+ ]3 F  T2 f0 ?' M+ i9 vFormat                                   : PGS
% e# q" ^, ]7 r$ IMuxing mode                              : zlib! ]2 K! _9 j2 r7 l2 Z  F, Q( M
Codec ID                                 : S_HDMV/PGS
4 y& P3 O* a* {( [: F2 DCodec ID/Info                            : Picture based subtitle format used on BDs/HD-DVDs
: Y7 `6 E! ?1 N1 F7 `* dDuration                                 : 1 h 59 min* B# W& z& g5 A3 X
Bit rate                                 : 34.5 kb/s5 ?$ I) N' `& g9 a9 J  y+ J% }- f
Count of elements                        : 2910
$ m; _# A' V2 [% h. i0 o: D) w" dStream size                              : 29.5 MiB (0%)8 t% S0 {" a; ^% V+ [" Z
Title                                    : English SDH
- M' i9 a5 }! a6 p. g$ RLanguage                                 : English
% u1 l- B* T8 k+ [2 h  p, ]1 b8 dDefault                                  : No
  L- z" J8 u! L7 C; k' eForced                                   : No
. J6 D  T, R9 c! `6 q2 p1 W
  q" @+ n$ d: j- ]) ]Text #2
" m! j2 W% c6 J2 B1 b' N! AID                                       : 5. M0 ]6 v) |0 C- g) @3 k
Format                                   : PGS! N8 ]/ t% L9 T0 x3 ^+ B. q
Muxing mode                              : zlib1 M+ y! G& R: B
Codec ID                                 : S_HDMV/PGS
, _$ G6 n( `" E1 \8 J& e* k8 c. FCodec ID/Info                            : Picture based subtitle format used on BDs/HD-DVDs
  d# Z: y$ Y, L& T0 WDuration                                 : 2 h 0 min
. N% T! D5 S, `# e. U8 cBit rate                                 : 28.3 kb/s4 b) }+ k+ p  X7 _2 R& t% |
Count of elements                        : 2492
: Z: ^- I2 m' O0 z( w( z! Q! i& TStream size                              : 24.4 MiB (0%)6 O& x: n* `$ i( A6 l+ E, F
Title                                    : Spanish; B" _4 |# o% Y+ X& c
Language                                 : Spanish
8 D0 g  r; l% YDefault                                  : No# r" ?3 i! c8 k4 p+ r. }& W
Forced                                   : No0 l3 E, A0 H( i, Y9 p% b1 x7 ~0 {) I2 U

, g: U# ^2 H7 b# \+ lMenu
4 c6 m, ~! y: |& _% t. e00:00:00.000                             : en:Chapter 01
/ t* U& G( E7 C2 t( y5 z! `  i6 W00:07:47.467                             : en:Chapter 02
0 E% t! Y! h+ \$ Z! Z* _00:18:31.110                             : en:Chapter 033 `+ T5 v- d( _1 [' |: m
00:23:06.385                             : en:Chapter 04
0 V0 m% K! w! i: W/ ~" c00:31:20.879                             : en:Chapter 05% k6 T+ o8 ]8 j: Z' ~' R
00:40:32.055                             : en:Chapter 06
) u$ W& X. O6 n8 e" n0 @00:48:01.504                             : en:Chapter 07; g1 l- ~' ?5 H8 X; }: s6 w
00:53:44.221                             : en:Chapter 08
) R. ?$ r# E' c0 @* G( D4 d' Z01:00:47.644                             : en:Chapter 09
$ y. d: a, I, x& A7 R8 Z8 H# o01:08:18.094                             : en:Chapter 107 K6 T8 v5 ]. G- H; g# ^- H6 ?
01:17:18.634                             : en:Chapter 11. l+ J" A. Z1 r% v
01:22:34.950                             : en:Chapter 12
1 t2 }) I" }7 [0 i3 D: x01:30:48.068                             : en:Chapter 13
. d# U  [0 A( d" i. X" d01:41:49.103                             : en:Chapter 147 L. B% y8 |$ R# s! v, f
01:46:18.372                             : en:Chapter 155 @# K5 ^0 @' K
01:54:34.868                             : en:Chapter 16
2 {: G' o0 D/ {1 b: w0 L6 O0 t0 l02:01:38.750                             : en:Chapter 174 j+ }% l, E0 b" P3 u5 Y
: G2 \2 U. z6 }/ ?
Name: Call.Jane.2022.720p.BluRaycd.x264-PiGNUS 6.54 GB5 r) \) E& ]* F, X
! {+ O1 \' u2 N2 _6 I
Release date: 13-12-20223 }$ z, d; i* R" Y- [% K2 |

1 ^2 N% e! l* }/ O, ?0 bIMDB link: https://www.imdb.com/title/tt74612728 J  y4 |$ ]; |
6 Z, u7 E  R( x5 m/ O
Resolution: 1280x690
6 {8 D  }9 d' x" a# C# {Audio: English AC3 6ch 640 kbps
0 z5 u7 l- c& z" `: English AAC 2ch Commentary3 `' O; {9 O5 t7 X9 u
Video: 6917 kbps, CRF 18.2
$ u7 |9 S* X( Q5 t1 k) ZSource: 26006 kbps
( M# K2 Q, _0 g" m# n1 ]3 i) X3 B% {- B1 A( ]5 h  ^
Subtitles: English SDH, Spanish

& O- \7 e, M0 R6 O/ E
游客,查看本帖隐藏内容请回复 | 加入VIP可免积分免回复 了解详情 | 还不是会员:点击获取邀请码 Invitation Code

本版积分规则

小黑屋|手机版|Archiver|4K蓝光论坛

GMT+8, 2024-3-5 05:41

Copyright © 2001-2021, Gadaddy Cloud.

快速回复 返回顶部 返回列表