BluRayCD Forum

 找回密码
 立即注册【分享大片】
查看: 33|回复: 0
收起左侧

[动作战争] 盗贼/天劫高手 Bandit 2022 720p BluRaycd x264-PiGNUS 4.99GB

[复制链接]

1万

主题

387

回帖

12万

积分

Post Share

金币
3947 枚
体力
32369 点

卓越贡献勋章VIP蓝光勋章诚信会员勋章

mvods 发表于 2023-4-13 20:37:41 | 显示全部楼层 |阅读模式

( M0 ~- r+ d& N% |$ _; O6 w& l
% B8 ]8 o! [( {◎译  名 盗贼/天劫高手(台)" E5 l4 u1 X8 K) z
◎片  名 Bandit , C; k1 j2 M; `6 P) @
◎年  代 2022
1 ^( I4 ~' c- @9 ~3 {( x◎产  地 加拿大& Y- B8 `3 B. F7 `6 J6 M/ |
◎类  别 动作/惊悚/犯罪) `0 |: C# e$ X4 a; E2 d# i. ]
◎语  言 英语
3 j( k1 j+ x6 p! Z◎上映日期 2022-09-23(美国)/2022-10-05(葡萄牙)
3 L3 N: P- l5 ~3 Q◎IMDb评分  6.4/10 from 8,256 users
5 C+ l# }  d% I" U# Q$ n◎IMDb链接  https://www.imdb.com/title/tt9853500/# L" [, y0 T% I. p4 O, }
◎豆瓣评分 6.1/10 from 925 users5 u5 S" b; |& m: Z
◎豆瓣链接 https://movie.douban.com/subject/35284113/9 D3 ~& Y# N8 \, r. j
◎片  长 2 h 5 min
! Y7 o- C  W- H. E" `◎导  演 阿伦·安加 Allan Ungar
+ G. e5 N( a4 h- i8 m  T5 a5 J' N8 k◎编  剧 克莱格·温曼 Kraig Wenman
% O  M, I9 U" o3 V6 ~5 n       罗伯特·纳克尔 Robert Knuckle
1 O8 x' _7 B8 S+ Q◎演  员 梅尔·吉布森 Mel Gibson
, x3 H, z1 A: Q- ^+ F4 S+ i       伊丽莎·库斯伯特 Elisha Cuthbert
/ X" R( {2 K, |' k3 C       奥利薇亚·阿波 Olivia d'Abo  M6 R6 d, M8 b5 M
       乔什·杜哈明 Josh Duhamel
- @$ |2 c8 }% O8 V       内斯特·卡博内尔 Nestor Carbonell
( }& y( J  f) s- X7 C       海雷·韦伯 Haley Webb8 f4 F; e& x" \$ |+ V1 b1 C
       克莱尔·布朗森 Claire Bronson
& D2 i* P) B+ c' R+ x" I, T$ v       斯温·特梅尔 Swen Temmel& y0 ^3 r. u3 U
       莱斯莉·斯特拉顿 Leslie Stratton( t6 E1 f) e7 p  `1 g  G7 _
       基思·阿瑟·鲍顿 Keith Arthur Bolden1 ~( {7 g3 z2 L* A3 H
       齐雅拉·德安布罗西奥 Chiara D'Ambrosio8 m+ k" _$ g4 |2 q5 s& y
       蕾切尔·马卡里兰 Rachael Markarian* W5 Q! U6 @5 j: e& d. Y/ c+ T5 U! ]
       迪伦·弗拉施纳 Dylan Flashner% d! Y$ R( l5 A  s' h8 e, i
       杰森·韦尔 Jason Vail& Z5 o3 F! }* W- \& X7 P
       杰西卡·卢扎 Jessica Luza
; ^$ l0 n! Q5 J       利安德·苏莱曼 Leander Suleiman
5 t+ ~8 Z  a# Z8 R; d" z       格雷格·科贝特 Greg Corbett
  h* ^( D/ ^) E: b, M       巴迪·沃特金斯 Buddy Watkins
) A, M  u) D' K6 i7 s& b       Kameron Hood
/ i4 ]0 {7 f* L) Y+ H' x0 x. V1 y6 [- q& a0 W       Celeste Fianna8 N0 G( _2 H+ W; h8 q" Z/ r# Q
       Clayton Landey$ w8 x" I- n" D: f, Q$ o/ ^# k
       Christina Bach
+ `8 Q- \7 b- O* C       查理·萨拉 Charlie Sara7 |3 {1 ]* k+ U" d0 T* G; `! [; j
       B·J·温弗里 B.J. Winfrey
5 @4 c# {' R$ t$ n, [1 u
' t) g% W1 j! B5 c' p& P! \◎简  介   ; |' D# h' d9 H

( C# F. _- @/ d; C; J8 B  职业罪犯小吉尔伯特·加尔文(杜哈明饰)从美国监狱逃出并越过边境进入加拿大,在加拿大,他化名为罗伯特·怀特曼,有了新的身份。在坠入爱河并结婚后,他声称接受了一份旅行安全顾问的工作,但他大胆的犯罪行为仍在继续。在他向终身黑帮成员汤米(吉布森)寻求投资后,他的事业变得更加复杂,他卷入了加拿大历史上最大的抢劫案,这使他成为跨国追捕的核心人物。/ o) e3 Y3 |& G0 C  b1 \* u# l" \

8 Y; `( p. l9 Q3 d" Z: E) z$ A) m2 c# j$ }  After escaping a Michigan prison, a charming career criminal assumes a new identity in Canada and goes on to rob a record 59 banks and jewellery stores while being hunted by a police task force. Based on the story of The Flying Bandit.
& z' a" E  T. B5 `
Video) ?, H  g! \; c! F. q$ a7 f8 l
ID                                       : 1- V* T2 |" {7 i4 M4 j0 p. f
Format                                   : AVC4 Q- e/ ~& `% q2 u
Format/Info                              : Advanced Video Codec5 a! Q# g0 P5 @9 J/ f* N
Format profile                           : High@L4.1& F1 I: V$ e9 d9 T  T4 k: Z0 u2 V! F
Format settings                          : CABAC / 8 Ref Frames1 q- ^6 K+ I/ A' |5 H) `
Format settings, CABAC                   : Yes) ?) Y/ j& g1 r) U
Format settings, Reference frames        : 8 frames+ F  |) ^! Y) D" y' }
Codec ID                                 : V_MPEG4/ISO/AVC* h7 w8 I" n" {! |) n" f
Duration                                 : 2 h 5 min# L- |& `: f9 C+ e; ?3 ~
Bit rate                                 : 5 008 kb/s3 ]3 p0 @( ^" u
Width                                    : 1 280 pixels7 }9 ^+ W7 H' C$ J6 a
Height                                   : 536 pixels
7 h9 J4 Z( \3 _4 H2 SDisplay aspect ratio                     : 2.40:1+ `2 Q' G* Y8 M5 Z7 ^" w
Frame rate mode                          : Constant
  p$ \5 ^1 {4 a2 T# q' i9 dFrame rate                               : 23.976 (24000/1001) FPS+ h) W9 w" ]3 ~; z4 ~6 h
Color space                              : YUV
9 q9 l2 t8 u7 e/ Y+ fChroma subsampling                       : 4:2:0* E* L& V" d1 V. P4 i9 u
Bit depth                                : 8 bits
* }/ B& X+ b2 {% w( }0 _Scan type                                : Progressive
6 s2 o# V8 s" z0 b* B& I0 oBits/(Pixel*Frame)                       : 0.3048 s5 l, j) R0 d. i- p$ J, ?
Stream size                              : 4.40 GiB (88%)( d3 l% P/ Q6 j! n  \$ `
Writing library                          : x264 core 164 r3101 b093bbe
1 q; D, _" e/ p* W8 FEncoding settings                        : cabac=1 / ref=8 / deblock=1:-3:-3 / analyse=0x3:0x133 / me=umh / subme=9 / psy=1 / psy_rd=1.00:0.00 / mixed_ref=1 / me_range=16 / chroma_me=1 / trellis=2 / 8x8dct=1 / cqm=0 / deadzone=21,11 / fast_pskip=1 / chroma_qp_offset=-2 / threads=17 / lookahead_threads=1 / sliced_threads=0 / nr=0 / decimate=1 / interlaced=0 / bluray_compat=0 / constrained_intra=0 / bframes=3 / b_pyramid=2 / b_adapt=2 / b_bias=0 / direct=3 / weightb=1 / open_gop=0 / weightp=2 / keyint=250 / keyint_min=23 / scenecut=40 / intra_refresh=0 / rc_lookahead=60 / rc=crf / mbtree=1 / crf=18.0 / qcomp=0.60 / qpmin=0 / qpmax=69 / qpstep=4 / ip_ratio=1.40 / aq=1:1.00! I; t( q* H$ w& E0 f
Default                                  : Yes
; r/ g! t1 t' [5 }( `* xForced                                   : No
, x* z: g0 I# b% ?
% D3 }0 K4 n0 s$ t3 ?! `4 MAudio% x5 T9 s# `: _
ID                                       : 26 d: u2 M, r: N' P  G- B
Format                                   : AC-3, ^. B0 |# ]& F! v+ t% R: N5 H5 e
Format/Info                              : Audio Coding 3
/ i7 i- `! V& ~( H6 ICommercial name                          : Dolby Digital
% {9 C: j; X2 wCodec ID                                 : A_AC32 F" J( W# s2 A# O
Duration                                 : 2 h 5 min
+ b% l4 O/ ?3 `7 i1 X5 j) p! DBit rate mode                            : Constant4 h% H/ a1 S0 H& V% P2 @6 |& E" m5 [
Bit rate                                 : 640 kb/s
* H, i. Z. o+ z% y$ m% E, BChannel(s)                               : 6 channels
# A( v: X- \; o" U3 o9 s3 MChannel layout                           : L R C LFE Ls Rs; M1 h/ V7 f& {& f* L
Sampling rate                            : 48.0 kHz
5 j! s; v8 E6 _8 c2 I. CFrame rate                               : 31.250 FPS (1536 SPF)
3 b  K8 q/ C+ \8 ?, rCompression mode                         : Lossy( n5 |! h. o# f& j9 K7 J8 v
Stream size                              : 576 MiB (11%)
. ?5 N" j7 N5 xLanguage                                 : English
) a  B3 @* H/ ^1 N: K0 O8 F6 mService kind                             : Complete Main, ^( y; |' Q4 N, m
Default                                  : Yes
) x7 p$ y7 o8 [+ w) `/ PForced                                   : No7 u) |  @4 q) ^7 Y" V+ m

& S4 R8 ]) F2 ~Text
- C2 k) `; ]6 s3 lID                                       : 3/ R# H, |3 ~& ?+ ?, ], Z  Y
Format                                   : PGS
: d, W, @# y0 p) t! L& hMuxing mode                              : zlib- R& Y. b1 M& \3 |( l5 n- K8 n
Codec ID                                 : S_HDMV/PGS
: T8 F: z8 y9 C  N. TCodec ID/Info                            : Picture based subtitle format used on BDs/HD-DVDs
. E4 |* ~- b% z% E$ n+ ]7 Q  ]Duration                                 : 1 h 58 min& g7 |9 v$ s8 `# Z! D) L
Bit rate                                 : 43.8 kb/s
9 @) a. o9 [' A7 a9 KCount of elements                        : 4960
2 w# I9 B0 l7 p6 E4 {* L  uStream size                              : 37.0 MiB (1%)3 S. [" V& j0 x1 t
Title                                    : English SDH" Q* E! ~$ K3 }
Language                                 : English
5 h2 ^: q! M8 I5 h" nDefault                                  : No: _7 @* y& n+ \  u; [6 W
Forced                                   : No' [& N& \, @1 p8 }3 S- j

" I% t- a2 X. NMenu
/ ]1 W" b4 K  S! e+ r+ a00:00:00.000                             : en:Chapter 01
) R# I! P( \6 [; b/ O# z00:06:45.071                             : en:Chapter 028 d* n# A7 |+ [2 ^$ O
00:14:55.311                             : en:Chapter 03  x% h/ t2 _+ t6 M3 H, s/ g' {7 g
00:23:06.927                             : en:Chapter 04
& d5 p8 L" Z3 L; ]00:27:51.920                             : en:Chapter 05
' d( l3 R( |- }, v2 A; Q" ]) y" X00:38:35.396                             : en:Chapter 069 e1 {  e" H) P
00:44:27.665                             : en:Chapter 07
, u& r6 J9 @2 A* p00:53:25.160                             : en:Chapter 08
5 w2 v7 o, }6 E) {* J00:59:51.713                             : en:Chapter 09
" l! d4 I* c( g9 z5 \01:05:03.024                             : en:Chapter 10
8 z/ `( [+ z9 ]7 y- d  k! ^01:14:24.585                             : en:Chapter 11
8 `; d* [( ~  [+ O3 Q01:21:47.486                             : en:Chapter 128 N0 d+ v& C( R# |) @' P/ ]2 ^
01:30:05.191                             : en:Chapter 13
. c- b' ]3 w5 P, {( Q01:35:40.944                             : en:Chapter 149 |! z9 w" t" K1 O8 R
01:44:18.461                             : en:Chapter 15
% c/ @" V/ p& z& b01:51:21.174                             : en:Chapter 16& p+ S8 ^! z7 T! }
02:05:54.589                             : en:Chapter 17% z, q+ S; U9 Y3 ~  c1 c# i

' L5 l" F+ R/ k' U3 ~Name: Bandit.2022.720p.BluRayCD.x264-PiGNUS 4.99 GB
; _8 M" I: [! ?/ }! M7 ?$ L1 [" D# Y
Release date: 14-12-2022
( }) I  \( \2 U1 T
8 n- A6 {0 C9 Z# D7 m/ J/ n' VIMDB link: https://www.imdb.com/title/tt9853500
. w$ Z% G/ s9 |3 \! j+ X# g
$ F4 ?' q7 J+ ]" b' KResolution: 1280x536
+ N7 v: O6 |% rAudio: English AC3 6ch 640 kbps! w: o2 F- ^' i4 I) W2 W7 m
Video: 5008 kbps, CRF 18  |$ c& ?- o9 ]  R
Source: 19004 kbps
) @5 x' q( y! }) K$ D5 `% h9 y. C6 A+ h1 I4 S" c- X! x; q
Subtitles: English SDH
1 n8 A3 n  j+ G5 r. y6 w4 T: |
游客,查看本帖隐藏内容请回复 | 加入VIP可免积分免回复 了解详情 | 还不是会员:点击获取邀请码 Invitation Code

本版积分规则

小黑屋|手机版|Archiver|4K蓝光论坛

GMT+8, 2024-3-5 06:42

Copyright © 2001-2021, Gadaddy Cloud.

快速回复 返回顶部 返回列表