BluRayCD Forum

 找回密码
 立即注册【分享大片】
查看: 74|回复: 0
收起左侧

[喜剧爱情] 不期而遇/界外球/榄不住的爱 In from the Side 2022 720p BluRaycd x264-SCARE 4.90GB

[复制链接]

1万

主题

387

回帖

12万

积分

Post Share

金币
3947 枚
体力
32369 点

卓越贡献勋章VIP蓝光勋章诚信会员勋章

mvods 发表于 2023-4-13 22:27:09 | 显示全部楼层 |阅读模式

7 V. h1 I' a" |  q6 g7 ^
2 i- M% \6 ~$ e◎译  名 不期而遇/界外球/榄不住的爱(港)7 L% [9 ]" A/ ]- @, T
◎片  名 In from the Side / Dentro del campo
( e& Z; F& c+ o! Z2 r◎年  代 20228 X4 s$ W' e  v2 Z6 ]- n
◎产  地 英国
$ {- J. @4 H$ C( ?2 x◎类  别 剧情/爱情/同性/运动
8 B; L/ |3 R& _◎语  言 英语  N5 N( M' W- u" }. ~; L
◎上映日期 2022-03-25(BFI Flare 伦敦LGBTQ+电影节)/2022-09-16(爱尔兰)
) I& h1 E- P9 d$ c8 {◎IMDb评分  6.7/10 from 4,763 users
$ ]" i9 m  \# i. Q& ]' b/ o9 z◎IMDb链接  https://www.imdb.com/title/tt7947604/( U+ I) V4 t/ H" D+ Q7 s
◎豆瓣评分 6.9/10 from 1,580 users
8 J+ Q1 L& U4 `+ e5 T6 ]# K* w◎豆瓣链接 https://movie.douban.com/subject/35777373/0 I8 R" y6 u' R9 j  k* h8 P& v, I
◎片  长 2 h 14 min
$ O" |* Y# O7 m) N2 ?2 H◎导  演 马特·卡特 Matt Carter0 K$ r  z; u4 ]" D* V
◎编  剧 马特·卡特 Matt Carter
. s7 U$ r" M4 J& b       萧华 Adam Silver
: ?3 i( p  C; Q  P6 W) ]◎演  员 Christopher Sherwood
3 ~  A' m* D6 D, s4 m2 C4 ~       亚历山大·林肯 Alexander Lincoln2 R1 R, W7 A5 g3 \( B
       皮特·麦克佛森 Peter McPherson$ P# j: x; Q2 b9 E, g  h1 Z
       Carl Loughlin* g" g6 p0 X3 P
       Pearse Egan
( }( i$ U! `8 l9 G7 M9 l       Mary Lincoln
3 H+ q# f% }+ f( u7 j- |. ~       亚历山大·金 Alexander King. _  ?. Y. F( p" N6 U- b! i8 A' H
       凯恩·萨里 Kane Surry
$ R  W+ ~! }. N$ o       Ivan Comisso
1 n% s6 l, j& X       Chris Garner: p, c* V6 x1 v5 }
       Christopher Sherwood
" P5 W* t& X, X6 ~; i       Alex Hammond  A% p5 Q' }0 I5 X
       马特·卡特 Matt Carter' o" ?6 |! \5 k% F' g& D" D5 e

  h5 ?% b$ K* P7 M: O2 d$ R  Q, B' A◎简  介   5 Q) u5 U( w2 X3 F" ?+ p, ?; J! T

$ c6 o% i* A. o6 f& C  @4 D  在一次酒醉后的邂逅之后,来自一个资金拮据、日益分裂的同性恋橄榄球俱乐部的两名男子近乎梦游般地坠入了爱河,但他们必须隐藏日益增长的情感,否则就可能会毁掉他们热爱的俱乐部。; I3 Y) m! G1 R" {
2 j2 d4 D7 h+ o+ E1 T
  Following a drunken encounter, two equally attached men from a cash strapped and divided gay rugby club unwittingly sleepwalk into an adulterous affair but must conceal their growing feelings or risk destroying the club they love.
0 }, H6 X( h8 L0 x
Video$ u1 l4 V$ X( Y7 D, ]
ID                                       : 12 }3 G! ~8 c+ @/ H8 I% B
Format                                   : AVC
& _7 t% L- N. o/ LFormat/Info                              : Advanced Video Codec
# I/ T9 E! E1 l0 I+ P7 FFormat profile                           : [email protected]
3 h7 e  a+ m; |/ r# A. rFormat settings                          : CABAC / 12 Ref Frames6 W5 ]9 n2 Z% I
Format settings, CABAC                   : Yes
# a/ `; H! `2 B! gFormat settings, Reference frames        : 12 frames+ q: c3 ~: U" I- x2 p6 ^
Codec ID                                 : V_MPEG4/ISO/AVC) h$ N# x+ H. u# \3 l
Duration                                 : 2 h 14 min
. H+ }9 g2 g5 x$ pBit rate                                 : 4 552 kb/s
7 ]: }+ {9 q3 X" S1 NWidth                                    : 1 280 pixels$ S3 [  P7 F6 m  L' K! |3 B/ t
Height                                   : 536 pixels4 [/ I  w& b' i% A- u% I
Display aspect ratio                     : 2.40:1! r) s8 c4 u+ }2 A7 x
Frame rate mode                          : Constant
" V) m  X8 @5 `1 D- KFrame rate                               : 24.000 FPS- r) i; ?) g6 |7 J
Color space                              : YUV
4 [; }8 r% \( A" B9 aChroma subsampling                       : 4:2:0
# ?; ], ~. L; R7 PBit depth                                : 8 bits; u7 e* }4 B$ }
Scan type                                : Progressive
- u: x( F* e: K5 P; z, r9 zBits/(Pixel*Frame)                       : 0.276" L0 z$ j! n3 c
Stream size                              : 4.28 GiB (87%)( P: O, A. ?6 b6 @) ~/ y! j
Writing library                          : x264 core 164 r3102 416e3eb
! _  U5 i0 ?- s. J9 @9 VEncoding settings                        : cabac=1 / ref=12 / deblock=1:-3:-3 / analyse=0x3:0x133 / me=umh / subme=10 / psy=1 / psy_rd=1.20:0.00 / mixed_ref=1 / me_range=24 / chroma_me=1 / trellis=2 / 8x8dct=1 / cqm=0 / deadzone=21,11 / fast_pskip=0 / chroma_qp_offset=-2 / threads=17 / lookahead_threads=2 / sliced_threads=0 / nr=0 / decimate=0 / interlaced=0 / bluray_compat=0 / constrained_intra=0 / bframes=8 / b_pyramid=2 / b_adapt=2 / b_bias=0 / direct=3 / weightb=1 / open_gop=0 / weightp=2 / keyint=250 / keyint_min=24 / scenecut=40 / intra_refresh=0 / rc_lookahead=60 / rc=crf / mbtree=1 / crf=16.0 / qcomp=0.60 / qpmin=0 / qpmax=69 / qpstep=4 / ip_ratio=1.40 / aq=3:0.90% {8 \9 Q8 Y3 e' u
Default                                  : Yes
0 I6 E! E" B( ^% n1 OForced                                   : No
/ u/ ^0 F- A* W4 G1 }' J. oColor range                              : Limited
( h5 ~' O6 C: }Matrix coefficients                      : BT.709
( ^( w# Y3 P. n6 Z. S3 c, }& `4 l4 _1 t- a: U7 x
Audio
2 R* o5 G% M5 c, n8 W5 IID                                       : 2. Q+ K" ?2 R6 f- K* P7 `
Format                                   : AC-3, \# o1 p, o% ~+ D7 m1 M
Format/Info                              : Audio Coding 3( C6 f0 p9 \: o
Commercial name                          : Dolby Digital7 h! C" t# o. L3 g' [' ~
Codec ID                                 : A_AC30 ]" j' [& @+ I' Z3 e1 Q
Duration                                 : 2 h 14 min
; S. t4 s( |  V6 n% W3 x3 ABit rate mode                            : Constant, X# ^& v; F" t3 z! |, s
Bit rate                                 : 640 kb/s0 j. m, v7 S# Y# v
Channel(s)                               : 6 channels
/ s$ x' y0 R1 W2 P- IChannel layout                           : L R C LFE Ls Rs  n2 \) k7 H8 J5 {3 x
Sampling rate                            : 48.0 kHz
$ u" a. S2 H  N& p" j# w, ~) E5 z8 g' \1 vFrame rate                               : 31.250 FPS (1536 SPF)
, K; R( d0 Z: A  P2 p8 H9 R: kCompression mode                         : Lossy
* y! R/ t4 j: r+ K7 A/ tStream size                              : 616 MiB (12%)
) H5 ]$ C* M: i2 m7 K3 OLanguage                                 : English
  }1 \) }4 H" DService kind                             : Complete Main( w2 a% y7 Z1 J# V& i
Default                                  : Yes
6 U) Q  {1 E# Z9 P) b6 Q. \, OForced                                   : No7 D" N. w0 z0 {) {3 [4 D/ b, ]
/ s9 m3 t9 q3 [( \
Text #1% z8 p. p% I1 n
ID                                       : 3. y6 F! ^8 M+ K  [0 G2 p$ c
Format                                   : PGS
  X) B4 e6 u, q# c% ]2 `& \Muxing mode                              : zlib$ A' T* u, \: ~* }! r# p7 G
Codec ID                                 : S_HDMV/PGS; c* b7 S# W- i
Codec ID/Info                            : Picture based subtitle format used on BDs/HD-DVDs4 |1 u4 r" S$ p# ~! G6 x9 M
Duration                                 : 2 h 14 min5 z" v# M7 q7 U. l: S7 k! j
Bit rate                                 : 20.3 kb/s1 L0 W2 V- L7 Y, H2 u2 o$ j
Count of elements                        : 2217
# }/ D7 f$ h, X( o9 UStream size                              : 19.5 MiB (0%)
1 s" u: ]8 n) @7 p- NTitle                                    : SDH
& V1 f4 h1 O5 K. |! ~. T/ B1 g' @Language                                 : English2 q. X- o9 b- B6 C5 l: ]
Default                                  : No
  B& V3 k" p0 kForced                                   : No, v# O5 H& b; |$ `1 {/ }8 Z# ?
. ]5 n+ A: ]$ }- Q
Text #26 u: `% L- h4 J2 N- E
ID                                       : 4
6 j6 u/ K+ m0 E. T2 T; h9 \; t+ qFormat                                   : PGS: \: `9 a6 n3 T: o3 ?2 H5 |
Muxing mode                              : zlib
# F1 x* h% e2 s7 ?2 L" c5 ~( ]Codec ID                                 : S_HDMV/PGS
2 a, v+ Y+ Q; b" {Codec ID/Info                            : Picture based subtitle format used on BDs/HD-DVDs/ v$ U% J/ |5 x$ ?+ |
Duration                                 : 2 h 8 min
* o: {0 g8 r- u4 A6 ?Bit rate                                 : 17.2 kb/s
7 ^9 m) T* C) l) x6 o: E. {Count of elements                        : 17888 g$ R, {$ C7 R7 X- u7 M$ v2 A$ |9 D
Stream size                              : 15.8 MiB (0%)
: y6 E0 i) ~& I5 z" [/ x# DLanguage                                 : English
4 t6 C7 S: K& X+ H$ JDefault                                  : No5 _) R, _  \, v/ I0 n- |
Forced                                   : No
) @' L! T3 x+ s( |6 U+ w8 I( i9 t) B/ g, ~/ L
Menu
5 t: V/ ^% Y5 F7 r( G: @00:00:00.000                             : Chapter 010 x2 U4 b; v0 k" w- R  [
00:08:49.458                             : Chapter 022 U  V: R* @3 \  b( ^# j; f
00:19:32.333                             : Chapter 03
+ K1 N2 G/ h1 Q# j! g00:33:39.125                             : Chapter 04
5 b6 [/ Y* h9 ^+ y/ H00:43:32.500                             : Chapter 05- W1 A) @3 f* G2 m) U: N& m/ U% [" B* T3 v
00:53:24.667                             : Chapter 06, F" o. z+ D- K- K4 u
01:04:23.750                             : Chapter 07
+ d+ ]( }8 i' C  S01:15:52.875                             : Chapter 088 `  ]7 r/ a- E9 H# v; l6 o) j
01:27:02.292                             : Chapter 09
; C9 X" }) k0 r# N0 X% T01:41:15.167                             : Chapter 10& E3 Q6 O4 ~) f! ^
01:49:27.583                             : Chapter 119 T7 }& j# E0 O
01:59:58.875                             : Chapter 12, O' e) N" l- i! N" N3 O- S  z# o

( Q) a- c" U# X$ U. Y8 D0 VIn.from.the.Side.2022.720p.BluRayCD.x264-SCARE 4.90 GB
( L$ Y; Z$ z5 k, [$ X
" B" j$ o/ v( W3 w& ?6 ^https://www.imdb.com/title/tt79476041 e$ u$ Z$ e8 h2 o

3 t% ?' B1 n( @, g1 R* c+ fPicture -----> CRF 16 (4552 Kbps)  15.30% of source (29749 Kbps)7 v# ?" R6 T3 D# ?# ^2 z6 u6 L
Sound -------> English  AC3 5.1 (640 Kbps)
6 P9 b# H4 W" ?/ ^0 xText --------> English (SDH)  English) m! e) a8 L  e( a
Dimension ---> 5017 MB
; j( A2 s: O- r2 V
游客,查看本帖隐藏内容请回复 | 加入VIP可免积分免回复 了解详情 | 还不是会员:点击获取邀请码 Invitation Code

本版积分规则

小黑屋|手机版|Archiver|4K蓝光论坛

GMT+8, 2024-3-5 04:17

Copyright © 2001-2021, Gadaddy Cloud.

快速回复 返回顶部 返回列表