BluRayCD Forum

 找回密码
 立即注册【分享大片】
查看: 9|回复: 0
收起左侧

[剧情悬疑] 生命印痕 Lifemark 2022 720p BluRaycd x264-PiGNUS 4.32GB

[复制链接]

1万

主题

387

回帖

12万

积分

Post Share

金币
3947 枚
体力
32369 点

卓越贡献勋章VIP蓝光勋章诚信会员勋章

mvods 发表于 2023-4-13 22:57:50 | 显示全部楼层 |阅读模式

( Y+ ^+ _2 j& G
3 M( U8 [0 j. E/ I' _. P◎译  名 生命印痕  " E4 N$ N( W, \, e3 h
◎片  名 Lifemark / 라이프마크 - h4 a6 e* i' X" Y5 q$ G$ l& q
◎年  代 2022' F3 N# a/ t2 u' \0 X/ W4 Q( D1 Z
◎产  地 美国. O# c: d, X0 l% u) z% z: W- j8 A
◎类  别 剧情/家庭7 j  J* ?$ l% Q) B6 N) c6 i! z
◎语  言 英语; [$ u) q, C9 n7 j
◎上映日期 2022-09-09(美国/加拿大)8 K9 z& j- @0 w  D0 b. s: U
◎IMDb评分  5.9/10 from 867 users
  o3 U3 _) M5 {) \7 W# m5 ?( R7 F◎IMDb链接  https://www.imdb.com/title/tt20864704/' T  b* Y/ t9 o, z
◎豆瓣评分 0/10 from 0 users
: k6 w5 u. N5 X( C◎豆瓣链接 https://movie.douban.com/subject/36090754/. f* a) B1 @/ s8 F
◎片  长 1 h 44 min
3 T: w, g* M! e8 f. A( {6 h◎导  演 凯文·皮尔普斯 Kevin Peeples/ u" B7 i* k- S3 C; b
◎编  剧 斯蒂芬·肯德里克 Stephen Kendrick
# S7 f6 Q0 R: S6 w◎演  员 柯克·卡梅隆 Kirk Cameron
; J: k8 d: X, M2 v% a6 q/ `  \       埃里克斯·肯德里克 Alex Kendrick! z7 G7 k# t! i) O' m( R
       玛丽莎·莱娜·汉普顿 Marisa Lynae Hampton
2 T' Z7 M7 [7 b8 J       道恩·朗 Dawn Long
  b! b* ^1 ]8 b' f& \& Z  P       丽贝卡·罗杰斯 Rebecca Rogers+ F+ j2 g5 ]9 a: W' r
       拉斐尔·鲁杰罗 Raphael Ruggero' l, C8 a3 C9 _, H# }. S! g
       伊莎贝尔·阿尔莫扬 Isabelle Almoyan5 t# E( @( P6 N' `
       劳里·布朗 Lowrey Brown7 ]/ Z; H2 @: r) [1 Q; W
       罗伯特·托马森 Robert Thomason4 \1 l& R' |$ \4 \
       伊恩·塔克 Iain Tucker% V- `* N1 Z" Z, M: b

; C3 f! S2 J+ X  K& U' f- S: W◎简  介   $ d" V( x7 x6 b3 Y/ Y( ^; ?
  c! ^; ?. [6 ?3 N6 ~( a' p' Q
  这是一个真实的故事,强调了生命的价值和收养的美好。, N  v- y7 S# Z# A) Y( p9 d* l' v
7 P/ Q; S7 |. W! k& u: @' a0 V
  David's comfortable world is turned upside down when his birthmother unexpectedly reaches out to him, longing to meet the 18-year-old son she's only held once.
  \) _2 d3 I) G; F0 n
Video
8 N0 c$ k3 j# iID                                       : 1
% M2 w" C% u; m8 mFormat                                   : AVC
9 s4 c+ C) B: H" _0 PFormat/Info                              : Advanced Video Codec
; g2 {4 {/ A$ Y. OFormat profile                           : High@L4.1
! R$ t* D8 D; s. V) ?( m" dFormat settings                          : CABAC / 8 Ref Frames
( L6 z6 b, ]" G% j! r, M0 s" K7 p9 ?5 kFormat settings, CABAC                   : Yes
1 u7 I+ R  j" y9 r) @  gFormat settings, Reference frames        : 8 frames
  {" z3 {3 Z/ E' j$ yCodec ID                                 : V_MPEG4/ISO/AVC
* x+ v# L- Y5 ?* N0 O9 D, A5 o0 uDuration                                 : 1 h 44 min
9 F1 i% \5 F  Q( QBit rate                                 : 5 259 kb/s6 @+ |0 q3 c9 a: C8 |% q
Width                                    : 1 280 pixels  Z& b, A  Z& c2 m0 [1 {, \. X
Height                                   : 536 pixels
3 V' ]. S* y% Q9 ]Display aspect ratio                     : 2.40:1
/ s9 U! A5 V0 W  KFrame rate mode                          : Constant7 o- `) X$ i4 G
Frame rate                               : 23.976 (24000/1001) FPS. [; Z5 G- ^* z0 o* f
Color space                              : YUV8 N5 P* C' G. G- Z( M9 u
Chroma subsampling                       : 4:2:0# O  g3 `9 A& {
Bit depth                                : 8 bits; m2 o7 ]% e, f2 s
Scan type                                : Progressive
0 u" x; {* I: e" L( W9 p! Z: ZBits/(Pixel*Frame)                       : 0.320
! ?0 [. `, g5 C5 R$ lStream size                              : 3.85 GiB (89%)8 Y- v7 {2 m2 i" v! |" `
Writing library                          : x264 core 164 r3101 b093bbe8 i/ t1 M# x  K! O' e5 e! j
Encoding settings                        : cabac=1 / ref=8 / deblock=1:-3:-3 / analyse=0x3:0x133 / me=umh / subme=9 / psy=1 / psy_rd=1.00:0.00 / mixed_ref=1 / me_range=16 / chroma_me=1 / trellis=2 / 8x8dct=1 / cqm=0 / deadzone=21,11 / fast_pskip=1 / chroma_qp_offset=-2 / threads=17 / lookahead_threads=1 / sliced_threads=0 / nr=0 / decimate=1 / interlaced=0 / bluray_compat=0 / constrained_intra=0 / bframes=3 / b_pyramid=2 / b_adapt=2 / b_bias=0 / direct=3 / weightb=1 / open_gop=0 / weightp=2 / keyint=250 / keyint_min=23 / scenecut=40 / intra_refresh=0 / rc_lookahead=60 / rc=crf / mbtree=1 / crf=14.5 / qcomp=0.60 / qpmin=0 / qpmax=69 / qpstep=4 / ip_ratio=1.40 / aq=1:1.00
" M# i$ e) q& J5 b) H# D1 kDefault                                  : Yes
) Y* @7 [' T  C% S# [  z" wForced                                   : No
6 k+ t4 C; f) d1 E. S$ h. u% C, Z5 x0 b% K9 E" |' v+ S. R
Audio) w" l0 T, u( r& Y/ U& n
ID                                       : 2
. I- h6 A" q( o1 TFormat                                   : AC-3
3 |# A" ]  j! \: W6 r1 R  C% UFormat/Info                              : Audio Coding 3
$ j$ D: X; {1 a$ v* v6 G: fCommercial name                          : Dolby Digital/ \8 s- q, F% R; d; ~; }
Codec ID                                 : A_AC3
4 A- }4 W; N& TDuration                                 : 1 h 44 min- \6 q* o9 Y( I9 w' W; n5 I
Bit rate mode                            : Constant
. L5 u$ j$ M: _3 k7 V$ K" L2 UBit rate                                 : 640 kb/s
0 a" u) {. }. r1 j% {5 yChannel(s)                               : 6 channels
3 `; J7 X) t  u+ s' h6 J! A) i- CChannel layout                           : L R C LFE Ls Rs% R& H$ N. I( H3 J/ u
Sampling rate                            : 48.0 kHz  f! H6 k$ e1 u" E
Frame rate                               : 31.250 FPS (1536 SPF)1 E2 I( j6 z1 N
Compression mode                         : Lossy
7 w' H: w* C6 R6 T2 hStream size                              : 480 MiB (11%)
9 U3 Z+ R. P( ILanguage                                 : English
( |% G. O9 o6 F* L8 W3 d% n( i" o4 ?Service kind                             : Complete Main
# i4 w$ ?4 {* k* ?+ F! xDefault                                  : Yes
- k: G% V1 m. VForced                                   : No
! s9 A; ~, |' [! A
% S0 u# ^, l6 ]7 u2 p" h$ yText
7 k- [9 ^: R1 e9 s1 s$ F, KID                                       : 3/ e0 D! X( N/ k
Format                                   : PGS% T' o, X; y3 x4 u7 Y
Muxing mode                              : zlib; }5 A$ }& F1 R% {9 H
Codec ID                                 : S_HDMV/PGS; d4 C8 Q/ W* P1 E) q; Q( `
Codec ID/Info                            : Picture based subtitle format used on BDs/HD-DVDs1 P9 }/ ]2 h1 d' b* M
Duration                                 : 1 h 43 min
: I+ w9 B* c' R& SBit rate                                 : 25.7 kb/s& a6 u$ I0 p& S) _0 L! T# s
Count of elements                        : 3439
) u2 Q: _. L. b, b) [Stream size                              : 19.1 MiB (0%)
! v- F/ C4 c- H" X* aTitle                                    : English SDH
8 u! }5 K" _" y* CLanguage                                 : English# x0 T" t" |) y& ^
Default                                  : No
; _4 x( m2 {; v; CForced                                   : No
9 I% `+ l( Z, X# v; m3 A1 O0 z. v6 n
Menu4 x1 O& D# a; g- t0 {6 k5 W
00:00:00.000                             : :Chapter 01
2 s' X) N4 S) h* r4 ]" }. ~9 p( L00:09:25.482                             : :Chapter 02, D6 p6 t( |) a% a, G$ {
00:20:44.243                             : :Chapter 03( B) G8 C( Z( R4 N( o
00:30:24.239                             : :Chapter 04; a# d2 a; A) ]. o
00:38:19.631                             : :Chapter 05
3 @, R; Y& K. m  m7 P6 O7 {, R00:50:05.002                             : :Chapter 06
( r6 v5 E3 d0 v01:01:47.579                             : :Chapter 079 o7 L8 B+ Q) o/ k
01:17:42.074                             : :Chapter 08
* \  f  T/ l# U5 c' b6 X01:25:02.931                             : :Chapter 098 I2 @8 V4 b) R5 H3 s
01:36:13.017                             : :Chapter 10& N  Z, [2 ]0 R% m5 Y; e$ E! l
01:44:49.784                             : :Chapter 119 ~0 x2 @+ g& v+ U" G& d) _

+ C% T$ Y: h8 x) \6 @Name: Lifemark.2022.720p.BluRayCD.x264-PiGNUS 4.32 GB
& |+ O, d9 `* s  e# |9 F
7 t4 r: B) \9 e: _/ x( E% yRelease date: 15-12-20221 @+ \7 h1 _9 h/ B. @
/ P1 s2 S9 D, i4 B
IMDB link: https://www.imdb.com/title/tt20864704
2 t% l8 `) r$ |4 A* W- w, V5 T. M& H4 T, o/ U9 w
Resolution: 1280x536( o( f8 ?7 ~& ~6 W* g
Audio: English AC3 6ch 640 kbps4 X: ?9 U' H, v2 U1 w
Video: 5259 kbps, CRF 14.5# O) `& w/ r1 F6 P3 Y& t2 @& a; ]
Source: 19587 kbps
1 z8 c7 |+ x8 P. I+ f7 e
$ T9 t7 ^  i3 x8 F! TSubtitles: English SDH

6 {3 M% X# n- m  y5 @7 R8 x, a
游客,查看本帖隐藏内容请回复 | 加入VIP可免积分免回复 了解详情 | 还不是会员:点击获取邀请码 Invitation Code

本版积分规则

小黑屋|手机版|Archiver|4K蓝光论坛

GMT+8, 2024-3-5 05:21

Copyright © 2001-2021, Gadaddy Cloud.

快速回复 返回顶部 返回列表