BluRayCD Forum

 找回密码
 立即注册【分享大片】
查看: 9|回复: 0
收起左侧

[剧情悬疑] 金币灰黄/萊拉兄弟/藏金风暴 Leilas Brothers 2022 720p BluRaycd x264-USURY 4.85GB

[复制链接]

1万

主题

387

回帖

12万

积分

Post Share

金币
3947 枚
体力
32369 点

卓越贡献勋章VIP蓝光勋章诚信会员勋章

mvods 发表于 2023-4-17 06:02:33 | 显示全部楼层 |阅读模式

7 R) Z) B$ W! U7 M; x# q& I' T, N' l4 k" @* {) X" I
◎译  名 金币灰黄/萊拉兄弟(台)/藏金风暴(港); Z( Q/ G: }  c/ J: T. E* n7 C0 X5 W
◎片  名 برادران لیلا / Leila's Brothers / Baradaran-e Leila: I2 X4 o# g' X" ?" @- S9 e
◎年  代 2022
; Q7 x+ y4 J1 P6 y$ C$ {◎产  地 伊朗
1 H- [; Q* ?: E" R4 q' x5 }◎类  别 剧情5 h0 T3 m, u! @& E/ E
◎语  言 波斯语
/ n; T/ a5 Y3 A" z7 i( W% A" X9 K◎上映日期 2022-05-25(戛纳电影节)/2022-08-24(法国): A, j7 T0 x& T$ ~
◎IMDb评分  7.8/10 from 7,020 users/ ^0 m. P! Y0 X
◎IMDb链接  https://www.imdb.com/title/tt19653180/, u% |; T# j0 D
◎豆瓣评分 7.8/10 from 1,301 users
+ \" k3 l. {/ Z+ t% c. X; i◎豆瓣链接 https://movie.douban.com/subject/35869849/
& q) Z/ F9 x- S* s◎片  长 2 h 39 min0 j0 k+ s' U4 c0 u1 y& n' _
◎导  演 赛义德·鲁斯塔伊 Saeed Roustayi, t- M- m5 K4 |+ D) R" B6 s' D( N: d& z
◎编  剧 赛义德·鲁斯塔伊 Saeed Roustayi- f4 t5 [/ w9 c% F
       阿扎德·贾法里安 Azad Jafarian1 _) z0 u9 }* K! s
◎音  乐 Ramin Kousha : \  e2 F( D; o0 z2 A
◎摄  影 Hooman Behmanesh 2 q6 j0 O* c0 n0 D% q' a
◎演  员 塔拉内·阿里多斯蒂 Taraneh Alidoosti | 饰 Leila
4 C% x/ `7 N3 c4 A- H5 ~       Saeed Poursamimi$ \$ O( x2 y4 u3 y8 ~1 O
       纳维德·穆罕默德扎德 Navid Mohammadzadeh | 饰 Alireza
! |2 R% I6 T3 G" D. }, x       佩曼·莫阿迪 Payman Maadi | 饰 Manouchehr
* N: O2 h! A) V+ B0 O% P* ?  j) w       Mohammad Ali Mohammadi, G" M5 d' ~/ z+ `/ v5 U4 o
       法尔哈德·阿斯兰尼 / Farhad Aslani | 饰 Parviz
2 T3 C& u7 K4 c- T4 u       Malik Akhlaqi* c4 R; v, N! G+ B& D
       Mohammad Javad Babapour
4 m& L* {2 p9 N/ b6 e6 J       Nayereh Farahani  R: j; S+ W2 K% f
       Mehdi Hosseinina8 B3 V9 s( `! \" z5 e7 S0 X
       Sahar Khalili# o4 E& |2 X' c& H( n) M
       Hossein Norouzi, W2 X- h: i- y" o- B$ y

7 ~$ x4 k9 R' d" N7 V◎简  介 
; I; g7 \  N) X. {9 l4 {1 S
) Y5 i6 B& f: e) L1 u4 w  Leila将她的一生奉献给了她的父母和四个兄弟。在史无前例的经济危机的影响下,这个家庭因债务而入不敷出,并随着每个人希望的幻灭而四分五裂。为了帮助大家摆脱困境,Laila制定了一个计划:收购一家商店以便与兄弟们一起创业。每个人都把所有的积蓄投入其中,但他们缺乏最后的经济支持。与此同时,他们的父亲Esmail居然出人意料地向社区许诺了一大笔钱,以便成为社区的新任教父,因为这是波斯传统中的最高荣誉。每个成员的行为都渐渐将这个家庭推向了崩溃的边缘,而父亲的健康状况却逐渐恶化。
/ f4 K+ Z  R& n2 b" ~+ u# \! P4 ^; A& e/ h7 n' A
  At the age of 40, Leila has spent her entire life caring for her parents and four brothers. A family that is constantly arguing and under pressure from various debts in the face of sanctions against Iran. While her brothers are struggling to make ends meet, Leila makes a plan./ m; r# B$ U. p! c" a* N+ y

6 w) k3 k6 i( B9 p) Z1 h◎获奖情况 
& i8 \# m; M* ~
2 N) P, _4 D$ q  第75届戛纳电影节 (2022)7 h! A( |$ z2 C$ D+ Y6 l
  主竞赛单元 金棕榈奖(提名) 赛义德·鲁斯塔伊" q( O5 \3 I0 ^# j& y7 Z
  费比西奖 竞赛单元奖 赛义德·鲁斯塔伊
6 N/ e* n4 b; D/ P6 v
Video
9 U( p% m! q, x) K0 qID : 1
2 u! @' U+ Y0 k4 A- _Format : AVC' G6 @% l. S" |, [" [
Format/Info : Advanced Video Codec" Z; I2 W% b) k/ y- b) Q
Format profile : High@L4.1
' m: ^0 B2 a$ P! @2 [Format settings : CABAC / 9 Ref Frames
8 M- k# F* L8 r* Z* S5 iFormat settings, CABAC : Yes. Y2 e# }9 o% E, N& b% u
Format settings, Reference frames : 9 frames3 N; g$ P. [, {
Codec ID : V_MPEG4/ISO/AVC( I4 d+ ^. j6 ]( N' ?( e2 ?, p) |
Duration : 2 h 39 min
1 W, G5 }0 Y' `0 a2 ~) f+ mBit rate : 3 690 kb/s7 @% }" A; Y' i* u
Width : 1 280 pixels6 @; p. G' u# e/ v/ ^  \- u
Height : 692 pixels
1 w8 h/ u/ \3 |, L" r1 T5 qDisplay aspect ratio : 1.85:1
5 v) r0 v0 }6 A; r0 LFrame rate mode : Constant
6 c0 B4 T6 L3 ?% `( s# @Frame rate : 24.000 FPS
- v9 W0 u6 m3 J4 @Color space : YUV3 Q0 u; M- f8 f& ^. I
Chroma subsampling : 4:2:0
5 Y8 G& ^+ B$ w; E9 S- M& L- m8 vBit depth : 8 bits
. {- y* L8 K3 Q) UScan type : Progressive
# z# {+ e1 C' bBits/(Pixel*Frame) : 0.174
; \7 K, P, G1 c, n/ ~Stream size : 4.12 GiB (85%)+ G0 \2 ]) {0 F7 s4 t, M6 a
Writing library : x264 core 164 r3106 eaa68fa, a- M' {- @3 ~4 E7 E
Encoding settings : cabac=1 / ref=9 / deblock=1:-3:-3 / analyse=0x3:0x133 / me=umh / subme=10 / psy=1 / psy_rd=1.00:0.15 / mixed_ref=1 / me_range=24 / chroma_me=1 / trellis=2 / 8x8dct=1 / cqm=0 / deadzone=21,11 / fast_pskip=1 / chroma_qp_offset=-3 / threads=18 / lookahead_threads=3 / sliced_threads=0 / nr=0 / decimate=1 / interlaced=0 / bluray_compat=0 / constrained_intra=0 / bframes=8 / b_pyramid=2 / b_adapt=2 / b_bias=0 / direct=3 / weightb=1 / open_gop=0 / weightp=2 / keyint=250 / keyint_min=24 / scenecut=40 / intra_refresh=0 / rc_lookahead=60 / rc=crf / mbtree=1 / crf=16.0 / qcomp=0.60 / qpmin=0 / qpmax=69 / qpstep=4 / ip_ratio=1.40 / aq=3:0.60
: b- D1 f2 x# a% I# M. Y" iLanguage : English8 W& b! c3 u- ^4 k4 n$ V
Default : Yes7 T  O7 G. n/ n9 N3 z1 u+ K
Forced : No
/ k) N" n8 c& v( Y: mColor range : Limited
- X! u/ w. B3 |Matrix coefficients : BT.709  ]8 W1 P6 u/ k5 \9 K
$ r/ |6 w$ `/ D, b
Audio
4 z7 m6 r$ ?. e) r; xID : 2  C+ _' s; L5 C& C
Format : AC-3
8 i* ?; ?8 W# W4 P1 O9 {Format/Info : Audio Coding 3* q# o4 a' n" R& u9 `+ x+ {
Commercial name : Dolby Digital6 e5 @: D/ L6 S5 m3 _" Z
Codec ID : A_AC3  f) Y' a; ~* M% }- O, i. l0 g
Duration : 2 h 39 min4 k7 ]$ I9 k4 _
Bit rate mode : Constant
  X- H& q3 {6 x& ~Bit rate : 640 kb/s" Q* j% I) ~$ U; Q5 h, k
Channel(s) : 6 channels6 b6 O) @, R) G2 I5 v7 `
Channel layout : L R C LFE Ls Rs
5 h  _# g+ f' [  a! cSampling rate : 48.0 kHz/ i1 X" \* }, e# O, N$ @9 A
Frame rate : 31.250 FPS (1536 SPF)7 p& Q6 i$ B0 G- e7 l9 H* [
Compression mode : Lossy& U" W/ I( z/ n5 f  g
Stream size : 731 MiB (15%)4 ]0 P3 v" T! |" ~: |/ L
Language : Persian5 A2 Y& e9 O5 M1 ?' `& R
Service kind : Complete Main( i* [* B4 b- ?; y
Default : Yes+ f% Z& b) M5 s+ G8 u+ G
Forced : No( w" ]" A+ k8 x+ J: m/ F9 H. P

4 E5 _" W1 C, C1 v) DText #1
# }' n" N# i; e/ G3 c) Y# ]. RID : 37 s' K, F8 ^5 M
Format : UTF-8
% Y7 k& f4 H" g7 c3 tCodec ID : S_TEXT/UTF8. p; ]1 |3 y2 M+ s( K# W9 o
Codec ID/Info : UTF-8 Plain Text
7 j* \$ H  D* u, L, M+ GDuration : 2 h 35 min( j$ ]" z( g3 i5 z( U
Bit rate : 55 b/s
4 V9 b# \: c4 R! T! d$ Q0 nCount of elements : 2160
5 C9 Q4 d" G; Q% ?+ wStream size : 63.5 KiB (0%)
, \4 s/ T* K  F1 E5 tTitle : English
' b$ N& X! |: A& f- _6 v% pLanguage : English8 @4 W/ c4 R# x6 M
Default : Yes
. t" R1 b- z1 ~Forced : Yes
! K: n  U- C5 ?0 g1 P, f; V* b# P/ u6 ^, d4 _! N' U& F/ G
Text #2
5 ]5 A" q: e$ ~& M1 I% H$ ?ID : 4
( F. c2 x. h8 Y# h- p( H: gFormat : UTF-8
: X% U1 Y. M* n; J7 TCodec ID : S_TEXT/UTF8
* I. |1 S$ z+ e- H3 b* gCodec ID/Info : UTF-8 Plain Text. q  W- F) m+ p4 c& b, Z( j. z
Duration : 2 h 38 min
0 R4 g3 u& X2 ^" r% t* Y% iBit rate : 59 b/s
) B; y$ R! s/ |  P# u8 J2 FCount of elements : 2173) ^9 ?! n$ p' S
Stream size : 69.2 KiB (0%): B, @: N0 H( @
Title : French9 J* N* P1 |, S' M8 G# I, N5 E9 c
Language : French
- P+ R6 }: P' I. {  p7 B! t8 ^Default : No$ G4 q+ r6 X: J, m; e8 d" q
Forced : No
% S% v, q' t) [3 U9 z% y3 D) m5 k' O, z' X
Text #3% _1 p( a6 T. ], E' v
ID : 5
2 _* O) ], |" v! t* NFormat : PGS
: ~/ D$ V# c  ]. [* XMuxing mode : zlib" J2 Y. k5 }; K5 r+ V+ p; Z
Codec ID : S_HDMV/PGS
/ \" [% }7 ~$ ]' ACodec ID/Info : Picture based subtitle format used on BDs/HD-DVDs* l! l3 E; c' Q) D6 W. H7 F
Duration : 2 h 38 min( T8 l2 m) d$ z, `2 Q' ^, F
Bit rate : 15.0 kb/s
1 r$ _% }& i8 Q6 v$ V* f  n' T8 bCount of elements : 4346: f6 @7 j3 H6 u4 k  k3 d! `  R
Stream size : 17.0 MiB (0%)8 R: H# E2 e6 o! G  K( X' r
Title : French
) p9 \  m( B8 I( I* U& L8 NLanguage : French
  p* o1 o2 d( w7 y  [: l0 f7 Q2 IDefault : No1 \! v% U% `1 A0 w* U4 }& m( [
Forced : No; B3 m6 F2 i* o+ b" E
+ \' U( }$ N/ x! N
Text #4
4 j0 E) C' ?7 }4 tID : 6
3 i5 U. w: n4 y1 A3 Z: ]Format : UTF-8
6 }4 Z! D# M# G! jCodec ID : S_TEXT/UTF8) p% `1 w, g: F( T4 s3 e
Codec ID/Info : UTF-8 Plain Text
- {) y1 V$ {& }2 F; zDuration : 2 h 36 min" y$ L" c$ n( Y+ N, V+ K% p
Bit rate : 65 b/s$ \7 U9 q' V/ j0 I* P5 y
Count of elements : 2091
* t9 x2 X, V% `' A3 b. jStream size : 74.9 KiB (0%)
* Y9 r7 o! }- MTitle : Turkish" D6 Z- D" }+ e8 y
Language : Turkish" |: e. q6 v8 ]2 h
Default : No
2 b2 @- k7 F* Y; w" UForced : No
/ o, u% c4 \+ Y8 A) {+ S$ S4 i1 B, A0 |  G& d" `2 M' V7 l
Menu
7 k; O% ^- K, e9 M3 E! q* H00:00:00.000 : en:00:00:00.000/ ?. c6 ?# m6 V5 v9 G. U( F  l
00:10:01.917 : en:00:10:01.917; j& Q$ s8 X5 ~3 R/ D/ I/ J1 W1 ]1 E
00:18:56.833 : en:00:18:56.8339 x+ `; Z; D& S) y
00:32:33.625 : en:00:32:33.625
" A+ e6 [1 V; ~  \) H00:41:31.417 : en:00:41:31.417  n6 k7 @" U" x  n# v1 x
00:55:08.667 : en:00:55:08.667( [! x" y& T+ S- e9 E6 r
01:04:26.167 : en:01:04:26.167
2 L4 d7 g- T9 Z8 b4 P01:14:40.000 : en:01:14:40.000
2 s* g$ A  p. b$ C) I% \2 t. S01:23:05.167 : en:01:23:05.167
" d1 \. y) T) r8 @! M01:29:23.042 : en:01:29:23.042
5 ^3 ?$ C" i) u; y7 X01:40:56.583 : en:01:40:56.583
4 h( N) l1 L6 c0 r$ w' E' N8 B# e01:49:53.917 : en:01:49:53.917' X0 W/ @6 ]3 U0 ?8 \0 ?
02:01:06.583 : en:02:01:06.583$ }7 S% V7 u  Y4 ~2 m$ E5 r& {
02:13:50.125 : en:02:13:50.125
3 e7 M8 {" M! p  O0 l  T$ W- {7 x02:26:40.125 : en:02:26:40.125( O6 }# Z& J) L8 T! S% \: x! z
02:36:25.542 : en:02:36:25.542
1 V" B  U$ P* p- x
8 W( z6 [3 |, v" O. T1 T0 gLeilas.Brothers.2022.720p.BluRayCD.x264-USURY 4.85 GB  R. ^6 F, ]% W! I

( V- F$ @) P  _- O2 M, j- c/ U9 T* WVideo...: 1280x692 3690kb/s @ crf16.0 24.000fps$ [! m/ [" S1 L/ P5 [5 W5 Q4 ]
Audio...: Persian 640kb/s 6ch AC-3/ u0 b7 j* o. H& X. q! n* g' b2 |
SRT Subs: English  French  Turkish
% a# `# r+ y) W) H5 s& Q" `PGS Subs: French
9 `* K7 N; e$ `/ o; w  e0 ZSize....: 4966.70mb (5207962876bytes)
5 s) A0 v, |0 G  X. h3 J* v' HRuntime.: 2h 39mn
( P8 I, R, M8 C0 L" \* i' vIMDb....: https://www.imdb.com/title/tt19653180
) p9 ~+ j- t' y3 m1 f$ F7 e
; M3 p8 w) m4 u+ o! lSource Bitrate: 28010kb/s
, \8 o) E5 h! D% m; Z2 I& n% e9 |
English and Turkish subs from Mubi  everything else from FR BD.

6 _% t" f9 y3 B' ?
游客,查看本帖隐藏内容请回复 | 加入VIP可免积分免回复 了解详情 | 还不是会员:点击获取邀请码 Invitation Code

本版积分规则

小黑屋|手机版|Archiver|4K蓝光论坛

GMT+8, 2024-3-5 05:09

Copyright © 2001-2021, Gadaddy Cloud.

快速回复 返回顶部 返回列表